  0
SECTION
  2
HEADER
  9
$ACADVER
  1
AC1014
  9
$ACADMAINTVER
 70
     0
  9
$DWGCODEPAGE
  3
ANSI_1252
  9
$INSBASE
 10
-655.0
 20
3090.0
 30
0.0
  9
$EXTMIN
 10
-1163.125037
 20
3075.624991
 30
0.0
  9
$EXTMAX
 10
-645.625037
 20
3766.374991
 30
0.0
  9
$LIMMIN
 10
0.0
 20
0.0
  9
$LIMMAX
 10
420.0
 20
297.0
  9
$ORTHOMODE
 70
     0
  9
$REGENMODE
 70
     1
  9
$FILLMODE
 70
     1
  9
$QTEXTMODE
 70
     0
  9
$MIRRTEXT
 70
     1
  9
$DRAGMODE
 70
     2
  9
$LTSCALE
 40
1.0
  9
$OSMODE
 70
   547
  9
$ATTMODE
 70
     1
  9
$TEXTSIZE
 40
4.0
  9
$TRACEWID
 40
1.0
  9
$TEXTSTYLE
  7
ROMANS
  9
$CLAYER
  8
RAM
  9
$CELTYPE
  6
BYLAYER
  9
$CECOLOR
 62
   256
  9
$CELTSCALE
 40
1.0
  9
$DELOBJ
 70
     1
  9
$DISPSILH
 70
     0
  9
$DIMSCALE
 40
1.0
  9
$DIMASZ
 40
2.5
  9
$DIMEXO
 40
0.625
  9
$DIMDLI
 40
3.75
  9
$DIMRND
 40
0.0
  9
$DIMDLE
 40
0.0
  9
$DIMEXE
 40
1.25
  9
$DIMTP
 40
0.0
  9
$DIMTM
 40
0.0
  9
$DIMTXT
 40
4.0
  9
$DIMCEN
 40
2.5
  9
$DIMTSZ
 40
0.0
  9
$DIMTOL
 70
     0
  9
$DIMLIM
 70
     0
  9
$DIMTIH
 70
     0
  9
$DIMTOH
 70
     0
  9
$DIMSE1
 70
     0
  9
$DIMSE2
 70
     0
  9
$DIMTAD
 70
     1
  9
$DIMZIN
 70
     8
  9
$DIMBLK
  1

  9
$DIMASO
 70
     1
  9
$DIMSHO
 70
     1
  9
$DIMPOST
  1

  9
$DIMAPOST
  1

  9
$DIMALT
 70
     0
  9
$DIMALTD
 70
     4
  9
$DIMALTF
 40
0.0394
  9
$DIMLFAC
 40
1.0
  9
$DIMTOFL
 70
     1
  9
$DIMTVP
 40
0.0
  9
$DIMTIX
 70
     0
  9
$DIMSOXD
 70
     0
  9
$DIMSAH
 70
     0
  9
$DIMBLK1
  1

  9
$DIMBLK2
  1

  9
$DIMSTYLE
  2
STANDARD
  9
$DIMCLRD
 70
     0
  9
$DIMCLRE
 70
     0
  9
$DIMCLRT
 70
     6
  9
$DIMTFAC
 40
1.0
  9
$DIMGAP
 40
2.0
  9
$DIMJUST
 70
     0
  9
$DIMSD1
 70
     0
  9
$DIMSD2
 70
     0
  9
$DIMTOLJ
 70
     1
  9
$DIMTZIN
 70
     0
  9
$DIMALTZ
 70
     0
  9
$DIMALTTZ
 70
     0
  9
$DIMFIT
 70
     3
  9
$DIMUPT
 70
     0
  9
$DIMUNIT
 70
     8
  9
$DIMDEC
 70
     4
  9
$DIMTDEC
 70
     4
  9
$DIMALTU
 70
     8
  9
$DIMALTTD
 70
     4
  9
$DIMTXSTY
  7
ROMANS
  9
$DIMAUNIT
 70
     0
  9
$LUNITS
 70
     2
  9
$LUPREC
 70
     4
  9
$SKETCHINC
 40
1.0
  9
$FILLETRAD
 40
10.0
  9
$AUNITS
 70
     0
  9
$AUPREC
 70
     0
  9
$MENU
  1
acad
  9
$ELEVATION
 40
0.0
  9
$PELEVATION
 40
0.0
  9
$THICKNESS
 40
0.0
  9
$LIMCHECK
 70
     0
  9
$BLIPMODE
 70
     0
  9
$CHAMFERA
 40
10.0
  9
$CHAMFERB
 40
10.0
  9
$CHAMFERC
 40
20.0
  9
$CHAMFERD
 40
0.0
  9
$SKPOLY
 70
     0
  9
$TDCREATE
 40
2451083.294540393
  9
$TDUPDATE
 40
2452293.402432176
  9
$TDINDWG
 40
5.3124682870
  9
$TDUSRTIMER
 40
5.3124682870
  9
$USRTIMER
 70
     1
  9
$ANGBASE
 50
0.0
  9
$ANGDIR
 70
     0
  9
$PDMODE
 70
     0
  9
$PDSIZE
 40
0.0
  9
$PLINEWID
 40
0.0
  9
$COORDS
 70
     1
  9
$SPLFRAME
 70
     0
  9
$SPLINETYPE
 70
     6
  9
$SPLINESEGS
 70
     8
  9
$ATTDIA
 70
     0
  9
$ATTREQ
 70
     1
  9
$HANDLING
 70
     1
  9
$HANDSEED
  5
3EF
  9
$SURFTAB1
 70
     6
  9
$SURFTAB2
 70
     6
  9
$SURFTYPE
 70
     6
  9
$SURFU
 70
     6
  9
$SURFV
 70
     6
  9
$UCSNAME
  2

  9
$UCSORG
 10
0.0
 20
0.0
 30
0.0
  9
$UCSXDIR
 10
1.0
 20
0.0
 30
0.0
  9
$UCSYDIR
 10
0.0
 20
1.0
 30
0.0
  9
$PUCSNAME
  2

  9
$PUCSORG
 10
0.0
 20
0.0
 30
0.0
  9
$PUCSXDIR
 10
1.0
 20
0.0
 30
0.0
  9
$PUCSYDIR
 10
0.0
 20
1.0
 30
0.0
  9
$USERI1
 70
     0
  9
$USERI2
 70
     0
  9
$USERI3
 70
     0
  9
$USERI4
 70
     0
  9
$USERI5
 70
     0
  9
$USERR1
 40
0.0
  9
$USERR2
 40
0.0
  9
$USERR3
 40
0.0
  9
$USERR4
 40
0.0
  9
$USERR5
 40
0.0
  9
$WORLDVIEW
 70
     1
  9
$SHADEDGE
 70
     3
  9
$SHADEDIF
 70
    70
  9
$TILEMODE
 70
     1
  9
$MAXACTVP
 70
    48
  9
$PINSBASE
 10
0.0
 20
0.0
 30
0.0
  9
$PLIMCHECK
 70
     0
  9
$PEXTMIN
 10
1.000000E+20
 20
1.000000E+20
 30
1.000000E+20
  9
$PEXTMAX
 10
-1.000000E+20
 20
-1.000000E+20
 30
-1.000000E+20
  9
$PLIMMIN
 10
0.0
 20
0.0
  9
$PLIMMAX
 10
420.0
 20
297.0
  9
$UNITMODE
 70
     0
  9
$VISRETAIN
 70
     1
  9
$PLINEGEN
 70
     0
  9
$PSLTSCALE
 70
     1
  9
$TREEDEPTH
 70
  3020
  9
$PICKSTYLE
 70
     1
  9
$CMLSTYLE
  2
STANDARD
  9
$CMLJUST
 70
     0
  9
$CMLSCALE
 40
20.0
  9
$PROXYGRAPHICS
 70
     1
  9
$MEASUREMENT
 70
     0
  0
ENDSEC
  0
SECTION
  2
CLASSES
  0
CLASS
  1
LWPOLYLINE
  2
AcDbPolyline
  3
"AutoCAD"
 90
        0
280
     0
281
     1
  0
CLASS
  1
DICTIONARYVAR
  2
AcDbDictionaryVar
  3
"AutoCAD"
 90
        0
280
     0
281
     0
  0
CLASS
  1
HATCH
  2
AcDbHatch
  3
"ACAD_SEDONA"
 90
        0
280
     0
281
     1
  0
CLASS
  1
ACDBDICTIONARYWDFLT
  2
AcDbDictionaryWithDefault
  3
AutoCAD 2000
 90
        0
280
     0
281
     0
  0
CLASS
  1
ACDBPLACEHOLDER
  2
AcDbPlaceHolder
  3
AutoCAD 2000
 90
        0
280
     0
281
     0
  0
CLASS
  1
LAYOUT
  2
AcDbLayout
  3
AutoCAD 2000
 90
        0
280
     0
281
     0
  0
CLASS
  1
LONG_TRANSACTION
  2
AcDbLongTransaction
  3
AutoCAD 2000
 90
        0
280
     0
281
     0
  0
CLASS
  1
LWPOLYLINE
  2
AcDbPolyline
  3
"AutoCAD"
 90
        0
280
     0
281
     1
  0
CLASS
  1
HATCH
  2
AcDbHatch
  3
"ACAD_SEDONA"
 90
        0
280
     0
281
     1
  0
CLASS
  1
XRECORD
  2
AcDbXrecord
  3
"<Built In>"
 90
        0
280
     0
281
     0
  0
ENDSEC
  0
SECTION
  2
TABLES
  0
TABLE
  2
VPORT
  5
12
100
AcDbSymbolTable
 70
     1
  0
VPORT
  5
2F1
102
{ACAD_XDICTIONARY
360
2F2
102
}
100
AcDbSymbolTableRecord
100
AcDbViewportTableRecord
  2
*ACTIVE
 70
     0
 10
0.0
 20
0.0
 11
1.0
 21
1.0
 12
-881.054817
 22
3406.764697
 13
0.0
 23
0.0
 14
5.0
 24
5.0
 15
10.0
 25
10.0
 16
0.0
 26
0.0
 36
1.0
 17
0.0
 27
0.0
 37
0.0
 40
797.84576
 41
1.630435
 42
50.0
 43
0.0
 44
0.0
 50
0.0
 51
0.0
 71
     0
 72
   100
 73
     1
 74
     1
 75
     1
 76
     0
 77
     0
 78
     2
  0
ENDTAB
  0
TABLE
  2
LTYPE
  5
D
100
AcDbSymbolTable
 70
     2
  0
LTYPE
  5
E
100
AcDbSymbolTableRecord
100
AcDbLinetypeTableRecord
  2
BYBLOCK
 70
     0
  3

 72
    65
 73
     0
 40
0.0
  0
LTYPE
  5
F
100
AcDbSymbolTableRecord
100
AcDbLinetypeTableRecord
  2
BYLAYER
 70
     0
  3

 72
    65
 73
     0
 40
0.0
  0
LTYPE
  5
5
100
AcDbSymbolTableRecord
100
AcDbLinetypeTableRecord
  2
CONTINUOUS
 70
     0
  3
Solid line
 72
    65
 73
     0
 40
0.0
  0
LTYPE
  5
C9
100
AcDbSymbolTableRecord
100
AcDbLinetypeTableRecord
  2
DASHDOT
 70
     0
  3
__ . __ . __ . __ . __ . __ . __ . __ . __ . __
 72
    65
 73
     4
 40
1.0
 49
0.5
 74
     0
 49
-0.25
 74
     0
 49
0.0
 74
     0
 49
-0.25
 74
     0
  0
ENDTAB
  0
TABLE
  2
LAYER
  5
A
100
AcDbSymbolTable
 70
    10
  0
LAYER
  5
4
100
AcDbSymbolTableRecord
100
AcDbLayerTableRecord
  2
0
 70
     0
 62
     7
  6
CONTINUOUS
  0
LAYER
  5
8B
100
AcDbSymbolTableRecord
100
AcDbLayerTableRecord
  2
STALPROFIL
 70
     0
 62
     1
  6
CONTINUOUS
  0
LAYER
  5
8D
100
AcDbSymbolTableRecord
100
AcDbLayerTableRecord
  2
SPKONTUR
 70
     0
 62
     7
  6
CONTINUOUS
  0
LAYER
  5
31
100
AcDbSymbolTableRecord
100
AcDbLayerTableRecord
  2
GLAS_MED_FOGNING
 70
     0
 62
     2
  6
CONTINUOUS
  0
LAYER
  5
44
100
AcDbSymbolTableRecord
100
AcDbLayerTableRecord
  2
TEXT
 70
     0
 62
     6
  6
CONTINUOUS
  0
LAYER
  5
1B
100
AcDbSymbolTableRecord
100
AcDbLayerTableRecord
  2
RAM
 70
     0
 62
     5
  6
CONTINUOUS
  0
LAYER
  5
C8
100
AcDbSymbolTableRecord
100
AcDbLayerTableRecord
  2
CENTRUM
 70
     0
 62
     3
  6
DASHDOT
  0
LAYER
  5
7C
100
AcDbSymbolTableRecord
100
AcDbLayerTableRecord
  2
DIMENSION
 70
     0
 62
     2
  6
CONTINUOUS
  0
LAYER
  5
85
102
{ACAD_XDICTIONARY
360
326
102
}
100
AcDbSymbolTableRecord
100
AcDbLayerTableRecord
  2
DEFPOINTS
 70
     0
 62
     7
  6
CONTINUOUS
  0
LAYER
  5
21
100
AcDbSymbolTableRecord
100
AcDbLayerTableRecord
  2
RAMTEXT
 70
     0
 62
     6
  6
CONTINUOUS
  0
ENDTAB
  0
TABLE
  2
STYLE
  5
B
100
AcDbSymbolTable
 70
     4
  0
STYLE
  5
C
100
AcDbSymbolTableRecord
100
AcDbTextStyleTableRecord
  2
STANDARD
 70
     0
 40
0.0
 41
1.0
 50
0.0
 71
     0
 42
2.5
  3
txt
  4

  0
STYLE
  5
1C
100
AcDbSymbolTableRecord
100
AcDbTextStyleTableRecord
  2
ROMANS
 70
     0
 40
0.0
 41
0.8
 50
0.0
 71
     0
 42
4.0
  3
romans
  4

  0
STYLE
  5
22
100
AcDbSymbolTableRecord
100
AcDbTextStyleTableRecord
  2
ISO
 70
     0
 40
0.0
 41
1.0
 50
0.0
 71
     0
 42
3.15
  3
ISO.SHX
  4

  0
STYLE
  5
75
100
AcDbSymbolTableRecord
100
AcDbTextStyleTableRecord
  2
ROMANT
 70
     0
 40
0.0
 41
0.8
 50
0.0
 71
     0
 42
5.0
  3
romant
  4

  0
ENDTAB
  0
TABLE
  2
VIEW
  5
10
100
AcDbSymbolTable
 70
     0
  0
ENDTAB
  0
TABLE
  2
UCS
  5
11
100
AcDbSymbolTable
 70
     0
  0
ENDTAB
  0
TABLE
  2
APPID
  5
14
100
AcDbSymbolTable
 70
     2
  0
APPID
  5
15
100
AcDbSymbolTableRecord
100
AcDbRegAppTableRecord
  2
ACAD
 70
     0
  0
APPID
  5
72
100
AcDbSymbolTableRecord
100
AcDbRegAppTableRecord
  2
CONTENTBLOCKICON
 70
     0
  0
ENDTAB
  0
TABLE
  2
DIMSTYLE
  5
16
100
AcDbSymbolTable
 70
     1
  0
DIMSTYLE
105
1E
102
{ACAD_REACTORS
330
18C
330
B4
330
1AA
330
248
330
260
330
1C2
330
E0
330
7B
330
19D
330
280
330
23A
330
15F
330
205
330
2AC
330
F4
330
1D3
330
272
102
}
100
AcDbSymbolTableRecord
100
AcDbDimStyleTableRecord
  2
STANDARD
 70
     0
  3

  4

  5

  6

  7

 40
1.0
 41
0.18
 42
0.0625
 43
0.38
 44
0.18
 45
0.0
 46
0.0
 47
0.0
 48
0.0
140
0.18
141
0.09
142
0.0
143
25.4
144
1.0
145
0.0
146
1.0
147
0.09
 71
     0
 72
     0
 73
     1
 74
     1
 75
     0
 76
     0
 77
     0
 78
     0
170
     0
171
     2
172
     0
173
     0
174
     0
175
     0
176
     0
177
     0
178
     0
270
     2
271
     4
272
     4
273
     2
274
     2
340
C
275
     0
280
     0
281
     0
282
     0
283
     1
284
     0
285
     0
286
     0
287
     3
288
     0
  0
ENDTAB
  0
TABLE
  2
BLOCK_RECORD
  5
1
100
AcDbSymbolTable
 70
    42
  0
BLOCK_RECORD
  5
2
102
{ACAD_XDICTIONARY
360
315
102
}
100
AcDbSymbolTableRecord
100
AcDbBlockTableRecord
  2
*MODEL_SPACE
  0
BLOCK_RECORD
  5
7
102
{ACAD_XDICTIONARY
360
317
102
}
100
AcDbSymbolTableRecord
100
AcDbBlockTableRecord
  2
*PAPER_SPACE
  0
BLOCK_RECORD
  5
C6
100
AcDbSymbolTableRecord
100
AcDbBlockTableRecord
  2
SP40020
  0
BLOCK_RECORD
  5
C4
100
AcDbSymbolTableRecord
100
AcDbBlockTableRecord
  2
SP41520
  0
BLOCK_RECORD
  5
102
100
AcDbSymbolTableRecord
100
AcDbBlockTableRecord
  2
*X2
  0
BLOCK_RECORD
  5
11B
100
AcDbSymbolTableRecord
100
AcDbBlockTableRecord
  2
*X3
  0
BLOCK_RECORD
  5
32
100
AcDbSymbolTableRecord
100
AcDbBlockTableRecord
  2
RAMA4
1001
CONTENTBLOCKICON
1071
        0
1004
2800000020000000200000000100040000000000000200000000000000000000000000000000000000000000000080000080000000808000800000008000800080800000C0C0C000808080000000FF0000FF000000FFFF00FF000000FF00FF00FFFF0000FFFFFF00FFFFFFCFFFFFFFFFFFFFFFFFFFFFFFFFFFFFF9DDCCCDDD
1004
CCCCCCDDDDDCCFFFFFFFFFF999D9CDDDFFFFCDDDDDDCCFFFFFFFFFFDDDDDDDDDDDDDCDDDDCCCCFFFFFFFFFFCCCCCCCCCCCCCCCCCCCCCCFFFFFFFFFFCFFFFFFFFFFFFFFFFFFFFCFFFFFFFFFFCFFFFFFFFFFFFFFFFFFFFCFFFFFFFFFFCFFFFFFFFFFFFFFFFFFFFCFFFFFFFFFFCFFFFFFFFFFFFFFFFFFFFCFFFFFFFFFFCFFFFFF
1004
FFFFFFFFFFFFFFCFFFFFFFFFFCFFFFFFFFFFFFFFFFFFFFCFFFFFFFFFFCFFFFFFFFFFFFFFFFFFFFCFFFFFFFFFFCFFFFFFFFFFFFFFFFFFFFCFFFFFFFFFFCFFFFFFFFFFFFFFFFFFFFCFFFFFFFFFFCFFFFFFFFFFFFFFFFFFFFCFFFFFFFFFFCFFFFFFFFFFFFFFFFFFFFCFFFFFFFFFCCFFFFFFFFFFFFFFFFFFFFCCFFFFFFFFFCFFFF
1004
FFFFFFFFFFFFFFFFCFFFFFFFFFFCFFFFFFFFFFFFFFFFFFFFCFFFFFFFFFFCFFFFFFFFFFFFFFFFFFFFCFFFFFFFFFFCFFFFFFFFFFFFFFFFFFFFCFFFFFFFFFFCFFFFFFFFFFFFFFFFFFFFCFFFFFFFFFFCFFFFFFFFFFFFFFFFFFFFCFFFFFFFFFFCFFFFFFFFFFFFFFFFFFFFCFFFFFFFFFFCFFFFFFFFFFFFFFFFFFFFCFFFFFFFFFFCFF
1004
FFFFFFFFFFFFFFFFFFCFFFFFFFFFFCFFFFFFFFFFFFFFFFFFFFCFFFFFFFFFFCFFFFFFFFFFFFFFFFFFFFCFFFFFFFFFFCFFFFFFFFFFFFFFFFFFFFCFFFFFFFFFFCFFFFFFFFFFFFFFFFFFFFCFFFFFFFFFFCCCCCCCCCCCCCCCCCCCCCCFFFFFFFFFFFCFFFFFFFFFFFFFFFFFFFFFFFFF
  0
BLOCK_RECORD
  5
92
100
AcDbSymbolTableRecord
100
AcDbBlockTableRecord
  2
*X5
  0
BLOCK_RECORD
  5
1B8
100
AcDbSymbolTableRecord
100
AcDbBlockTableRecord
  2
SP75021-750-10
  0
BLOCK_RECORD
  5
25B
100
AcDbSymbolTableRecord
100
AcDbBlockTableRecord
  2
SP01502020
  0
BLOCK_RECORD
  5
31A
100
AcDbSymbolTableRecord
100
AcDbBlockTableRecord
  2
*D25
  0
BLOCK_RECORD
  5
328
100
AcDbSymbolTableRecord
100
AcDbBlockTableRecord
  2
*D26
  0
BLOCK_RECORD
  5
334
100
AcDbSymbolTableRecord
100
AcDbBlockTableRecord
  2
*D27
  0
BLOCK_RECORD
  5
340
100
AcDbSymbolTableRecord
100
AcDbBlockTableRecord
  2
*D28
  0
BLOCK_RECORD
  5
34C
100
AcDbSymbolTableRecord
100
AcDbBlockTableRecord
  2
*D29
  0
BLOCK_RECORD
  5
358
100
AcDbSymbolTableRecord
100
AcDbBlockTableRecord
  2
*D30
  0
BLOCK_RECORD
  5
364
100
AcDbSymbolTableRecord
100
AcDbBlockTableRecord
  2
*D31
  0
BLOCK_RECORD
  5
370
100
AcDbSymbolTableRecord
100
AcDbBlockTableRecord
  2
*D32
  0
BLOCK_RECORD
  5
37C
100
AcDbSymbolTableRecord
100
AcDbBlockTableRecord
  2
*D33
  0
BLOCK_RECORD
  5
388
100
AcDbSymbolTableRecord
100
AcDbBlockTableRecord
  2
*D34
  0
BLOCK_RECORD
  5
394
100
AcDbSymbolTableRecord
100
AcDbBlockTableRecord
  2
*D35
  0
BLOCK_RECORD
  5
3A0
100
AcDbSymbolTableRecord
100
AcDbBlockTableRecord
  2
*D36
  0
BLOCK_RECORD
  5
3AC
100
AcDbSymbolTableRecord
100
AcDbBlockTableRecord
  2
*D37
  0
BLOCK_RECORD
  5
3B8
100
AcDbSymbolTableRecord
100
AcDbBlockTableRecord
  2
*D38
  0
BLOCK_RECORD
  5
3C4
100
AcDbSymbolTableRecord
100
AcDbBlockTableRecord
  2
*D39
  0
BLOCK_RECORD
  5
3D0
100
AcDbSymbolTableRecord
100
AcDbBlockTableRecord
  2
*D40
  0
BLOCK_RECORD
  5
3DC
100
AcDbSymbolTableRecord
100
AcDbBlockTableRecord
  2
*D41
  0
ENDTAB
  0
ENDSEC
  0
SECTION
  2
BLOCKS
  0
BLOCK
  5
3
100
AcDbEntity
  8
0
100
AcDbBlockBegin
  2
*MODEL_SPACE
 70
     2
 10
0.0
 20
0.0
 30
0.0
  3
*MODEL_SPACE
  1

  0
ENDBLK
  5
6
100
AcDbEntity
  8
0
100
AcDbBlockEnd
  0
BLOCK
  5
8
100
AcDbEntity
 67
     1
  8
0
100
AcDbBlockBegin
  2
*PAPER_SPACE
 70
     0
 10
0.0
 20
0.0
 30
0.0
  3
*PAPER_SPACE
  1

  0
ENDBLK
  5
9
100
AcDbEntity
 67
     1
  8
0
100
AcDbBlockEnd
  0
BLOCK
  5
D9
100
AcDbEntity
  8
0
100
AcDbBlockBegin
  2
SP40020
 70
     0
 10
0.0
 20
0.0
 30
0.0
  3
SP40020
  1

  0
LINE
  5
C7
100
AcDbEntity
  8
CENTRUM
100
AcDbLine
 10
-13.0
 20
34.06657
 30
0.0
 11
-13.0
 21
18.0
 31
0.0
  0
LINE
  5
CA
100
AcDbEntity
  8
GLAS_MED_FOGNING
100
AcDbLine
 10
-16.0
 20
23.5
 30
0.0
 11
-16.0
 21
22.0
 31
0.0
  0
LINE
  5
CB
100
AcDbEntity
  8
GLAS_MED_FOGNING
100
AcDbLine
 10
-15.5
 20
23.5
 30
0.0
 11
-15.5
 21
21.0
 31
0.0
  0
LINE
  5
CC
100
AcDbEntity
  8
GLAS_MED_FOGNING
100
AcDbLine
 10
-10.5
 20
23.5
 30
0.0
 11
-10.5
 21
21.0
 31
0.0
  0
LINE
  5
CD
100
AcDbEntity
  8
GLAS_MED_FOGNING
100
AcDbLine
 10
-10.0
 20
23.5
 30
0.0
 11
-10.0
 21
22.0
 31
0.0
  0
LINE
  5
CE
100
AcDbEntity
  8
GLAS_MED_FOGNING
100
AcDbLine
 10
-10.5
 20
21.0
 30
0.0
 11
-15.5
 21
21.0
 31
0.0
  0
LINE
  5
CF
100
AcDbEntity
  8
GLAS_MED_FOGNING
100
AcDbLine
 10
-10.0
 20
22.0
 30
0.0
 11
-16.0
 21
22.0
 31
0.0
  0
LINE
  5
D0
100
AcDbEntity
  8
GLAS_MED_FOGNING
100
AcDbLine
 10
-16.0
 20
22.0
 30
0.0
 11
-15.5
 21
21.0
 31
0.0
  0
LINE
  5
D1
100
AcDbEntity
  8
GLAS_MED_FOGNING
100
AcDbLine
 10
-10.0
 20
22.0
 30
0.0
 11
-10.5
 21
21.0
 31
0.0
  0
LINE
  5
D2
100
AcDbEntity
  8
GLAS_MED_FOGNING
100
AcDbLine
 10
-9.267949
 20
26.0
 30
0.0
 11
-16.73205
 21
26.0
 31
0.0
  0
LINE
  5
D3
100
AcDbEntity
  8
GLAS_MED_FOGNING
100
AcDbLine
 10
-8.196152
 20
30.0
 30
0.0
 11
-17.803848
 21
30.0
 31
0.0
  0
ARC
  5
D4
100
AcDbEntity
  8
GLAS_MED_FOGNING
100
AcDbCircle
 10
-13.0
 20
18.928391
 30
0.0
 40
12.068864
100
AcDbArc
 50
66.544514
 51
113.455486
  0
LINE
  5
D5
100
AcDbEntity
  8
GLAS_MED_FOGNING
100
AcDbLine
 10
-17.803848
 20
30.0
 30
0.0
 11
-16.73205
 21
26.0
 31
0.0
  0
LINE
  5
D6
100
AcDbEntity
  8
GLAS_MED_FOGNING
100
AcDbLine
 10
-16.73205
 20
26.0
 30
0.0
 11
-16.73205
 21
25.0
 31
0.0
  0
LINE
  5
D7
100
AcDbEntity
  8
GLAS_MED_FOGNING
100
AcDbLine
 10
-8.196152
 20
30.0
 30
0.0
 11
-9.267949
 21
26.0
 31
0.0
  0
LINE
  5
D8
100
AcDbEntity
  8
GLAS_MED_FOGNING
100
AcDbLine
 10
-9.267949
 20
26.0
 30
0.0
 11
-9.267949
 21
25.0
 31
0.0
  0
ENDBLK
  5
DA
100
AcDbEntity
  8
0
100
AcDbBlockEnd
  0
BLOCK
  5
DD
100
AcDbEntity
  8
0
100
AcDbBlockBegin
  2
SP41520
 70
     0
 10
0.0
 20
0.0
 30
0.0
  3
SP41520
  1

  0
INSERT
  5
C5
100
AcDbEntity
  8
GLAS_MED_FOGNING
100
AcDbBlockReference
  2
SP40020
 10
5.5
 20
0.0
 30
0.0
  0
LWPOLYLINE
  5
DB
100
AcDbEntity
  8
STALPROFIL
100
AcDbPolyline
 90
       12
 70
     0
 43
1.25
 10
-2.02546
 20
29.838243
 10
-2.872606
 20
26.676553
 42
0.395246
 10
-1.75
 20
25.625
 42
0.414213
 10
-0.625
 20
26.749998
 10
-0.625
 20
43.0
 42
0.414214
 10
-2.0
 20
44.375
 10
-13.0
 20
44.375
 42
0.414214
 10
-14.375
 20
43.0
 10
-14.375
 20
26.749999
 42
0.414213
 10
-13.249964
 20
25.625
 42
0.395246
 10
-12.127394
 20
26.676553
 10
-12.97454
 20
29.838243
  0
LWPOLYLINE
  5
DC
100
AcDbEntity
  8
SPKONTUR
100
AcDbPolyline
 90
       13
 70
     0
 43
0.0
 10
-2.629165
 20
30.0
 10
-3.5
 20
26.7499
 42
0.41423
 10
-1.75
 20
25.0
 42
0.414213
 10
0.0
 20
26.749998
 10
0.0
 20
43.0
 42
0.414214
 10
-2.0
 20
45.0
 10
-7.5
 20
45.0
 10
-13.0
 20
45.0
 42
0.414214
 10
-15.0
 20
43.0
 10
-15.0
 20
26.749998
 42
0.414213
 10
-13.25
 20
25.0
 42
0.41423
 10
-11.5
 20
26.7499
 10
-12.370835
 20
30.0
  0
ENDBLK
  5
DE
100
AcDbEntity
  8
0
100
AcDbBlockEnd
  0
BLOCK
  5
115
100
AcDbEntity
  8
0
100
AcDbBlockBegin
  2
*X2
 70
     1
 10
0.0
 20
0.0
 30
0.0
  3
*X2
  1

  0
LINE
  5
103
100
AcDbEntity
  8
0
 62
     0
100
AcDbLine
 10
-59.163263
 20
41.509483
 30
0.0
 11
-59.163263
 21
41.509483
 31
0.0
  0
LINE
  5
104
100
AcDbEntity
  8
0
 62
     0
100
AcDbLine
 10
-56.584865
 20
43.487958
 30
0.0
 11
-56.584865
 21
43.487958
 31
0.0
  0
LINE
  5
105
100
AcDbEntity
  8
0
 62
     0
100
AcDbLine
 10
-58.785303
 20
29.948541
 30
0.0
 11
-58.785303
 21
29.948541
 31
0.0
  0
LINE
  5
106
100
AcDbEntity
  8
0
 62
     0
100
AcDbLine
 10
-58.659316
 20
26.094893
 30
0.0
 11
-58.659316
 21
26.094893
 31
0.0
  0
LINE
  5
107
100
AcDbEntity
  8
0
 62
     0
100
AcDbLine
 10
-56.080918
 20
28.073368
 30
0.0
 11
-56.080918
 21
28.073368
 31
0.0
  0
LINE
  5
108
100
AcDbEntity
  8
0
 62
     0
100
AcDbLine
 10
-57.165758
 20
44.256996
 30
0.0
 11
-57.165758
 21
44.256996
 31
0.0
  0
LINE
  5
109
100
AcDbEntity
  8
0
 62
     0
100
AcDbLine
 10
-56.124741
 20
44.394049
 30
0.0
 11
-56.124741
 21
44.394049
 31
0.0
  0
LINE
  5
10A
100
AcDbEntity
  8
0
 62
     0
100
AcDbLine
 10
-61.359856
 20
28.169929
 30
0.0
 11
-61.359856
 21
28.169929
 31
0.0
  0
LINE
  5
10B
100
AcDbEntity
  8
0
 62
     0
100
AcDbLine
 10
-59.733886
 20
28.383992
 30
0.0
 11
-59.733886
 21
28.383992
 31
0.0
  0
LINE
  5
10C
100
AcDbEntity
  8
0
 62
     0
100
AcDbLine
 10
-57.017327
 20
28.741634
 30
0.0
 11
-57.017327
 21
28.741634
 31
0.0
  0
LINE
  5
10D
100
AcDbEntity
  8
0
 62
     0
100
AcDbLine
 10
-55.97631
 20
28.878687
 30
0.0
 11
-55.97631
 21
28.878687
 31
0.0
  0
LINE
  5
10E
100
AcDbEntity
  8
0
 62
     0
100
AcDbLine
 10
-56.715696
 20
42.523035
 30
0.0
 11
-56.715696
 21
42.523035
 31
0.0
  0
LINE
  5
10F
100
AcDbEntity
  8
0
 62
     0
100
AcDbLine
 10
-55.749526
 20
29.97
 30
0.0
 11
-55.749526
 21
29.97
 31
0.0
  0
LINE
  5
110
100
AcDbEntity
  8
0
 62
     0
100
AcDbLine
 10
-61.134419
 20
29.421382
 30
0.0
 11
-61.134419
 21
29.421382
 31
0.0
  0
LINE
  5
111
100
AcDbEntity
  8
0
 62
     0
100
AcDbLine
 10
-58.098209
 20
27.487104
 30
0.0
 11
-58.098209
 21
27.487104
 31
0.0
  0
LINE
  5
112
100
AcDbEntity
  8
0
 62
     0
100
AcDbLine
 10
-57.663397
 20
43.320028
 30
0.0
 11
-57.663397
 21
43.320028
 31
0.0
  0
LINE
  5
113
100
AcDbEntity
  8
0
 62
     0
100
AcDbLine
 10
-57.294758
 20
42.982232
 30
0.0
 11
-57.294758
 21
42.982232
 31
0.0
  0
LINE
  5
114
100
AcDbEntity
  8
0
 62
     0
100
AcDbLine
 10
-55.554784
 20
41.38784
 30
0.0
 11
-55.554784
 21
41.38784
 31
0.0
  0
ENDBLK
  5
116
100
AcDbEntity
  8
0
100
AcDbBlockEnd
  0
BLOCK
  5
141
100
AcDbEntity
  8
0
100
AcDbBlockBegin
  2
*X3
 70
     1
 10
0.0
 20
0.0
 30
0.0
  3
*X3
  1

  0
LINE
  5
11C
100
AcDbEntity
  8
0
 62
     0
100
AcDbLine
 10
-37.789989
 20
26.307209
 30
0.0
 11
-37.789989
 21
26.307209
 31
0.0
  0
LINE
  5
11D
100
AcDbEntity
  8
0
 62
     0
100
AcDbLine
 10
-35.092588
 20
28.376998
 30
0.0
 11
-35.092588
 21
28.376998
 31
0.0
  0
LINE
  5
11E
100
AcDbEntity
  8
0
 62
     0
100
AcDbLine
 10
-32.514189
 20
30.355473
 30
0.0
 11
-32.514189
 21
30.355473
 31
0.0
  0
LINE
  5
11F
100
AcDbEntity
  8
0
 62
     0
100
AcDbLine
 10
-42.906168
 20
26.331747
 30
0.0
 11
-42.906168
 21
26.331747
 31
0.0
  0
LINE
  5
120
100
AcDbEntity
  8
0
 62
     0
100
AcDbLine
 10
-40.32777
 20
28.310222
 30
0.0
 11
-40.32777
 21
28.310222
 31
0.0
  0
LINE
  5
121
100
AcDbEntity
  8
0
 62
     0
100
AcDbLine
 10
-45.729557
 20
28.115606
 30
0.0
 11
-45.729557
 21
28.115606
 31
0.0
  0
LINE
  5
122
100
AcDbEntity
  8
0
 62
     0
100
AcDbLine
 10
-43.032155
 20
30.185395
 30
0.0
 11
-43.032155
 21
30.185395
 31
0.0
  0
LINE
  5
123
100
AcDbEntity
  8
0
 62
     0
100
AcDbLine
 10
-32.388203
 20
26.501825
 30
0.0
 11
-32.388203
 21
26.501825
 31
0.0
  0
LINE
  5
124
100
AcDbEntity
  8
0
 62
     0
100
AcDbLine
 10
-44.406244
 20
25.223614
 30
0.0
 11
-44.406244
 21
25.223614
 31
0.0
  0
LINE
  5
125
100
AcDbEntity
  8
0
 62
     0
100
AcDbLine
 10
-43.365227
 20
25.360666
 30
0.0
 11
-43.365227
 21
25.360666
 31
0.0
  0
LINE
  5
126
100
AcDbEntity
  8
0
 62
     0
100
AcDbLine
 10
-41.739257
 20
25.574729
 30
0.0
 11
-41.739257
 21
25.574729
 31
0.0
  0
LINE
  5
127
100
AcDbEntity
  8
0
 62
     0
100
AcDbLine
 10
-39.022698
 20
25.932371
 30
0.0
 11
-39.022698
 21
25.932371
 31
0.0
  0
LINE
  5
128
100
AcDbEntity
  8
0
 62
     0
100
AcDbLine
 10
-37.981681
 20
26.069423
 30
0.0
 11
-37.981681
 21
26.069423
 31
0.0
  0
LINE
  5
129
100
AcDbEntity
  8
0
 62
     0
100
AcDbLine
 10
-36.355712
 20
26.283486
 30
0.0
 11
-36.355712
 21
26.283486
 31
0.0
  0
LINE
  5
12A
100
AcDbEntity
  8
0
 62
     0
100
AcDbLine
 10
-33.639153
 20
26.641128
 30
0.0
 11
-33.639153
 21
26.641128
 31
0.0
  0
LINE
  5
12B
100
AcDbEntity
  8
0
 62
     0
100
AcDbLine
 10
-32.598136
 20
26.778181
 30
0.0
 11
-32.598136
 21
26.778181
 31
0.0
  0
LINE
  5
12C
100
AcDbEntity
  8
0
 62
     0
100
AcDbLine
 10
-30.972166
 20
26.992244
 30
0.0
 11
-30.972166
 21
26.992244
 31
0.0
  0
LINE
  5
12D
100
AcDbEntity
  8
0
 62
     0
100
AcDbLine
 10
-46.250236
 20
30.159149
 30
0.0
 11
-46.250236
 21
30.159149
 31
0.0
  0
LINE
  5
12E
100
AcDbEntity
  8
0
 62
     0
100
AcDbLine
 10
-45.209219
 20
30.296201
 30
0.0
 11
-45.209219
 21
30.296201
 31
0.0
  0
LINE
  5
12F
100
AcDbEntity
  8
0
 62
     0
100
AcDbLine
 10
-43.583249
 20
30.510264
 30
0.0
 11
-43.583249
 21
30.510264
 31
0.0
  0
LINE
  5
130
100
AcDbEntity
  8
0
 62
     0
100
AcDbLine
 10
-43.292959
 20
29.992636
 30
0.0
 11
-43.292959
 21
29.992636
 31
0.0
  0
LINE
  5
131
100
AcDbEntity
  8
0
 62
     0
100
AcDbLine
 10
-42.449568
 20
29.455337
 30
0.0
 11
-42.449568
 21
29.455337
 31
0.0
  0
LINE
  5
132
100
AcDbEntity
  8
0
 62
     0
100
AcDbLine
 10
-39.413358
 20
27.521058
 30
0.0
 11
-39.413358
 21
27.521058
 31
0.0
  0
LINE
  5
133
100
AcDbEntity
  8
0
 62
     0
100
AcDbLine
 10
-36.221284
 20
29.466655
 30
0.0
 11
-36.221284
 21
29.466655
 31
0.0
  0
LINE
  5
134
100
AcDbEntity
  8
0
 62
     0
100
AcDbLine
 10
-33.185075
 20
27.532376
 30
0.0
 11
-33.185075
 21
27.532376
 31
0.0
  0
LINE
  5
135
100
AcDbEntity
  8
0
 62
     0
100
AcDbLine
 10
-29.221135
 20
25.007068
 30
0.0
 11
-29.221135
 21
25.007068
 31
0.0
  0
LINE
  5
136
100
AcDbEntity
  8
0
 62
     0
100
AcDbLine
 10
-30.836392
 20
30.015272
 30
0.0
 11
-30.836392
 21
30.015272
 31
0.0
  0
LINE
  5
137
100
AcDbEntity
  8
0
 62
     0
100
AcDbLine
 10
-45.641642
 20
27.50974
 30
0.0
 11
-45.641642
 21
27.50974
 31
0.0
  0
LINE
  5
138
100
AcDbEntity
  8
0
 62
     0
100
AcDbLine
 10
-34.885457
 20
29.712457
 30
0.0
 11
-34.885457
 21
29.712457
 31
0.0
  0
LINE
  5
139
100
AcDbEntity
  8
0
 62
     0
100
AcDbLine
 10
-33.145483
 20
28.118064
 30
0.0
 11
-33.145483
 21
28.118064
 31
0.0
  0
LINE
  5
13A
100
AcDbEntity
  8
0
 62
     0
100
AcDbLine
 10
-31.154834
 20
26.293971
 30
0.0
 11
-31.154834
 21
26.293971
 31
0.0
  0
LINE
  5
13B
100
AcDbEntity
  8
0
 62
     0
100
AcDbLine
 10
-30.786195
 20
25.956176
 30
0.0
 11
-30.786195
 21
25.956176
 31
0.0
  0
LINE
  5
13C
100
AcDbEntity
  8
0
 62
     0
100
AcDbLine
 10
-43.256998
 20
30.118995
 30
0.0
 11
-43.256998
 21
30.118995
 31
0.0
  0
LINE
  5
13D
100
AcDbEntity
  8
0
 62
     0
100
AcDbLine
 10
-41.266349
 20
28.294901
 30
0.0
 11
-41.266349
 21
28.294901
 31
0.0
  0
LINE
  5
13E
100
AcDbEntity
  8
0
 62
     0
100
AcDbLine
 10
-40.89771
 20
27.957106
 30
0.0
 11
-40.89771
 21
27.957106
 31
0.0
  0
LINE
  5
13F
100
AcDbEntity
  8
0
 62
     0
100
AcDbLine
 10
-39.157736
 20
26.362713
 30
0.0
 11
-39.157736
 21
26.362713
 31
0.0
  0
LINE
  5
140
100
AcDbEntity
  8
0
 62
     0
100
AcDbLine
 10
-46.909964
 20
26.201755
 30
0.0
 11
-46.909964
 21
26.201755
 31
0.0
  0
ENDBLK
  5
142
100
AcDbEntity
  8
0
100
AcDbBlockEnd
  0
BLOCK
  5
70
100
AcDbEntity
  8
0
100
AcDbBlockBegin
  2
RAMA4
 70
     2
 10
0.0
 20
0.0
 30
0.0
  3
RAMA4
  1

  0
LINE
  5
33
100
AcDbEntity
  8
RAM
100
AcDbLine
 10
-0.000033
 20
573.999992
 30
0.0
 11
-0.000033
 21
-0.000008
 31
0.0
  0
LINE
  5
34
100
AcDbEntity
  8
RAM
100
AcDbLine
 10
419.999967
 20
-0.000008
 30
0.0
 11
419.999967
 21
573.999992
 31
0.0
  0
LINE
  5
35
100
AcDbEntity
  8
RAM
100
AcDbLine
 10
419.999967
 20
573.999992
 30
0.0
 11
-0.000033
 21
573.999992
 31
0.0
  0
LINE
  5
36
100
AcDbEntity
  8
RAM
100
AcDbLine
 10
9.999967
 20
593.999992
 30
0.0
 11
9.999967
 21
573.999992
 31
0.0
  0
LINE
  5
37
100
AcDbEntity
  8
RAM
100
AcDbLine
 10
55.999967
 20
573.999992
 30
0.0
 11
55.999967
 21
593.999992
 31
0.0
  0
LINE
  5
38
100
AcDbEntity
  8
RAM
100
AcDbLine
 10
245.999967
 20
573.999992
 30
0.0
 11
245.999967
 21
593.999992
 31
0.0
  0
LINE
  5
39
100
AcDbEntity
  8
RAM
100
AcDbLine
 10
-20.000033
 20
286.999992
 30
0.0
 11
-0.000033
 21
286.999992
 31
0.0
  0
LINE
  5
3A
100
AcDbEntity
  8
RAM
100
AcDbLine
 10
439.999967
 20
286.999992
 30
0.0
 11
419.999967
 21
286.999992
 31
0.0
  0
LINE
  5
3B
100
AcDbEntity
  8
RAM
100
AcDbLine
 10
249.999967
 20
19.999992
 30
0.0
 11
419.999967
 21
19.999992
 31
0.0
  0
LINE
  5
3C
100
AcDbEntity
  8
RAM
100
AcDbLine
 10
-0.000033
 20
-0.000008
 30
0.0
 11
419.999967
 21
-0.000008
 31
0.0
  0
LINE
  5
3D
100
AcDbEntity
  8
RAM
100
AcDbLine
 10
-0.000033
 20
33.999992
 30
0.0
 11
419.999967
 21
33.999992
 31
0.0
  0
LINE
  5
3E
100
AcDbEntity
  8
RAM
100
AcDbLine
 10
-0.000033
 20
49.999992
 30
0.0
 11
419.999967
 21
49.999992
 31
0.0
  0
LINE
  5
3F
100
AcDbEntity
  8
RAM
100
AcDbLine
 10
9.999967
 20
-20.000008
 30
0.0
 11
9.999967
 21
-0.000008
 31
0.0
  0
TEXT
  5
40
100
AcDbEntity
  8
RAMTEXT
 62
     6
100
AcDbText
 10
71.999967
 20
43.999992
 30
0.0
 40
3.6
  1
Kop.
 41
0.8
  7
ROMANS
100
AcDbText
  0
ATTDEF
  5
41
100
AcDbEntity
  8
RAMTEXT
 62
     6
100
AcDbText
 10
87.214155
 20
37.261701
 30
0.0
 40
4.5
  1
 
  7
ISO
 72
     1
 11
87.999967
 21
37.261701
 31
0.0
100
AcDbAttributeDefinition
  3
Kopierad
  2
COPIED
 70
     0
  0
ATTDEF
  5
42
100
AcDbEntity
  8
RAMTEXT
 62
     6
100
AcDbText
 10
51.214155
 20
37.261701
 30
0.0
 40
4.5
  1
 
  7
ISO
 72
     1
 11
51.999967
 21
37.261701
 31
0.0
100
AcDbAttributeDefinition
  3
Ritad av
  2
DOC_DESIGNER
 70
     0
  0
TEXT
  5
43
100
AcDbEntity
  8
TEXT
 62
     1
100
AcDbText
 10
17.762344
 20
10.346862
 30
0.0
 40
9.0
  1
STALPROFIL AB
 41
0.8
  7
ROMANS
100
AcDbText
  0
LINE
  5
45
100
AcDbEntity
  8
RAM
100
AcDbLine
 10
-0.000033
 20
-0.000008
 30
0.0
 11
-0.000033
 21
49.999992
 31
0.0
  0
ATTDEF
  5
46
100
AcDbEntity
  8
RAMTEXT
 62
     6
100
AcDbText
 10
3.941003
 20
5.47778
 30
0.0
 40
6.3
  1

  7
ISO
100
AcDbAttributeDefinition
  3
Firma
  2
LG_DESC_1
 70
     0
  0
TEXT
  5
47
100
AcDbEntity
  8
RAMTEXT
 62
     6
100
AcDbText
 10
3.941003
 20
27.999992
 30
0.0
 40
3.6
  1
Firma
 41
0.8
  7
ROMANS
100
AcDbText
  0
LWPOLYLINE
  5
48
100
AcDbEntity
  8
TEXT
 62
     1
100
AcDbPolyline
 90
       12
 70
     1
 43
0.8
 10
10.159602
 20
17.422598
 42
1.000001
 10
10.088892
 20
17.351887
 10
12.031175
 20
15.409604
 42
-0.414214
 10
12.031175
 20
11.803359
 10
9.861936
 20
9.63412
 42
-0.198912
 10
8.058814
 20
8.887243
 10
6.174247
 20
8.887243
 42
1.0
 10
6.174247
 20
8.787243
 10
9.135769
 20
8.787243
 42
0.198912
 10
9.171125
 20
8.801887
 10
13.940363
 20
13.571126
 42
0.414214
 10
13.940363
 20
13.641837
  0
LWPOLYLINE
  5
49
100
AcDbEntity
  8
TEXT
 62
     1
100
AcDbPolyline
 90
       12
 70
     1
 43
1.3
 10
9.16653
 20
12.987243
 42
1.0
 10
10.085769
 20
13.906481
 10
8.143486
 20
15.848765
 42
-0.414214
 10
8.143486
 20
18.606481
 10
10.312725
 20
20.77572
 42
-0.198912
 10
11.691583
 20
21.346862
 10
13.57615
 20
21.346862
 42
1.0
 10
13.57615
 20
22.646862
 10
10.614627
 20
22.646862
 42
0.198912
 10
10.155008
 20
22.456481
 10
5.385769
 20
17.687243
 42
0.414214
 10
5.385769
 20
16.768004
  0
LWPOLYLINE
  5
4A
100
AcDbEntity
  8
TEXT
 62
     1
100
AcDbPolyline
 90
       12
 70
     1
 43
0.8
 10
9.590795
 20
13.411507
 42
1.000001
 10
9.661505
 20
13.482217
 10
7.719222
 20
15.424501
 42
-0.414214
 10
7.719222
 20
19.030745
 10
9.88846
 20
21.199984
 42
-0.198912
 10
11.691583
 20
21.946862
 10
13.57615
 20
21.946862
 42
1.0
 10
13.57615
 20
22.046862
 10
10.614627
 20
22.046862
 42
0.198912
 10
10.579272
 20
22.032217
 10
5.810033
 20
17.262978
 42
0.414214
 10
5.810033
 20
17.192268
  0
LWPOLYLINE
  5
4B
100
AcDbEntity
  8
TEXT
 62
     1
100
AcDbPolyline
 90
       12
 70
     1
 43
1.3
 10
10.583866
 20
17.846862
 42
1.0
 10
9.664627
 20
16.927623
 10
11.606911
 20
14.98534
 42
-0.414214
 10
11.606911
 20
12.227623
 10
9.437672
 20
10.058384
 42
-0.198912
 10
8.058814
 20
9.487243
 10
6.174247
 20
9.487243
 42
1.0
 10
6.174247
 20
8.187243
 10
9.135769
 20
8.187243
 42
0.198912
 10
9.595389
 20
8.377623
 10
14.364627
 20
13.146862
 42
0.414214
 10
14.364627
 20
14.066101
  0
CIRCLE
  5
4C
100
AcDbEntity
  8
TEXT
 62
     1
100
AcDbCircle
 10
33.196897
 20
21.642379
 30
0.0
 40
1.021132
  0
LINE
  5
4D
100
AcDbEntity
  8
RAM
100
AcDbLine
 10
50.999967
 20
-10.000008
 30
0.0
 11
55.999967
 21
-0.000008
 31
0.0
  0
LINE
  5
4E
100
AcDbEntity
  8
RAM
100
AcDbLine
 10
55.999967
 20
-0.000008
 30
0.0
 11
60.999967
 21
-10.000008
 31
0.0
  0
ATTDEF
  5
4F
100
AcDbEntity
  8
RAMTEXT
 62
     6
100
AcDbText
 10
17.214155
 20
37.261701
 30
0.0
 40
4.5
  1
 
  7
ISO
 72
     1
 11
17.999967
 21
37.261701
 31
0.0
100
AcDbAttributeDefinition
  3
Konstrukt\U+0094r
  2
DOC_DESIGNER
 70
     0
  0
TEXT
  5
50
100
AcDbEntity
  8
RAMTEXT
 62
     6
100
AcDbText
 10
1.999967
 20
43.999992
 30
0.0
 40
3.6
  1
Konstr.
 41
0.8
  7
ROMANS
100
AcDbText
  0
LINE
  5
51
100
AcDbEntity
  8
RAM
100
AcDbLine
 10
-0.000033
 20
49.999992
 30
0.0
 11
-0.000033
 21
63.999992
 31
0.0
  0
TEXT
  5
52
100
AcDbEntity
  8
RAMTEXT
 62
     6
100
AcDbText
 10
37.999967
 20
43.999992
 30
0.0
 40
3.6
  1
Ritad
 41
0.8
  7
ROMANS
100
AcDbText
  0
LINE
  5
53
100
AcDbEntity
  8
RAM
100
AcDbLine
 10
69.999967
 20
49.999992
 30
0.0
 11
69.999967
 21
33.999992
 31
0.0
  0
LINE
  5
54
100
AcDbEntity
  8
RAM
100
AcDbLine
 10
34.999967
 20
49.999992
 30
0.0
 11
34.999967
 21
33.999992
 31
0.0
  0
LINE
  5
55
100
AcDbEntity
  8
RAM
100
AcDbLine
 10
104.999967
 20
49.999992
 30
0.0
 11
104.999967
 21
-0.000008
 31
0.0
  0
ATTDEF
  5
56
100
AcDbEntity
  8
RAMTEXT
 62
     6
100
AcDbText
 10
109.941003
 20
5.47778
 30
0.0
 40
6.3
  1

  7
ISO
100
AcDbAttributeDefinition
  3
Titelrad 2
  2
DOC_DESC2
 70
     0
  0
ATTDEF
  5
57
100
AcDbEntity
  8
RAMTEXT
 62
     6
100
AcDbText
 10
109.941003
 20
17.47778
 30
0.0
 40
6.3
  1

  7
ISO
100
AcDbAttributeDefinition
  3
Titelrad 1 (av 2)
  2
DOC_DESC1
 70
     0
  0
TEXT
  5
58
100
AcDbEntity
  8
RAMTEXT
 62
     6
100
AcDbText
 10
109.941003
 20
27.999992
 30
0.0
 40
3.6
  1
Titel
 41
0.8
  7
ROMANS
100
AcDbText
  0
ATTDEF
  5
59
100
AcDbEntity
  8
RAMTEXT
 62
     6
100
AcDbText
 10
121.214155
 20
37.261701
 30
0.0
 40
4.5
  1
 
  7
ISO
 72
     1
 11
121.999967
 21
37.261701
 31
0.0
100
AcDbAttributeDefinition
  3
Kontrollerad
  2
CHECK
 70
     0
  0
TEXT
  5
5A
100
AcDbEntity
  8
RAMTEXT
 62
     6
100
AcDbText
 10
107.999967
 20
43.999992
 30
0.0
 40
3.6
  1
Kontr.
 41
0.8
  7
ROMANS
100
AcDbText
  0
TEXT
  5
5B
100
AcDbEntity
  8
RAMTEXT
 62
     6
100
AcDbText
 10
141.999967
 20
43.999992
 30
0.0
 40
3.6
  1
Stand.
 41
0.8
  7
ROMANS
100
AcDbText
  0
ATTDEF
  5
5C
100
AcDbEntity
  8
RAMTEXT
 62
     6
100
AcDbText
 10
157.214155
 20
37.261701
 30
0.0
 40
4.5
  1
 
  7
ISO
 72
     1
 11
157.999967
 21
37.261701
 31
0.0
100
AcDbAttributeDefinition
  3
Standard
  2
STAND
 70
     0
  0
LINE
  5
5D
100
AcDbEntity
  8
RAM
100
AcDbLine
 10
139.999967
 20
49.999992
 30
0.0
 11
139.999967
 21
33.999992
 31
0.0
  0
TEXT
  5
5E
100
AcDbEntity
  8
RAMTEXT
 62
     6
100
AcDbText
 10
251.999967
 20
13.999992
 30
0.0
 40
3.6
  1
Ritn.-nr
 41
0.8
  7
ROMANS
100
AcDbText
  0
TEXT
  5
5F
100
AcDbEntity
  8
RAMTEXT
 62
     6
100
AcDbText
 10
251.999967
 20
27.999992
 30
0.0
 40
3.6
  1
Regist.nr
 41
0.8
  7
ROMANS
100
AcDbText
  0
TEXT
  5
60
100
AcDbEntity
  8
RAMTEXT
 62
     6
100
AcDbText
 10
251.999967
 20
43.999992
 30
0.0
 40
3.6
  1
Ersätter
 41
0.8
  7
ROMANS
100
AcDbText
  0
ATTDEF
  5
61
100
AcDbEntity
  8
RAMTEXT
 62
     6
100
AcDbText
 10
295.999967
 20
5.47778
 30
0.0
 40
6.3
  1

  7
ISO
 72
     1
 11
295.999967
 21
5.47778
 31
0.0
100
AcDbAttributeDefinition
  3
Ritningsnummer
  2
DOC_FILE_NAME
 70
     0
  0
LINE
  5
62
100
AcDbEntity
  8
RAM
100
AcDbLine
 10
249.999967
 20
49.999992
 30
0.0
 11
249.999967
 21
-0.000008
 31
0.0
  0
TEXT
  5
63
100
AcDbEntity
  8
RAMTEXT
 62
     6
100
AcDbText
 10
211.999967
 20
43.999992
 30
0.0
 40
3.6
  1
Skala
 41
0.8
  7
ROMANS
100
AcDbText
  0
TEXT
  5
64
100
AcDbEntity
  8
RAMTEXT
 62
     6
100
AcDbText
 10
177.999967
 20
43.999992
 30
0.0
 40
3.6
  1
Godk.
 41
0.8
  7
ROMANS
100
AcDbText
  0
ATTDEF
  5
65
100
AcDbEntity
  8
RAMTEXT
 62
     6
100
AcDbText
 10
191.214155
 20
37.261701
 30
0.0
 40
4.5
  1
 
  7
ISO
 72
     1
 11
191.999967
 21
37.261701
 31
0.0
100
AcDbAttributeDefinition
  3
Godk\U+0084nd
  2
GODK
 70
     0
  0
LINE
  5
66
100
AcDbEntity
  8
RAM
100
AcDbLine
 10
209.999967
 20
49.999992
 30
0.0
 11
209.999967
 21
33.999992
 31
0.0
  0
LINE
  5
67
100
AcDbEntity
  8
RAM
100
AcDbLine
 10
174.999967
 20
49.999992
 30
0.0
 11
174.999967
 21
33.999992
 31
0.0
  0
ATTDEF
  5
68
100
AcDbEntity
  8
RAMTEXT
 62
     6
100
AcDbText
 10
225.865247
 20
37.261701
 30
0.0
 40
4.5
  1
1:1
  7
ISO
 72
     1
 11
229.999967
 21
37.261701
 31
0.0
100
AcDbAttributeDefinition
  3
Skala
  2
SCALE
 70
     0
  0
LINE
  5
69
100
AcDbEntity
  8
RAM
100
AcDbLine
 10
294.999967
 20
49.999992
 30
0.0
 11
294.999967
 21
19.999992
 31
0.0
  0
ATTDEF
  5
6A
100
AcDbEntity
  8
RAMTEXT
 62
     6
100
AcDbText
 10
317.999967
 20
22.032344
 30
0.0
 40
4.5
  1

  7
ISO
 72
     1
 11
317.999967
 21
22.032344
 31
0.0
100
AcDbAttributeDefinition
  3
Datum
  2
DOC_LASTEDIT_DATE
 70
     0
  0
TEXT
  5
6B
100
AcDbEntity
  8
RAMTEXT
 62
     6
100
AcDbText
 10
297.999967
 20
27.999992
 30
0.0
 40
3.6
  1
Dat.
 41
0.8
  7
ROMANS
100
AcDbText
  0
ATTDEF
  5
6C
100
AcDbEntity
  8
RAMTEXT
 62
     6
100
AcDbText
 10
271.999967
 20
22.032344
 30
0.0
 40
4.5
  1

  7
ISO
 72
     1
 11
271.999967
 21
22.032344
 31
0.0
100
AcDbAttributeDefinition
  3
Registernummer
  2
REG
 70
     0
  0
TEXT
  5
6D
100
AcDbEntity
  8
RAMTEXT
 62
     6
100
AcDbText
 10
297.999967
 20
43.999992
 30
0.0
 40
3.6
  1
Ersatt av
 41
0.8
  7
ROMANS
100
AcDbText
  0
ATTDEF
  5
6E
100
AcDbEntity
  8
RAMTEXT
 62
     6
100
AcDbText
 10
317.214155
 20
37.261701
 30
0.0
 40
4.5
  1
 
  7
ISO
 72
     1
 11
317.999967
 21
37.261701
 31
0.0
100
AcDbAttributeDefinition
  3
Ersatt av
  2
REPL_BY
 70
     0
  0
ATTDEF
  5
6F
100
AcDbEntity
  8
RAMTEXT
 62
     6
100
AcDbText
 10
271.214155
 20
37.261701
 30
0.0
 40
4.5
  1
 
  7
ISO
 72
     1
 11
271.999967
 21
37.261701
 31
0.0
100
AcDbAttributeDefinition
  3
Ers\U+0084tter
  2
REPL
 70
     0
  0
ENDBLK
  5
71
100
AcDbEntity
  8
0
100
AcDbBlockEnd
  0
BLOCK
  5
B2
100
AcDbEntity
  8
0
100
AcDbBlockBegin
  2
*X5
 70
     1
 10
0.0
 20
0.0
 30
0.0
  3
*X5
  1

  0
LINE
  5
93
100
AcDbEntity
  8
0
 62
     0
100
AcDbLine
 10
-21.146165
 20
-6.412563
 30
0.0
 11
-22.466847
 21
-3.580351
 31
0.0
  0
LINE
  5
94
100
AcDbEntity
  8
0
 62
     0
100
AcDbLine
 10
-23.787529
 20
-0.748139
 30
0.0
 11
-25.108211
 21
2.084073
 31
0.0
  0
LINE
  5
95
100
AcDbEntity
  8
0
 62
     0
100
AcDbLine
 10
-26.428893
 20
4.916285
 30
0.0
 11
-27.749575
 21
7.748497
 31
0.0
  0
LINE
  5
96
100
AcDbEntity
  8
0
 62
     0
100
AcDbLine
 10
-29.070257
 20
10.580708
 30
0.0
 11
-30.0
 21
12.574548
 31
0.0
  0
LINE
  5
97
100
AcDbEntity
  8
0
 62
     0
100
AcDbLine
 10
-20.016331
 20
-16.22988
 30
0.0
 11
-21.337013
 21
-13.397668
 31
0.0
  0
LINE
  5
98
100
AcDbEntity
  8
0
 62
     0
100
AcDbLine
 10
-22.657695
 20
-10.565457
 30
0.0
 11
-23.978377
 21
-7.733245
 31
0.0
  0
LINE
  5
99
100
AcDbEntity
  8
0
 62
     0
100
AcDbLine
 10
-25.299059
 20
-4.901033
 30
0.0
 11
-26.619741
 21
-2.068821
 31
0.0
  0
LINE
  5
9A
100
AcDbEntity
  8
0
 62
     0
100
AcDbLine
 10
-27.940423
 20
0.763391
 30
0.0
 11
-29.261105
 21
3.595603
 31
0.0
  0
LINE
  5
9B
100
AcDbEntity
  8
0
 62
     0
100
AcDbLine
 10
-20.0
 20
-23.659281
 30
0.0
 11
-20.207178
 21
-23.214986
 31
0.0
  0
LINE
  5
9C
100
AcDbEntity
  8
0
 62
     0
100
AcDbLine
 10
-21.52786
 20
-20.382774
 30
0.0
 11
-22.848542
 21
-17.550562
 31
0.0
  0
LINE
  5
9D
100
AcDbEntity
  8
0
 62
     0
100
AcDbLine
 10
-24.169224
 20
-14.71835
 30
0.0
 11
-25.489907
 21
-11.886139
 31
0.0
  0
LINE
  5
9E
100
AcDbEntity
  8
0
 62
     0
100
AcDbLine
 10
-26.810589
 20
-9.053927
 30
0.0
 11
-28.131271
 21
-6.221715
 31
0.0
  0
LINE
  5
9F
100
AcDbEntity
  8
0
 62
     0
100
AcDbLine
 10
-29.451953
 20
-3.389503
 30
0.0
 11
-30.0
 21
-2.214212
 31
0.0
  0
LINE
  5
A0
100
AcDbEntity
  8
0
 62
     0
100
AcDbLine
 10
-23.03939
 20
-24.535668
 30
0.0
 11
-24.360072
 21
-21.703456
 31
0.0
  0
LINE
  5
A1
100
AcDbEntity
  8
0
 62
     0
100
AcDbLine
 10
-25.680754
 20
-18.871244
 30
0.0
 11
-27.001436
 21
-16.039033
 31
0.0
  0
LINE
  5
A2
100
AcDbEntity
  8
0
 62
     0
100
AcDbLine
 10
-28.322118
 20
-13.206821
 30
0.0
 11
-29.6428
 21
-10.374609
 31
0.0
  0
LINE
  5
A3
100
AcDbEntity
  8
0
 62
     0
100
AcDbLine
 10
-27.192284
 20
-23.024138
 30
0.0
 11
-28.512966
 21
-20.191926
 31
0.0
  0
LINE
  5
A4
100
AcDbEntity
  8
0
 62
     0
100
AcDbLine
 10
-29.833648
 20
-17.359715
 30
0.0
 11
-30.0
 21
-17.002972
 31
0.0
  0
LINE
  5
A5
100
AcDbEntity
  8
0
 62
     0
100
AcDbLine
 10
-29.718981
 20
-25.0
 30
0.0
 11
-30.0
 21
-24.397352
 31
0.0
  0
LINE
  5
A6
100
AcDbEntity
  8
0
 62
     0
100
AcDbLine
 10
-20.0
 20
-1.476141
 30
0.0
 11
-20.955317
 21
0.572543
 31
0.0
  0
LINE
  5
A7
100
AcDbEntity
  8
0
 62
     0
100
AcDbLine
 10
-22.275999
 20
3.404755
 30
0.0
 11
-23.596681
 21
6.236967
 31
0.0
  0
LINE
  5
A8
100
AcDbEntity
  8
0
 62
     0
100
AcDbLine
 10
-24.917363
 20
9.069179
 30
0.0
 11
-26.238045
 21
11.90139
 31
0.0
  0
LINE
  5
A9
100
AcDbEntity
  8
0
 62
     0
100
AcDbLine
 10
-27.558728
 20
14.733602
 30
0.0
 11
-28.87941
 21
17.565814
 31
0.0
  0
LINE
  5
AA
100
AcDbEntity
  8
0
 62
     0
100
AcDbLine
 10
-20.76447
 20
7.557649
 30
0.0
 11
-22.085152
 21
10.389861
 31
0.0
  0
LINE
  5
AB
100
AcDbEntity
  8
0
 62
     0
100
AcDbLine
 10
-23.405834
 20
13.222073
 30
0.0
 11
-24.726516
 21
16.054284
 31
0.0
  0
LINE
  5
AC
100
AcDbEntity
  8
0
 62
     0
100
AcDbLine
 10
-26.047198
 20
18.886496
 30
0.0
 11
-27.36788
 21
21.718708
 31
0.0
  0
LINE
  5
AD
100
AcDbEntity
  8
0
 62
     0
100
AcDbLine
 10
-28.688562
 20
24.55092
 30
0.0
 11
-28.897971
 21
25.0
 31
0.0
  0
LINE
  5
AE
100
AcDbEntity
  8
0
 62
     0
100
AcDbLine
 10
-20.0
 20
13.312619
 30
0.0
 11
-20.573622
 21
14.542755
 31
0.0
  0
LINE
  5
AF
100
AcDbEntity
  8
0
 62
     0
100
AcDbLine
 10
-21.894304
 20
17.374966
 30
0.0
 11
-23.214986
 21
20.207178
 31
0.0
  0
LINE
  5
B0
100
AcDbEntity
  8
0
 62
     0
100
AcDbLine
 10
-24.535668
 20
23.03939
 30
0.0
 11
-25.449915
 21
25.0
 31
0.0
  0
LINE
  5
B1
100
AcDbEntity
  8
0
 62
     0
100
AcDbLine
 10
-20.382774
 20
21.52786
 30
0.0
 11
-21.703456
 21
24.360072
 31
0.0
  0
ENDBLK
  5
B3
100
AcDbEntity
  8
0
100
AcDbBlockEnd
  0
BLOCK
  5
1C0
100
AcDbEntity
  8
0
100
AcDbBlockBegin
  2
SP75021-750-10
 70
     0
 10
0.0
 20
0.0
 30
0.0
  3
SP75021-750-10
  1

  0
LWPOLYLINE
  5
1B9
100
AcDbEntity
  8
SPKONTUR
100
AcDbPolyline
 90
       11
 70
     1
 43
0.0
 10
-46.4
 20
25.0
 10
-31.8
 20
25.0
 42
-0.414214
 10
-30.0
 20
23.2
 10
-30.0
 20
-23.2
 42
-0.414214
 10
-31.8
 20
-25.0
 10
-48.2
 20
-25.0
 42
-0.414214
 10
-50.0
 20
-23.2
 10
-50.0
 20
43.2
 42
-0.414214
 10
-48.2
 20
45.0
 10
-48.199
 20
45.0
 42
-0.414214
 10
-46.4
 20
43.201
  0
LWPOLYLINE
  5
1BA
100
AcDbEntity
  8
STALPROFIL
100
AcDbPolyline
 90
       11
 70
     1
 43
1.8
 10
-46.4
 20
24.1
 10
-31.8
 20
24.1
 42
-0.414214
 10
-30.9
 20
23.2
 10
-30.9
 20
-23.2
 42
-0.414214
 10
-31.8
 20
-24.1
 10
-48.2
 20
-24.1
 42
-0.414214
 10
-49.1
 20
-23.2
 10
-49.1
 20
43.2
 42
-0.414214
 10
-48.199
 20
44.1
 42
-0.414214
 10
-47.3
 20
43.201
 10
-47.3
 20
25.0
 42
0.414214
  0
INSERT
  5
1BB
100
AcDbEntity
  8
GLAS_MED_FOGNING
100
AcDbBlockReference
  2
*X5
 10
0.0
 20
0.0
 30
0.0
1001
ACAD
1000
HATCH
1002
{
1070
    16
1000
DASH
1040
25.0
1040
2.007129
1002
}
  0
LWPOLYLINE
  5
1BC
100
AcDbEntity
  8
SPKONTUR
100
AcDbPolyline
 90
        8
 70
     1
 43
0.0
 10
-20.0
 20
23.2
 42
-0.414214
 10
-18.2
 20
25.0
 10
-1.8
 20
25.0
 42
-0.414214
 10
0.0
 20
23.2
 10
0.0
 20
-23.2
 42
-0.414214
 10
-1.8
 20
-25.0
 10
-18.2
 20
-25.0
 42
-0.414214
 10
-20.0
 20
-23.2
  0
LWPOLYLINE
  5
1BD
100
AcDbEntity
  8
STALPROFIL
100
AcDbPolyline
 90
        8
 70
     1
 43
1.8
 10
-19.1
 20
23.2
 42
-0.414214
 10
-18.2
 20
24.1
 10
-1.8
 20
24.1
 42
-0.414214
 10
-0.9
 20
23.2
 10
-0.9
 20
-23.2
 42
-0.414214
 10
-1.8
 20
-24.1
 10
-18.2
 20
-24.1
 42
-0.414214
 10
-19.1
 20
-23.2
  0
LWPOLYLINE
  5
1BE
100
AcDbEntity
  8
GLAS_MED_FOGNING
100
AcDbPolyline
 90
        4
 70
     0
 43
0.0
 10
-20.0
 20
-23.2
 10
-20.0
 20
-25.0
 10
-30.0
 20
-25.0
 10
-30.0
 20
-23.2
  0
LWPOLYLINE
  5
1BF
100
AcDbEntity
  8
GLAS_MED_FOGNING
100
AcDbPolyline
 90
        4
 70
     0
 43
0.0
 10
-20.0
 20
23.2
 10
-20.0
 20
25.0
 10
-30.0
 20
25.0
 10
-30.0
 20
23.2
  0
ENDBLK
  5
1C1
100
AcDbEntity
  8
0
100
AcDbBlockEnd
  0
BLOCK
  5
25E
100
AcDbEntity
  8
0
100
AcDbBlockBegin
  2
SP01502020
 70
     0
 10
0.0
 20
0.0
 30
0.0
  3
SP01502020
  1

  0
LWPOLYLINE
  5
25C
100
AcDbEntity
  8
STALPROFIL
100
AcDbPolyline
 90
       11
 70
     1
 43
1.8
 10
-46.4
 20
9.1
 10
-1.8
 20
9.1
 42
-0.414214
 10
-0.9
 20
8.2
 10
-0.9
 20
-8.2
 42
-0.414214
 10
-1.8
 20
-9.1
 10
-48.2
 20
-9.1
 42
-0.414214
 10
-49.1
 20
-8.2
 10
-49.1
 20
28.2
 42
-0.414214
 10
-48.199
 20
29.1
 42
-0.414214
 10
-47.3
 20
28.201
 10
-47.3
 20
10.0
 42
0.414214
  0
LWPOLYLINE
  5
25D
100
AcDbEntity
  8
SPKONTUR
100
AcDbPolyline
 90
       11
 70
     1
 43
0.0
 10
-46.4
 20
10.0
 10
-1.8
 20
10.0
 42
-0.414214
 10
0.0
 20
8.2
 10
0.0
 20
-8.2
 42
-0.414214
 10
-1.8
 20
-10.0
 10
-48.2
 20
-10.0
 42
-0.414214
 10
-50.0
 20
-8.2
 10
-50.0
 20
28.2
 42
-0.414214
 10
-48.2
 20
30.0
 10
-48.199
 20
30.0
 42
-0.414214
 10
-46.4
 20
28.201
  0
ENDBLK
  5
25F
100
AcDbEntity
  8
0
100
AcDbBlockEnd
  0
BLOCK
  5
324
100
AcDbEntity
  8
0
100
AcDbBlockBegin
  2
*D25
 70
     1
 10
0.0
 20
0.0
 30
0.0
  3
*D25
  1

  0
LINE
  5
31B
100
AcDbEntity
  8
DIMENSION
 62
     0
100
AcDbLine
 10
-1085.0
 20
3545.625
 30
0.0
 11
-1085.0
 21
3561.25
 31
0.0
  0
LINE
  5
31C
100
AcDbEntity
  8
DIMENSION
 62
     0
100
AcDbLine
 10
-1035.0
 20
3545.625
 30
0.0
 11
-1035.0
 21
3561.25
 31
0.0
  0
LINE
  5
31D
100
AcDbEntity
  8
DIMENSION
 62
     0
100
AcDbLine
 10
-1082.5
 20
3560.0
 30
0.0
 11
-1037.5
 21
3560.0
 31
0.0
  0
SOLID
  5
31E
100
AcDbEntity
  8
DIMENSION
 62
     0
100
AcDbTrace
 10
-1082.5
 20
3560.416667
 30
0.0
 11
-1082.5
 21
3559.583333
 31
0.0
 12
-1085.0
 22
3560.0
 32
0.0
 13
-1085.0
 23
3560.0
 33
0.0
  0
SOLID
  5
31F
100
AcDbEntity
  8
DIMENSION
 62
     0
100
AcDbTrace
 10
-1037.5
 20
3560.416667
 30
0.0
 11
-1037.5
 21
3559.583333
 31
0.0
 12
-1035.0
 22
3560.0
 32
0.0
 13
-1035.0
 23
3560.0
 33
0.0
  0
MTEXT
  5
320
100
AcDbEntity
  8
DIMENSION
 62
     6
100
AcDbMText
 10
-1060.0
 20
3564.0
 30
0.0
 40
4.0
 41
0.0
 71
     5
 72
     1
  1
\A1;50
  7
ROMANS
  0
POINT
  5
321
100
AcDbEntity
  8
DEFPOINTS
 62
     0
100
AcDbPoint
 10
-1085.0
 20
3545.0
 30
0.0
  0
POINT
  5
322
100
AcDbEntity
  8
DEFPOINTS
 62
     0
100
AcDbPoint
 10
-1035.0
 20
3545.0
 30
0.0
  0
POINT
  5
323
100
AcDbEntity
  8
DEFPOINTS
 62
     0
100
AcDbPoint
 10
-1035.0
 20
3560.0
 30
0.0
  0
ENDBLK
  5
325
100
AcDbEntity
  8
0
100
AcDbBlockEnd
  0
BLOCK
  5
332
100
AcDbEntity
  8
0
100
AcDbBlockBegin
  2
*D26
 70
     1
 10
0.0
 20
0.0
 30
0.0
  3
*D26
  1

  0
LINE
  5
329
100
AcDbEntity
  8
DIMENSION
 62
     0
100
AcDbLine
 10
-1095.0
 20
3410.625
 30
0.0
 11
-1095.0
 21
3426.25
 31
0.0
  0
LINE
  5
32A
100
AcDbEntity
  8
DIMENSION
 62
     0
100
AcDbLine
 10
-1045.0
 20
3410.625
 30
0.0
 11
-1045.0
 21
3426.25
 31
0.0
  0
LINE
  5
32B
100
AcDbEntity
  8
DIMENSION
 62
     0
100
AcDbLine
 10
-1092.5
 20
3425.0
 30
0.0
 11
-1047.5
 21
3425.0
 31
0.0
  0
SOLID
  5
32C
100
AcDbEntity
  8
DIMENSION
 62
     0
100
AcDbTrace
 10
-1092.5
 20
3425.416667
 30
0.0
 11
-1092.5
 21
3424.583333
 31
0.0
 12
-1095.0
 22
3425.0
 32
0.0
 13
-1095.0
 23
3425.0
 33
0.0
  0
SOLID
  5
32D
100
AcDbEntity
  8
DIMENSION
 62
     0
100
AcDbTrace
 10
-1047.5
 20
3425.416667
 30
0.0
 11
-1047.5
 21
3424.583333
 31
0.0
 12
-1045.0
 22
3425.0
 32
0.0
 13
-1045.0
 23
3425.0
 33
0.0
  0
MTEXT
  5
32E
100
AcDbEntity
  8
DIMENSION
 62
     6
100
AcDbMText
 10
-1070.0
 20
3429.0
 30
0.0
 40
4.0
 41
0.0
 71
     5
 72
     1
  1
\A1;50
  7
ROMANS
  0
POINT
  5
32F
100
AcDbEntity
  8
DEFPOINTS
 62
     0
100
AcDbPoint
 10
-1095.0
 20
3410.0
 30
0.0
  0
POINT
  5
330
100
AcDbEntity
  8
DEFPOINTS
 62
     0
100
AcDbPoint
 10
-1045.0
 20
3410.0
 30
0.0
  0
POINT
  5
331
100
AcDbEntity
  8
DEFPOINTS
 62
     0
100
AcDbPoint
 10
-1045.0
 20
3425.0
 30
0.0
  0
ENDBLK
  5
333
100
AcDbEntity
  8
0
100
AcDbBlockEnd
  0
BLOCK
  5
33E
100
AcDbEntity
  8
0
100
AcDbBlockBegin
  2
*D27
 70
     1
 10
0.0
 20
0.0
 30
0.0
  3
*D27
  1

  0
LINE
  5
335
100
AcDbEntity
  8
DIMENSION
 62
     0
100
AcDbLine
 10
-1105.0
 20
3494.375
 30
0.0
 11
-1105.0
 21
3473.75
 31
0.0
  0
LINE
  5
336
100
AcDbEntity
  8
DIMENSION
 62
     0
100
AcDbLine
 10
-1035.0
 20
3494.375
 30
0.0
 11
-1035.0
 21
3473.75
 31
0.0
  0
LINE
  5
337
100
AcDbEntity
  8
DIMENSION
 62
     0
100
AcDbLine
 10
-1102.5
 20
3475.0
 30
0.0
 11
-1037.5
 21
3475.0
 31
0.0
  0
SOLID
  5
338
100
AcDbEntity
  8
DIMENSION
 62
     0
100
AcDbTrace
 10
-1102.5
 20
3475.416667
 30
0.0
 11
-1102.5
 21
3474.583333
 31
0.0
 12
-1105.0
 22
3475.0
 32
0.0
 13
-1105.0
 23
3475.0
 33
0.0
  0
SOLID
  5
339
100
AcDbEntity
  8
DIMENSION
 62
     0
100
AcDbTrace
 10
-1037.5
 20
3475.416667
 30
0.0
 11
-1037.5
 21
3474.583333
 31
0.0
 12
-1035.0
 22
3475.0
 32
0.0
 13
-1035.0
 23
3475.0
 33
0.0
  0
MTEXT
  5
33A
100
AcDbEntity
  8
DIMENSION
 62
     6
100
AcDbMText
 10
-1070.0
 20
3479.0
 30
0.0
 40
4.0
 41
0.0
 71
     5
 72
     1
  1
\A1;70
  7
ROMANS
  0
POINT
  5
33B
100
AcDbEntity
  8
DEFPOINTS
 62
     0
100
AcDbPoint
 10
-1105.0
 20
3495.0
 30
0.0
  0
POINT
  5
33C
100
AcDbEntity
  8
DEFPOINTS
 62
     0
100
AcDbPoint
 10
-1035.0
 20
3495.0
 30
0.0
  0
POINT
  5
33D
100
AcDbEntity
  8
DEFPOINTS
 62
     0
100
AcDbPoint
 10
-1035.0
 20
3475.0
 30
0.0
  0
ENDBLK
  5
33F
100
AcDbEntity
  8
0
100
AcDbBlockEnd
  0
BLOCK
  5
34A
100
AcDbEntity
  8
0
100
AcDbBlockBegin
  2
*D28
 70
     1
 10
0.0
 20
0.0
 30
0.0
  3
*D28
  1

  0
LINE
  5
341
100
AcDbEntity
  8
DIMENSION
 62
     0
100
AcDbLine
 10
-1045.0
 20
3410.625
 30
0.0
 11
-1045.0
 21
3426.25
 31
0.0
  0
LINE
  5
342
100
AcDbEntity
  8
DIMENSION
 62
     0
100
AcDbLine
 10
-1025.0
 20
3410.625
 30
0.0
 11
-1025.0
 21
3426.25
 31
0.0
  0
LINE
  5
343
100
AcDbEntity
  8
DIMENSION
 62
     0
100
AcDbLine
 10
-1042.5
 20
3425.0
 30
0.0
 11
-1027.5
 21
3425.0
 31
0.0
  0
SOLID
  5
344
100
AcDbEntity
  8
DIMENSION
 62
     0
100
AcDbTrace
 10
-1042.5
 20
3425.416667
 30
0.0
 11
-1042.5
 21
3424.583333
 31
0.0
 12
-1045.0
 22
3425.0
 32
0.0
 13
-1045.0
 23
3425.0
 33
0.0
  0
SOLID
  5
345
100
AcDbEntity
  8
DIMENSION
 62
     0
100
AcDbTrace
 10
-1027.5
 20
3425.416667
 30
0.0
 11
-1027.5
 21
3424.583333
 31
0.0
 12
-1025.0
 22
3425.0
 32
0.0
 13
-1025.0
 23
3425.0
 33
0.0
  0
MTEXT
  5
346
100
AcDbEntity
  8
DIMENSION
 62
     6
100
AcDbMText
 10
-1035.0
 20
3429.0
 30
0.0
 40
4.0
 41
0.0
 71
     5
 72
     1
  1
\A1;20
  7
ROMANS
  0
POINT
  5
347
100
AcDbEntity
  8
DEFPOINTS
 62
     0
100
AcDbPoint
 10
-1045.0
 20
3410.0
 30
0.0
  0
POINT
  5
348
100
AcDbEntity
  8
DEFPOINTS
 62
     0
100
AcDbPoint
 10
-1025.0
 20
3410.0
 30
0.0
  0
POINT
  5
349
100
AcDbEntity
  8
DEFPOINTS
 62
     0
100
AcDbPoint
 10
-1025.0
 20
3425.0
 30
0.0
  0
ENDBLK
  5
34B
100
AcDbEntity
  8
0
100
AcDbBlockEnd
  0
BLOCK
  5
356
100
AcDbEntity
  8
0
100
AcDbBlockBegin
  2
*D29
 70
     1
 10
0.0
 20
0.0
 30
0.0
  3
*D29
  1

  0
LINE
  5
34D
100
AcDbEntity
  8
DIMENSION
 62
     0
100
AcDbLine
 10
-1035.0
 20
3545.625
 30
0.0
 11
-1035.0
 21
3561.25
 31
0.0
  0
LINE
  5
34E
100
AcDbEntity
  8
DIMENSION
 62
     0
100
AcDbLine
 10
-1015.0
 20
3545.625
 30
0.0
 11
-1015.0
 21
3561.25
 31
0.0
  0
LINE
  5
34F
100
AcDbEntity
  8
DIMENSION
 62
     0
100
AcDbLine
 10
-1032.5
 20
3560.0
 30
0.0
 11
-1017.5
 21
3560.0
 31
0.0
  0
SOLID
  5
350
100
AcDbEntity
  8
DIMENSION
 62
     0
100
AcDbTrace
 10
-1032.5
 20
3560.416667
 30
0.0
 11
-1032.5
 21
3559.583333
 31
0.0
 12
-1035.0
 22
3560.0
 32
0.0
 13
-1035.0
 23
3560.0
 33
0.0
  0
SOLID
  5
351
100
AcDbEntity
  8
DIMENSION
 62
     0
100
AcDbTrace
 10
-1017.5
 20
3560.416667
 30
0.0
 11
-1017.5
 21
3559.583333
 31
0.0
 12
-1015.0
 22
3560.0
 32
0.0
 13
-1015.0
 23
3560.0
 33
0.0
  0
MTEXT
  5
352
100
AcDbEntity
  8
DIMENSION
 62
     6
100
AcDbMText
 10
-1025.0
 20
3564.0
 30
0.0
 40
4.0
 41
0.0
 71
     5
 72
     1
  1
\A1;20
  7
ROMANS
  0
POINT
  5
353
100
AcDbEntity
  8
DEFPOINTS
 62
     0
100
AcDbPoint
 10
-1035.0
 20
3545.0
 30
0.0
  0
POINT
  5
354
100
AcDbEntity
  8
DEFPOINTS
 62
     0
100
AcDbPoint
 10
-1015.0
 20
3545.0
 30
0.0
  0
POINT
  5
355
100
AcDbEntity
  8
DEFPOINTS
 62
     0
100
AcDbPoint
 10
-1015.0
 20
3560.0
 30
0.0
  0
ENDBLK
  5
357
100
AcDbEntity
  8
0
100
AcDbBlockEnd
  0
BLOCK
  5
362
100
AcDbEntity
  8
0
100
AcDbBlockBegin
  2
*D30
 70
     1
 10
0.0
 20
0.0
 30
0.0
  3
*D30
  1

  0
LINE
  5
359
100
AcDbEntity
  8
DIMENSION
 62
     0
100
AcDbLine
 10
-975.0
 20
3359.375
 30
0.0
 11
-975.0
 21
3338.75
 31
0.0
  0
LINE
  5
35A
100
AcDbEntity
  8
DIMENSION
 62
     0
100
AcDbLine
 10
-905.0
 20
3359.375
 30
0.0
 11
-905.0
 21
3338.75
 31
0.0
  0
LINE
  5
35B
100
AcDbEntity
  8
DIMENSION
 62
     0
100
AcDbLine
 10
-972.5
 20
3340.0
 30
0.0
 11
-907.5
 21
3340.0
 31
0.0
  0
SOLID
  5
35C
100
AcDbEntity
  8
DIMENSION
 62
     0
100
AcDbTrace
 10
-972.5
 20
3340.416667
 30
0.0
 11
-972.5
 21
3339.583333
 31
0.0
 12
-975.0
 22
3340.0
 32
0.0
 13
-975.0
 23
3340.0
 33
0.0
  0
SOLID
  5
35D
100
AcDbEntity
  8
DIMENSION
 62
     0
100
AcDbTrace
 10
-907.5
 20
3340.416667
 30
0.0
 11
-907.5
 21
3339.583333
 31
0.0
 12
-905.0
 22
3340.0
 32
0.0
 13
-905.0
 23
3340.0
 33
0.0
  0
MTEXT
  5
35E
100
AcDbEntity
  8
DIMENSION
 62
     6
100
AcDbMText
 10
-940.0
 20
3344.0
 30
0.0
 40
4.0
 41
0.0
 71
     5
 72
     1
  1
\A1;70
  7
ROMANS
  0
POINT
  5
35F
100
AcDbEntity
  8
DEFPOINTS
 62
     0
100
AcDbPoint
 10
-975.0
 20
3360.0
 30
0.0
  0
POINT
  5
360
100
AcDbEntity
  8
DEFPOINTS
 62
     0
100
AcDbPoint
 10
-905.0
 20
3360.0
 30
0.0
  0
POINT
  5
361
100
AcDbEntity
  8
DEFPOINTS
 62
     0
100
AcDbPoint
 10
-905.0
 20
3340.0
 30
0.0
  0
ENDBLK
  5
363
100
AcDbEntity
  8
0
100
AcDbBlockEnd
  0
BLOCK
  5
36E
100
AcDbEntity
  8
0
100
AcDbBlockBegin
  2
*D31
 70
     1
 10
0.0
 20
0.0
 30
0.0
  3
*D31
  1

  0
LINE
  5
365
100
AcDbEntity
  8
DIMENSION
 62
     0
100
AcDbLine
 10
-960.0
 20
3545.625
 30
0.0
 11
-960.0
 21
3561.25
 31
0.0
  0
LINE
  5
366
100
AcDbEntity
  8
DIMENSION
 62
     0
100
AcDbLine
 10
-910.0
 20
3545.625
 30
0.0
 11
-910.0
 21
3561.25
 31
0.0
  0
LINE
  5
367
100
AcDbEntity
  8
DIMENSION
 62
     0
100
AcDbLine
 10
-957.5
 20
3560.0
 30
0.0
 11
-912.5
 21
3560.0
 31
0.0
  0
SOLID
  5
368
100
AcDbEntity
  8
DIMENSION
 62
     0
100
AcDbTrace
 10
-957.5
 20
3560.416667
 30
0.0
 11
-957.5
 21
3559.583333
 31
0.0
 12
-960.0
 22
3560.0
 32
0.0
 13
-960.0
 23
3560.0
 33
0.0
  0
SOLID
  5
369
100
AcDbEntity
  8
DIMENSION
 62
     0
100
AcDbTrace
 10
-912.5
 20
3560.416667
 30
0.0
 11
-912.5
 21
3559.583333
 31
0.0
 12
-910.0
 22
3560.0
 32
0.0
 13
-910.0
 23
3560.0
 33
0.0
  0
MTEXT
  5
36A
100
AcDbEntity
  8
DIMENSION
 62
     6
100
AcDbMText
 10
-935.0
 20
3564.0
 30
0.0
 40
4.0
 41
0.0
 71
     5
 72
     1
  1
\A1;50
  7
ROMANS
  0
POINT
  5
36B
100
AcDbEntity
  8
DEFPOINTS
 62
     0
100
AcDbPoint
 10
-960.0
 20
3545.0
 30
0.0
  0
POINT
  5
36C
100
AcDbEntity
  8
DEFPOINTS
 62
     0
100
AcDbPoint
 10
-910.0
 20
3545.0
 30
0.0
  0
POINT
  5
36D
100
AcDbEntity
  8
DEFPOINTS
 62
     0
100
AcDbPoint
 10
-910.0
 20
3560.0
 30
0.0
  0
ENDBLK
  5
36F
100
AcDbEntity
  8
0
100
AcDbBlockEnd
  0
BLOCK
  5
37A
100
AcDbEntity
  8
0
100
AcDbBlockBegin
  2
*D32
 70
     1
 10
0.0
 20
0.0
 30
0.0
  3
*D32
  1

  0
LINE
  5
371
100
AcDbEntity
  8
DIMENSION
 62
     0
100
AcDbLine
 10
-955.0
 20
3410.625
 30
0.0
 11
-955.0
 21
3426.25
 31
0.0
  0
LINE
  5
372
100
AcDbEntity
  8
DIMENSION
 62
     0
100
AcDbLine
 10
-905.0
 20
3410.625
 30
0.0
 11
-905.0
 21
3426.25
 31
0.0
  0
LINE
  5
373
100
AcDbEntity
  8
DIMENSION
 62
     0
100
AcDbLine
 10
-952.5
 20
3425.0
 30
0.0
 11
-907.5
 21
3425.0
 31
0.0
  0
SOLID
  5
374
100
AcDbEntity
  8
DIMENSION
 62
     0
100
AcDbTrace
 10
-952.5
 20
3425.416667
 30
0.0
 11
-952.5
 21
3424.583333
 31
0.0
 12
-955.0
 22
3425.0
 32
0.0
 13
-955.0
 23
3425.0
 33
0.0
  0
SOLID
  5
375
100
AcDbEntity
  8
DIMENSION
 62
     0
100
AcDbTrace
 10
-907.5
 20
3425.416667
 30
0.0
 11
-907.5
 21
3424.583333
 31
0.0
 12
-905.0
 22
3425.0
 32
0.0
 13
-905.0
 23
3425.0
 33
0.0
  0
MTEXT
  5
376
100
AcDbEntity
  8
DIMENSION
 62
     6
100
AcDbMText
 10
-930.0
 20
3429.0
 30
0.0
 40
4.0
 41
0.0
 71
     5
 72
     1
  1
\A1;50
  7
ROMANS
  0
POINT
  5
377
100
AcDbEntity
  8
DEFPOINTS
 62
     0
100
AcDbPoint
 10
-955.0
 20
3410.0
 30
0.0
  0
POINT
  5
378
100
AcDbEntity
  8
DEFPOINTS
 62
     0
100
AcDbPoint
 10
-905.0
 20
3410.0
 30
0.0
  0
POINT
  5
379
100
AcDbEntity
  8
DEFPOINTS
 62
     0
100
AcDbPoint
 10
-905.0
 20
3425.0
 30
0.0
  0
ENDBLK
  5
37B
100
AcDbEntity
  8
0
100
AcDbBlockEnd
  0
BLOCK
  5
386
100
AcDbEntity
  8
0
100
AcDbBlockBegin
  2
*D33
 70
     1
 10
0.0
 20
0.0
 30
0.0
  3
*D33
  1

  0
LINE
  5
37D
100
AcDbEntity
  8
DIMENSION
 62
     0
100
AcDbLine
 10
-980.0
 20
3494.375
 30
0.0
 11
-980.0
 21
3473.75
 31
0.0
  0
LINE
  5
37E
100
AcDbEntity
  8
DIMENSION
 62
     0
100
AcDbLine
 10
-910.0
 20
3494.375
 30
0.0
 11
-910.0
 21
3473.75
 31
0.0
  0
LINE
  5
37F
100
AcDbEntity
  8
DIMENSION
 62
     0
100
AcDbLine
 10
-977.5
 20
3475.0
 30
0.0
 11
-912.5
 21
3475.0
 31
0.0
  0
SOLID
  5
380
100
AcDbEntity
  8
DIMENSION
 62
     0
100
AcDbTrace
 10
-977.5
 20
3475.416667
 30
0.0
 11
-977.5
 21
3474.583333
 31
0.0
 12
-980.0
 22
3475.0
 32
0.0
 13
-980.0
 23
3475.0
 33
0.0
  0
SOLID
  5
381
100
AcDbEntity
  8
DIMENSION
 62
     0
100
AcDbTrace
 10
-912.5
 20
3475.416667
 30
0.0
 11
-912.5
 21
3474.583333
 31
0.0
 12
-910.0
 22
3475.0
 32
0.0
 13
-910.0
 23
3475.0
 33
0.0
  0
MTEXT
  5
382
100
AcDbEntity
  8
DIMENSION
 62
     6
100
AcDbMText
 10
-945.0
 20
3479.0
 30
0.0
 40
4.0
 41
0.0
 71
     5
 72
     1
  1
\A1;70
  7
ROMANS
  0
POINT
  5
383
100
AcDbEntity
  8
DEFPOINTS
 62
     0
100
AcDbPoint
 10
-980.0
 20
3495.0
 30
0.0
  0
POINT
  5
384
100
AcDbEntity
  8
DEFPOINTS
 62
     0
100
AcDbPoint
 10
-910.0
 20
3495.0
 30
0.0
  0
POINT
  5
385
100
AcDbEntity
  8
DEFPOINTS
 62
     0
100
AcDbPoint
 10
-910.0
 20
3475.0
 30
0.0
  0
ENDBLK
  5
387
100
AcDbEntity
  8
0
100
AcDbBlockEnd
  0
BLOCK
  5
392
100
AcDbEntity
  8
0
100
AcDbBlockBegin
  2
*D34
 70
     1
 10
0.0
 20
0.0
 30
0.0
  3
*D34
  1

  0
LINE
  5
389
100
AcDbEntity
  8
DIMENSION
 62
     0
100
AcDbLine
 10
-905.0
 20
3410.625
 30
0.0
 11
-905.0
 21
3426.25
 31
0.0
  0
LINE
  5
38A
100
AcDbEntity
  8
DIMENSION
 62
     0
100
AcDbLine
 10
-885.0
 20
3410.625
 30
0.0
 11
-885.0
 21
3426.25
 31
0.0
  0
LINE
  5
38B
100
AcDbEntity
  8
DIMENSION
 62
     0
100
AcDbLine
 10
-902.5
 20
3425.0
 30
0.0
 11
-887.5
 21
3425.0
 31
0.0
  0
SOLID
  5
38C
100
AcDbEntity
  8
DIMENSION
 62
     0
100
AcDbTrace
 10
-902.5
 20
3425.416667
 30
0.0
 11
-902.5
 21
3424.583333
 31
0.0
 12
-905.0
 22
3425.0
 32
0.0
 13
-905.0
 23
3425.0
 33
0.0
  0
SOLID
  5
38D
100
AcDbEntity
  8
DIMENSION
 62
     0
100
AcDbTrace
 10
-887.5
 20
3425.416667
 30
0.0
 11
-887.5
 21
3424.583333
 31
0.0
 12
-885.0
 22
3425.0
 32
0.0
 13
-885.0
 23
3425.0
 33
0.0
  0
MTEXT
  5
38E
100
AcDbEntity
  8
DIMENSION
 62
     6
100
AcDbMText
 10
-895.0
 20
3429.0
 30
0.0
 40
4.0
 41
0.0
 71
     5
 72
     1
  1
\A1;20
  7
ROMANS
  0
POINT
  5
38F
100
AcDbEntity
  8
DEFPOINTS
 62
     0
100
AcDbPoint
 10
-905.0
 20
3410.0
 30
0.0
  0
POINT
  5
390
100
AcDbEntity
  8
DEFPOINTS
 62
     0
100
AcDbPoint
 10
-885.0
 20
3410.0
 30
0.0
  0
POINT
  5
391
100
AcDbEntity
  8
DEFPOINTS
 62
     0
100
AcDbPoint
 10
-885.0
 20
3425.0
 30
0.0
  0
ENDBLK
  5
393
100
AcDbEntity
  8
0
100
AcDbBlockEnd
  0
BLOCK
  5
39E
100
AcDbEntity
  8
0
100
AcDbBlockBegin
  2
*D35
 70
     1
 10
0.0
 20
0.0
 30
0.0
  3
*D35
  1

  0
LINE
  5
395
100
AcDbEntity
  8
DIMENSION
 62
     0
100
AcDbLine
 10
-910.0
 20
3545.625
 30
0.0
 11
-910.0
 21
3561.25
 31
0.0
  0
LINE
  5
396
100
AcDbEntity
  8
DIMENSION
 62
     0
100
AcDbLine
 10
-890.0
 20
3545.625
 30
0.0
 11
-890.0
 21
3561.25
 31
0.0
  0
LINE
  5
397
100
AcDbEntity
  8
DIMENSION
 62
     0
100
AcDbLine
 10
-907.5
 20
3560.0
 30
0.0
 11
-892.5
 21
3560.0
 31
0.0
  0
SOLID
  5
398
100
AcDbEntity
  8
DIMENSION
 62
     0
100
AcDbTrace
 10
-907.5
 20
3560.416667
 30
0.0
 11
-907.5
 21
3559.583333
 31
0.0
 12
-910.0
 22
3560.0
 32
0.0
 13
-910.0
 23
3560.0
 33
0.0
  0
SOLID
  5
399
100
AcDbEntity
  8
DIMENSION
 62
     0
100
AcDbTrace
 10
-892.5
 20
3560.416667
 30
0.0
 11
-892.5
 21
3559.583333
 31
0.0
 12
-890.0
 22
3560.0
 32
0.0
 13
-890.0
 23
3560.0
 33
0.0
  0
MTEXT
  5
39A
100
AcDbEntity
  8
DIMENSION
 62
     6
100
AcDbMText
 10
-900.0
 20
3564.0
 30
0.0
 40
4.0
 41
0.0
 71
     5
 72
     1
  1
\A1;20
  7
ROMANS
  0
POINT
  5
39B
100
AcDbEntity
  8
DEFPOINTS
 62
     0
100
AcDbPoint
 10
-910.0
 20
3545.0
 30
0.0
  0
POINT
  5
39C
100
AcDbEntity
  8
DEFPOINTS
 62
     0
100
AcDbPoint
 10
-890.0
 20
3545.0
 30
0.0
  0
POINT
  5
39D
100
AcDbEntity
  8
DEFPOINTS
 62
     0
100
AcDbPoint
 10
-890.0
 20
3560.0
 30
0.0
  0
ENDBLK
  5
39F
100
AcDbEntity
  8
0
100
AcDbBlockEnd
  0
BLOCK
  5
3AA
100
AcDbEntity
  8
0
100
AcDbBlockBegin
  2
*D36
 70
     1
 10
0.0
 20
0.0
 30
0.0
  3
*D36
  1

  0
LINE
  5
3A1
100
AcDbEntity
  8
DIMENSION
 62
     0
100
AcDbLine
 10
-815.0
 20
3359.375
 30
0.0
 11
-815.0
 21
3338.75
 31
0.0
  0
LINE
  5
3A2
100
AcDbEntity
  8
DIMENSION
 62
     0
100
AcDbLine
 10
-775.0
 20
3359.375
 30
0.0
 11
-775.0
 21
3338.75
 31
0.0
  0
LINE
  5
3A3
100
AcDbEntity
  8
DIMENSION
 62
     0
100
AcDbLine
 10
-812.5
 20
3340.0
 30
0.0
 11
-777.5
 21
3340.0
 31
0.0
  0
SOLID
  5
3A4
100
AcDbEntity
  8
DIMENSION
 62
     0
100
AcDbTrace
 10
-812.5
 20
3340.416667
 30
0.0
 11
-812.5
 21
3339.583333
 31
0.0
 12
-815.0
 22
3340.0
 32
0.0
 13
-815.0
 23
3340.0
 33
0.0
  0
SOLID
  5
3A5
100
AcDbEntity
  8
DIMENSION
 62
     0
100
AcDbTrace
 10
-777.5
 20
3340.416667
 30
0.0
 11
-777.5
 21
3339.583333
 31
0.0
 12
-775.0
 22
3340.0
 32
0.0
 13
-775.0
 23
3340.0
 33
0.0
  0
MTEXT
  5
3A6
100
AcDbEntity
  8
DIMENSION
 62
     6
100
AcDbMText
 10
-795.0
 20
3344.0
 30
0.0
 40
4.0
 41
0.0
 71
     5
 72
     1
  1
\A1;40
  7
ROMANS
  0
POINT
  5
3A7
100
AcDbEntity
  8
DEFPOINTS
 62
     0
100
AcDbPoint
 10
-815.0
 20
3360.0
 30
0.0
  0
POINT
  5
3A8
100
AcDbEntity
  8
DEFPOINTS
 62
     0
100
AcDbPoint
 10
-775.0
 20
3360.0
 30
0.0
  0
POINT
  5
3A9
100
AcDbEntity
  8
DEFPOINTS
 62
     0
100
AcDbPoint
 10
-775.0
 20
3340.0
 30
0.0
  0
ENDBLK
  5
3AB
100
AcDbEntity
  8
0
100
AcDbBlockEnd
  0
BLOCK
  5
3B6
100
AcDbEntity
  8
0
100
AcDbBlockBegin
  2
*D37
 70
     1
 10
0.0
 20
0.0
 30
0.0
  3
*D37
  1

  0
LINE
  5
3AD
100
AcDbEntity
  8
DIMENSION
 62
     0
100
AcDbLine
 10
-815.0
 20
3545.625
 30
0.0
 11
-815.0
 21
3561.25
 31
0.0
  0
LINE
  5
3AE
100
AcDbEntity
  8
DIMENSION
 62
     0
100
AcDbLine
 10
-765.0
 20
3545.625
 30
0.0
 11
-765.0
 21
3561.25
 31
0.0
  0
LINE
  5
3AF
100
AcDbEntity
  8
DIMENSION
 62
     0
100
AcDbLine
 10
-812.5
 20
3560.0
 30
0.0
 11
-767.5
 21
3560.0
 31
0.0
  0
SOLID
  5
3B0
100
AcDbEntity
  8
DIMENSION
 62
     0
100
AcDbTrace
 10
-812.5
 20
3560.416667
 30
0.0
 11
-812.5
 21
3559.583333
 31
0.0
 12
-815.0
 22
3560.0
 32
0.0
 13
-815.0
 23
3560.0
 33
0.0
  0
SOLID
  5
3B1
100
AcDbEntity
  8
DIMENSION
 62
     0
100
AcDbTrace
 10
-767.5
 20
3560.416667
 30
0.0
 11
-767.5
 21
3559.583333
 31
0.0
 12
-765.0
 22
3560.0
 32
0.0
 13
-765.0
 23
3560.0
 33
0.0
  0
MTEXT
  5
3B2
100
AcDbEntity
  8
DIMENSION
 62
     6
100
AcDbMText
 10
-790.0
 20
3564.0
 30
0.0
 40
4.0
 41
0.0
 71
     5
 72
     1
  1
\A1;50
  7
ROMANS
  0
POINT
  5
3B3
100
AcDbEntity
  8
DEFPOINTS
 62
     0
100
AcDbPoint
 10
-815.0
 20
3545.0
 30
0.0
  0
POINT
  5
3B4
100
AcDbEntity
  8
DEFPOINTS
 62
     0
100
AcDbPoint
 10
-765.0
 20
3545.0
 30
0.0
  0
POINT
  5
3B5
100
AcDbEntity
  8
DEFPOINTS
 62
     0
100
AcDbPoint
 10
-765.0
 20
3560.0
 30
0.0
  0
ENDBLK
  5
3B7
100
AcDbEntity
  8
0
100
AcDbBlockEnd
  0
BLOCK
  5
3C2
100
AcDbEntity
  8
0
100
AcDbBlockBegin
  2
*D38
 70
     1
 10
0.0
 20
0.0
 30
0.0
  3
*D38
  1

  0
LINE
  5
3B9
100
AcDbEntity
  8
DIMENSION
 62
     0
100
AcDbLine
 10
-835.0
 20
3494.375
 30
0.0
 11
-835.0
 21
3473.75
 31
0.0
  0
LINE
  5
3BA
100
AcDbEntity
  8
DIMENSION
 62
     0
100
AcDbLine
 10
-765.0
 20
3494.375
 30
0.0
 11
-765.0
 21
3473.75
 31
0.0
  0
LINE
  5
3BB
100
AcDbEntity
  8
DIMENSION
 62
     0
100
AcDbLine
 10
-832.5
 20
3475.0
 30
0.0
 11
-767.5
 21
3475.0
 31
0.0
  0
SOLID
  5
3BC
100
AcDbEntity
  8
DIMENSION
 62
     0
100
AcDbTrace
 10
-832.5
 20
3475.416667
 30
0.0
 11
-832.5
 21
3474.583333
 31
0.0
 12
-835.0
 22
3475.0
 32
0.0
 13
-835.0
 23
3475.0
 33
0.0
  0
SOLID
  5
3BD
100
AcDbEntity
  8
DIMENSION
 62
     0
100
AcDbTrace
 10
-767.5
 20
3475.416667
 30
0.0
 11
-767.5
 21
3474.583333
 31
0.0
 12
-765.0
 22
3475.0
 32
0.0
 13
-765.0
 23
3475.0
 33
0.0
  0
MTEXT
  5
3BE
100
AcDbEntity
  8
DIMENSION
 62
     6
100
AcDbMText
 10
-800.0
 20
3479.0
 30
0.0
 40
4.0
 41
0.0
 71
     5
 72
     1
  1
\A1;70
  7
ROMANS
  0
POINT
  5
3BF
100
AcDbEntity
  8
DEFPOINTS
 62
     0
100
AcDbPoint
 10
-835.0
 20
3495.0
 30
0.0
  0
POINT
  5
3C0
100
AcDbEntity
  8
DEFPOINTS
 62
     0
100
AcDbPoint
 10
-765.0
 20
3495.0
 30
0.0
  0
POINT
  5
3C1
100
AcDbEntity
  8
DEFPOINTS
 62
     0
100
AcDbPoint
 10
-765.0
 20
3475.0
 30
0.0
  0
ENDBLK
  5
3C3
100
AcDbEntity
  8
0
100
AcDbBlockEnd
  0
BLOCK
  5
3CE
100
AcDbEntity
  8
0
100
AcDbBlockBegin
  2
*D39
 70
     1
 10
0.0
 20
0.0
 30
0.0
  3
*D39
  1

  0
LINE
  5
3C5
100
AcDbEntity
  8
DIMENSION
 62
     0
100
AcDbLine
 10
-775.0
 20
3410.625
 30
0.0
 11
-775.0
 21
3426.25
 31
0.0
  0
LINE
  5
3C6
100
AcDbEntity
  8
DIMENSION
 62
     0
100
AcDbLine
 10
-755.0
 20
3410.625
 30
0.0
 11
-755.0
 21
3426.25
 31
0.0
  0
LINE
  5
3C7
100
AcDbEntity
  8
DIMENSION
 62
     0
100
AcDbLine
 10
-772.5
 20
3425.0
 30
0.0
 11
-757.5
 21
3425.0
 31
0.0
  0
SOLID
  5
3C8
100
AcDbEntity
  8
DIMENSION
 62
     0
100
AcDbTrace
 10
-772.5
 20
3425.416667
 30
0.0
 11
-772.5
 21
3424.583333
 31
0.0
 12
-775.0
 22
3425.0
 32
0.0
 13
-775.0
 23
3425.0
 33
0.0
  0
SOLID
  5
3C9
100
AcDbEntity
  8
DIMENSION
 62
     0
100
AcDbTrace
 10
-757.5
 20
3425.416667
 30
0.0
 11
-757.5
 21
3424.583333
 31
0.0
 12
-755.0
 22
3425.0
 32
0.0
 13
-755.0
 23
3425.0
 33
0.0
  0
MTEXT
  5
3CA
100
AcDbEntity
  8
DIMENSION
 62
     6
100
AcDbMText
 10
-765.0
 20
3429.0
 30
0.0
 40
4.0
 41
0.0
 71
     5
 72
     1
  1
\A1;20
  7
ROMANS
  0
POINT
  5
3CB
100
AcDbEntity
  8
DEFPOINTS
 62
     0
100
AcDbPoint
 10
-775.0
 20
3410.0
 30
0.0
  0
POINT
  5
3CC
100
AcDbEntity
  8
DEFPOINTS
 62
     0
100
AcDbPoint
 10
-755.0
 20
3410.0
 30
0.0
  0
POINT
  5
3CD
100
AcDbEntity
  8
DEFPOINTS
 62
     0
100
AcDbPoint
 10
-755.0
 20
3425.0
 30
0.0
  0
ENDBLK
  5
3CF
100
AcDbEntity
  8
0
100
AcDbBlockEnd
  0
BLOCK
  5
3DA
100
AcDbEntity
  8
0
100
AcDbBlockBegin
  2
*D40
 70
     1
 10
0.0
 20
0.0
 30
0.0
  3
*D40
  1

  0
LINE
  5
3D1
100
AcDbEntity
  8
DIMENSION
 62
     0
100
AcDbLine
 10
-795.0
 20
3410.625
 30
0.0
 11
-795.0
 21
3426.25
 31
0.0
  0
LINE
  5
3D2
100
AcDbEntity
  8
DIMENSION
 62
     0
100
AcDbLine
 10
-775.0
 20
3410.625
 30
0.0
 11
-775.0
 21
3426.25
 31
0.0
  0
LINE
  5
3D3
100
AcDbEntity
  8
DIMENSION
 62
     0
100
AcDbLine
 10
-792.5
 20
3425.0
 30
0.0
 11
-777.5
 21
3425.0
 31
0.0
  0
SOLID
  5
3D4
100
AcDbEntity
  8
DIMENSION
 62
     0
100
AcDbTrace
 10
-792.5
 20
3425.416667
 30
0.0
 11
-792.5
 21
3424.583333
 31
0.0
 12
-795.0
 22
3425.0
 32
0.0
 13
-795.0
 23
3425.0
 33
0.0
  0
SOLID
  5
3D5
100
AcDbEntity
  8
DIMENSION
 62
     0
100
AcDbTrace
 10
-777.5
 20
3425.416667
 30
0.0
 11
-777.5
 21
3424.583333
 31
0.0
 12
-775.0
 22
3425.0
 32
0.0
 13
-775.0
 23
3425.0
 33
0.0
  0
MTEXT
  5
3D6
100
AcDbEntity
  8
DIMENSION
 62
     6
100
AcDbMText
 10
-785.0
 20
3429.0
 30
0.0
 40
4.0
 41
0.0
 71
     5
 72
     1
  1
\A1;20
  7
ROMANS
  0
POINT
  5
3D7
100
AcDbEntity
  8
DEFPOINTS
 62
     0
100
AcDbPoint
 10
-795.0
 20
3410.0
 30
0.0
  0
POINT
  5
3D8
100
AcDbEntity
  8
DEFPOINTS
 62
     0
100
AcDbPoint
 10
-775.0
 20
3410.0
 30
0.0
  0
POINT
  5
3D9
100
AcDbEntity
  8
DEFPOINTS
 62
     0
100
AcDbPoint
 10
-775.0
 20
3425.0
 30
0.0
  0
ENDBLK
  5
3DB
100
AcDbEntity
  8
0
100
AcDbBlockEnd
  0
BLOCK
  5
3E6
100
AcDbEntity
  8
0
100
AcDbBlockBegin
  2
*D41
 70
     1
 10
0.0
 20
0.0
 30
0.0
  3
*D41
  1

  0
LINE
  5
3DD
100
AcDbEntity
  8
DIMENSION
 62
     0
100
AcDbLine
 10
-765.0
 20
3545.625
 30
0.0
 11
-765.0
 21
3561.25
 31
0.0
  0
LINE
  5
3DE
100
AcDbEntity
  8
DIMENSION
 62
     0
100
AcDbLine
 10
-745.0
 20
3545.625
 30
0.0
 11
-745.0
 21
3561.25
 31
0.0
  0
LINE
  5
3DF
100
AcDbEntity
  8
DIMENSION
 62
     0
100
AcDbLine
 10
-762.5
 20
3560.0
 30
0.0
 11
-747.5
 21
3560.0
 31
0.0
  0
SOLID
  5
3E0
100
AcDbEntity
  8
DIMENSION
 62
     0
100
AcDbTrace
 10
-762.5
 20
3560.416667
 30
0.0
 11
-762.5
 21
3559.583333
 31
0.0
 12
-765.0
 22
3560.0
 32
0.0
 13
-765.0
 23
3560.0
 33
0.0
  0
SOLID
  5
3E1
100
AcDbEntity
  8
DIMENSION
 62
     0
100
AcDbTrace
 10
-747.5
 20
3560.416667
 30
0.0
 11
-747.5
 21
3559.583333
 31
0.0
 12
-745.0
 22
3560.0
 32
0.0
 13
-745.0
 23
3560.0
 33
0.0
  0
MTEXT
  5
3E2
100
AcDbEntity
  8
DIMENSION
 62
     6
100
AcDbMText
 10
-755.0
 20
3564.0
 30
0.0
 40
4.0
 41
0.0
 71
     5
 72
     1
  1
\A1;20
  7
ROMANS
  0
POINT
  5
3E3
100
AcDbEntity
  8
DEFPOINTS
 62
     0
100
AcDbPoint
 10
-765.0
 20
3545.0
 30
0.0
  0
POINT
  5
3E4
100
AcDbEntity
  8
DEFPOINTS
 62
     0
100
AcDbPoint
 10
-745.0
 20
3545.0
 30
0.0
  0
POINT
  5
3E5
100
AcDbEntity
  8
DEFPOINTS
 62
     0
100
AcDbPoint
 10
-745.0
 20
3560.0
 30
0.0
  0
ENDBLK
  5
3E7
100
AcDbEntity
  8
0
100
AcDbBlockEnd
  0
ENDSEC
  0
SECTION
  2
ENTITIES
  0
INSERT
  5
1F
100
AcDbEntity
  8
GLAS_MED_FOGNING
100
AcDbBlockReference
 66
     1
  2
RAMA4
 10
-1140.625
 20
3098.125
 30
0.0
 41
1.125
 42
1.125
 43
1.125
  0
ATTRIB
  5
20
100
AcDbEntity
  8
RAMTEXT
 62
     6
100
AcDbText
 10
-1043.915216
 20
3140.044414
 30
0.0
 40
5.0625
  1
 
  7
ISO
 72
     1
 11
-1041.625037
 21
3140.044414
 31
0.0
100
AcDbAttribute
  2
COPIED
 70
     0
  0
ATTRIB
  5
23
100
AcDbEntity
  8
RAMTEXT
 62
     6
100
AcDbText
 10
-1091.38218
 20
3140.044414
 30
0.0
 40
5.0625
  1
 R.O
 41
0.8
  7
ROMANS
 72
     1
 11
-1082.125037
 21
3140.044414
 31
0.0
100
AcDbAttribute
  2
DOC_DESIGNER
 70
     0
  0
ATTRIB
  5
24
100
AcDbEntity
  8
RAMTEXT
 62
     6
100
AcDbText
 10
-1136.191371
 20
3104.287503
 30
0.0
 40
7.0875
  1

  7
ISO
100
AcDbAttribute
  2
LG_DESC_1
 70
     0
  0
ATTRIB
  5
25
100
AcDbEntity
  8
RAMTEXT
 62
     6
100
AcDbText
 10
-1122.665216
 20
3140.044414
 30
0.0
 40
5.0625
  1
 
  7
ISO
 72
     1
 11
-1120.375037
 21
3140.044414
 31
0.0
100
AcDbAttribute
  2
DOC_DESIGNER
 70
     0
  0
ATTRIB
  5
26
100
AcDbEntity
  8
RAMTEXT
 62
     6
100
AcDbText
 10
-1016.941371
 20
3104.287503
 30
0.0
 40
6.5
  1
PROFILES WITH CENTERED GLAZING
 41
0.8
  7
ROMANS
100
AcDbAttribute
  2
DOC_DESC2
 70
     0
  0
ATTRIB
  5
27
100
AcDbEntity
  8
RAMTEXT
 62
     6
100
AcDbText
 10
-1016.941371
 20
3117.787503
 30
0.0
 40
6.5
  1
SP 35000/SP 75000  EI-30/A-30
 41
0.8
  7
ROMANS
100
AcDbAttribute
  2
DOC_DESC1
 70
     0
  0
ATTRIB
  5
28
100
AcDbEntity
  8
RAMTEXT
 62
     6
100
AcDbText
 10
-1005.665216
 20
3140.044414
 30
0.0
 40
5.0625
  1
 
  7
ISO
 72
     1
 11
-1003.375037
 21
3140.044414
 31
0.0
100
AcDbAttribute
  2
CHECK
 70
     0
  0
ATTRIB
  5
29
100
AcDbEntity
  8
RAMTEXT
 62
     6
100
AcDbText
 10
-965.165216
 20
3140.044414
 30
0.0
 40
5.0625
  1
 
  7
ISO
 72
     1
 11
-962.875037
 21
3140.044414
 31
0.0
100
AcDbAttribute
  2
STAND
 70
     0
  0
ATTRIB
  5
2A
100
AcDbEntity
  8
RAMTEXT
 62
     6
100
AcDbText
 10
-824.635037
 20
3104.287503
 30
0.0
 40
7.0875
  1
4-2538
 41
0.8
  7
ROMANS
 72
     1
 11
-807.625037
 21
3104.287503
 31
0.0
100
AcDbAttribute
  2
DOC_FILE_NAME
 70
     0
  0
ATTRIB
  5
2B
100
AcDbEntity
  8
RAMTEXT
 62
     6
100
AcDbText
 10
-926.915216
 20
3140.044414
 30
0.0
 40
5.0625
  1
 
  7
ISO
 72
     1
 11
-924.625037
 21
3140.044414
 31
0.0
100
AcDbAttribute
  2
GODK
 70
     0
  0
ATTRIB
  5
2C
100
AcDbEntity
  8
RAMTEXT
 62
     6
100
AcDbText
 10
-889.878609
 20
3140.044414
 30
0.0
 40
5.0625
  1
1;2,5
 41
0.8
  7
ROMANS
 72
     1
 11
-881.875037
 21
3140.044414
 31
0.0
100
AcDbAttribute
  2
SCALE
 70
     0
  0
ATTRIB
  5
2D
100
AcDbEntity
  8
RAMTEXT
 62
     6
100
AcDbText
 10
-799.460752
 20
3122.911387
 30
0.0
 40
5.0625
  1
99-12-16
 41
0.8
  7
ROMANS
 72
     1
 11
-782.875037
 21
3122.911387
 31
0.0
100
AcDbAttribute
  2
DOC_LASTEDIT_DATE
 70
     0
  0
ATTRIB
  5
2E
100
AcDbEntity
  8
RAMTEXT
 62
     6
100
AcDbText
 10
-834.625037
 20
3122.911387
 30
0.0
 40
5.0625
  1

  7
ISO
 72
     1
 11
-834.625037
 21
3122.911387
 31
0.0
100
AcDbAttribute
  2
REG
 70
     0
  0
ATTRIB
  5
2F
100
AcDbEntity
  8
RAMTEXT
 62
     6
100
AcDbText
 10
-785.165216
 20
3140.044414
 30
0.0
 40
5.0625
  1
 
  7
ISO
 72
     1
 11
-782.875037
 21
3140.044414
 31
0.0
100
AcDbAttribute
  2
REPL_BY
 70
     0
  0
ATTRIB
  5
30
100
AcDbEntity
  8
RAMTEXT
 62
     6
100
AcDbText
 10
-836.915216
 20
3140.044414
 30
0.0
 40
5.0625
  1
 
  7
ISO
 72
     1
 11
-834.625037
 21
3140.044414
 31
0.0
100
AcDbAttribute
  2
REPL
 70
     0
  0
SEQEND
  5
73
100
AcDbEntity
  8
GLAS_MED_FOGNING
  0
TEXT
  5
79
100
AcDbEntity
  8
TEXT
100
AcDbText
 10
-1132.211007
 20
3162.104121
 30
0.0
 40
4.5
  1
* MAY ALSO USE STAINLESS PROFILES AND GLAZING BEADS
 41
0.8
  7
ROMANS
100
AcDbText
  0
TEXT
  5
7A
100
AcDbEntity
  8
TEXT
100
AcDbText
 10
-1093.557143
 20
3350.906556
 30
0.0
 40
5.0
  1
%%USP 75010/750/10
 41
0.8
  7
ROMANS
 72
     1
 11
-1065.0
 21
3350.906556
 31
0.0
100
AcDbText
  0
DIMENSION
  5
7B
100
AcDbEntity
  8
DIMENSION
100
AcDbDimension
  2
*D25
 10
-1035.0
 20
3560.0
 30
0.0
 11
-1060.0
 21
3564.0
 31
0.0
 70
    32
  3
STANDARD
100
AcDbAlignedDimension
 13
-1085.0
 23
3545.0
 33
0.0
 14
-1035.0
 24
3545.0
 34
0.0
100
AcDbRotatedDimension
1001
ACAD
1000
DSTYLE
1002
{
1070
   270
1070
     8
1070
    41
1040
2.5
1070
    42
1040
0.625
1070
    43
1040
3.75
1070
    44
1040
1.25
1070
    73
1070
     0
1070
    74
1070
     0
1070
    77
1070
     1
1070
    78
1070
     8
1070
   140
1040
4.0
1070
   141
1040
2.5
1070
   143
1040
0.0394
1070
   147
1040
2.0
1070
   171
1070
     4
1070
   172
1070
     1
1070
   178
1070
     6
1070
   273
1070
     8
1070
   274
1070
     4
1070
   277
1070
     6
1070
   340
1005
1C
1002
}
  0
LWPOLYLINE
  5
8A
100
AcDbEntity
  8
STALPROFIL
100
AcDbPolyline
 90
       27
 70
     1
 43
1.5
 10
-1083.5
 20
3538.25
 42
-0.414214
 10
-1082.75
 20
3537.5
 10
-1082.75
 20
3533.0
 42
0.414214
 10
-1080.5
 20
3530.75
 10
-1078.5
 20
3530.75
 42
0.414214
 10
-1076.25
 20
3533.0
 42
0.198912
 10
-1076.90901
 20
3534.59099
 10
-1077.59099
 20
3535.272971
 42
-0.198912
 10
-1078.25
 20
3536.863961
 10
-1078.25
 20
3537.0
 42
-0.414214
 10
-1076.0
 20
3539.25
 10
-1073.5
 20
3539.25
 42
0.414214
 10
-1071.25
 20
3541.5
 10
-1071.25
 20
3542.0
 42
-0.414214
 10
-1069.0
 20
3544.25
 10
-1037.5
 20
3544.25
 42
-0.414214
 10
-1035.75
 20
3542.5
 10
-1035.75
 20
3497.5
 42
-0.414214
 10
-1037.5
 20
3495.75
 10
-1103.501
 20
3495.75
 42
-0.414214
 10
-1104.25
 20
3496.499
 10
-1104.25
 20
3496.5
 42
-0.414214
 10
-1103.5
 20
3497.25
 10
-1086.5
 20
3497.25
 42
0.414214
 10
-1084.25
 20
3499.5
 10
-1084.25
 20
3537.501
 42
-0.414214
 10
-1083.501
 20
3538.25
  0
LWPOLYLINE
  5
8C
100
AcDbEntity
  8
SPKONTUR
100
AcDbPolyline
 90
       28
 70
     1
 43
0.0
 10
-1083.5
 20
3539.0
 42
-0.414214
 10
-1082.0
 20
3537.5
 10
-1082.0
 20
3533.0
 42
0.414214
 10
-1080.5
 20
3531.5
 10
-1078.5
 20
3531.5
 42
0.414214
 10
-1077.0
 20
3533.0
 42
0.198912
 10
-1077.43934
 20
3534.06066
 10
-1078.12132
 20
3534.742641
 42
-0.198912
 10
-1079.0
 20
3536.863961
 10
-1079.0
 20
3537.0
 42
-0.414214
 10
-1076.0
 20
3540.0
 10
-1073.5
 20
3540.0
 42
0.414214
 10
-1072.0
 20
3541.5
 10
-1072.0
 20
3542.0
 42
-0.414214
 10
-1069.0
 20
3545.0
 10
-1037.5
 20
3545.0
 42
-0.414214
 10
-1035.0
 20
3542.5
 10
-1035.0
 20
3497.5
 42
-0.414214
 10
-1037.5
 20
3495.0
 10
-1103.501
 20
3495.0
 42
-0.414214
 10
-1105.0
 20
3496.499
 10
-1105.0
 20
3496.5
 42
-0.414214
 10
-1103.5
 20
3498.0
 10
-1086.5
 20
3498.0
 42
0.414214
 10
-1085.0
 20
3499.5
 10
-1085.0
 20
3531.5
 10
-1085.0
 20
3537.501
 42
-0.414214
 10
-1083.501
 20
3539.0
  0
TEXT
  5
8E
100
AcDbEntity
  8
TEXT
100
AcDbText
 10
-1074.828571
 20
3513.0
 30
0.0
 40
5.0
  1
%%USP 35011
 41
0.8
  7
ROMANS
 72
     1
 11
-1060.0
 21
3513.0
 31
0.0
100
AcDbText
  0
LWPOLYLINE
  5
8F
100
AcDbEntity
  8
STALPROFIL
100
AcDbPolyline
 90
       22
 70
     1
 43
1.8
 10
-1087.5
 20
3401.885281
 10
-1087.5
 20
3401.9
 42
-0.414214
 10
-1085.9
 20
3403.5
 10
-1083.8
 20
3403.5
 42
0.414214
 10
-1081.1
 20
3406.2
 10
-1081.1
 20
3406.4
 42
-0.414214
 10
-1078.4
 20
3409.1
 10
-1046.8
 20
3409.1
 42
-0.414214
 10
-1045.9
 20
3408.2
 10
-1045.9
 20
3391.8
 42
-0.414214
 10
-1046.8
 20
3390.9
 10
-1093.2
 20
3390.9
 42
-0.414214
 10
-1094.1
 20
3391.8
 10
-1094.1
 20
3402.1
 42
-0.414214
 10
-1093.199
 20
3403.0
 42
-0.414214
 10
-1092.3
 20
3402.101
 10
-1092.3
 20
3397.4
 42
0.414214
 10
-1089.6
 20
3394.7
 10
-1088.2
 20
3394.7
 42
0.414214
 10
-1085.5
 20
3397.4
 42
0.198912
 10
-1086.642284
 20
3400.157716
 10
-1086.884924
 20
3400.400357
 42
-0.198912
  0
LWPOLYLINE
  5
90
100
AcDbEntity
  8
SPKONTUR
100
AcDbPolyline
 90
       25
 70
     0
 43
0.0
 10
-1088.4
 20
3401.9
 10
-1088.4
 20
3401.885281
 10
-1088.4
 20
3401.9
 42
-0.414214
 10
-1085.9
 20
3404.4
 10
-1083.8
 20
3404.4
 42
0.414214
 10
-1082.0
 20
3406.2
 10
-1082.0
 20
3406.4
 42
-0.414214
 10
-1078.4
 20
3410.0
 10
-1046.8
 20
3410.0
 42
-0.414214
 10
-1045.0
 20
3408.2
 10
-1045.0
 20
3391.8
 42
-0.414214
 10
-1046.8
 20
3390.0
 10
-1093.2
 20
3390.0
 42
-0.414214
 10
-1095.0
 20
3391.8
 10
-1095.0
 20
3402.1
 42
-0.414214
 10
-1093.2
 20
3403.9
 10
-1093.199
 20
3403.9
 42
-0.414214
 10
-1091.4
 20
3402.101
 10
-1091.4
 20
3397.4
 42
0.414214
 10
-1089.6
 20
3395.6
 10
-1088.2
 20
3395.6
 42
0.414214
 10
-1086.4
 20
3397.4
 42
0.198912
 10
-1087.27868
 20
3399.52132
 10
-1087.52132
 20
3399.763961
 42
-0.198912
 10
-1088.4
 20
3401.885281
  0
INSERT
  5
91
100
AcDbEntity
  8
GLAS_MED_FOGNING
100
AcDbBlockReference
  2
*X5
 10
-1070.0
 20
3410.0
 30
0.0
 50
90.0
1001
ACAD
1000
HATCH
1002
{
1070
    16
1000
DASH
1040
25.0
1040
2.007129
1002
}
  0
DIMENSION
  5
B4
100
AcDbEntity
  8
DIMENSION
100
AcDbDimension
  2
*D26
 10
-1045.0
 20
3425.0
 30
0.0
 11
-1070.0
 21
3429.0
 31
0.0
 70
    32
  3
STANDARD
100
AcDbAlignedDimension
 13
-1095.0
 23
3410.0
 33
0.0
 14
-1045.0
 24
3410.0
 34
0.0
100
AcDbRotatedDimension
1001
ACAD
1000
DSTYLE
1002
{
1070
   270
1070
     8
1070
    41
1040
2.5
1070
    42
1040
0.625
1070
    43
1040
3.75
1070
    44
1040
1.25
1070
    73
1070
     0
1070
    74
1070
     0
1070
    77
1070
     1
1070
    78
1070
     8
1070
   140
1040
4.0
1070
   141
1040
2.5
1070
   143
1040
0.0394
1070
   147
1040
2.0
1070
   171
1070
     4
1070
   172
1070
     1
1070
   178
1070
     6
1070
   273
1070
     8
1070
   274
1070
     4
1070
   277
1070
     6
1070
   340
1005
1C
1002
}
  0
LWPOLYLINE
  5
C1
100
AcDbEntity
  8
STALPROFIL
100
AcDbPolyline
 90
        8
 70
     1
 43
1.8
 10
-1093.2
 20
3360.9
 42
-0.414214
 10
-1094.1
 20
3361.8
 10
-1094.1
 20
3378.2
 42
-0.414214
 10
-1093.2
 20
3379.1
 10
-1046.8
 20
3379.1
 42
-0.414214
 10
-1045.9
 20
3378.2
 10
-1045.9
 20
3361.8
 42
-0.414214
 10
-1046.8
 20
3360.9
  0
LWPOLYLINE
  5
C2
100
AcDbEntity
  8
SPKONTUR
100
AcDbPolyline
 90
        8
 70
     1
 43
0.0
 10
-1093.2
 20
3360.0
 42
-0.414214
 10
-1095.0
 20
3361.8
 10
-1095.0
 20
3378.2
 42
-0.414214
 10
-1093.2
 20
3380.0
 10
-1046.8
 20
3380.0
 42
-0.414214
 10
-1045.0
 20
3378.2
 10
-1045.0
 20
3361.8
 42
-0.414214
 10
-1046.8
 20
3360.0
  0
INSERT
  5
C3
100
AcDbEntity
  8
0
100
AcDbBlockReference
  2
SP41520
 10
-1070.0
 20
3395.0
 30
0.0
 50
270.0
  0
INSERT
  5
DF
100
AcDbEntity
  8
0
100
AcDbBlockReference
  2
SP41520
 10
-1070.0
 20
3375.0
 30
0.0
 41
-1.0
 50
270.0
  0
DIMENSION
  5
E0
100
AcDbEntity
  8
DIMENSION
100
AcDbDimension
  2
*D27
 10
-1035.0
 20
3475.0
 30
0.0
 11
-1070.0
 21
3479.0
 31
0.0
 70
    32
  3
STANDARD
100
AcDbAlignedDimension
 13
-1105.0
 23
3495.0
 33
0.0
 14
-1035.0
 24
3495.0
 34
0.0
100
AcDbRotatedDimension
1001
ACAD
1000
DSTYLE
1002
{
1070
   270
1070
     8
1070
    41
1040
2.5
1070
    42
1040
0.625
1070
    43
1040
3.75
1070
    44
1040
1.25
1070
    73
1070
     0
1070
    74
1070
     0
1070
    77
1070
     1
1070
    78
1070
     8
1070
   140
1040
4.0
1070
   141
1040
2.5
1070
   143
1040
0.0394
1070
   147
1040
2.0
1070
   171
1070
     4
1070
   172
1070
     1
1070
   178
1070
     6
1070
   273
1070
     8
1070
   274
1070
     4
1070
   277
1070
     6
1070
   340
1005
1C
1002
}
  0
LWPOLYLINE
  5
ED
100
AcDbEntity
  8
GLAS_MED_FOGNING
100
AcDbPolyline
 90
        4
 70
     0
 43
0.0
 10
-1093.2
 20
3390.0
 10
-1095.0
 20
3390.0
 10
-1095.0
 20
3380.0
 10
-1093.2
 20
3380.0
  0
LWPOLYLINE
  5
EE
100
AcDbEntity
  8
CENTRUM
100
AcDbPolyline
 90
        4
 70
     0
 43
0.0
 10
-1002.5
 20
3491.148262
 10
-1002.5
 20
3532.0
 10
-1002.5
 20
3538.0
 10
-1002.5
 20
3547.0
  0
INSERT
  5
EF
100
AcDbEntity
  8
0
100
AcDbBlockReference
  2
SP41520
 10
-1060.0
 20
3510.0
 30
0.0
 41
-1.0
 50
270.0
  0
ARC
  5
F0
100
AcDbEntity
  8
GLAS_MED_FOGNING
100
AcDbCircle
 10
-1018.648503
 20
3395.903428
 30
0.0
 40
6.413645
100
AcDbArc
 50
177.525057
 51
266.355723
  0
ARC
  5
F1
100
AcDbEntity
  8
GLAS_MED_FOGNING
100
AcDbCircle
 10
-1018.648503
 20
3373.18832
 30
0.0
 40
6.413645
100
AcDbArc
 50
93.644277
 51
182.474943
  0
LINE
  5
F2
100
AcDbEntity
  8
GLAS_MED_FOGNING
100
AcDbLine
 10
-1012.5
 20
3379.522938
 30
0.0
 11
-1021.0
 21
3379.522938
 31
0.0
  0
LINE
  5
F3
100
AcDbEntity
  8
GLAS_MED_FOGNING
100
AcDbLine
 10
-1012.5
 20
3389.568811
 30
0.0
 11
-1021.0
 21
3389.568811
 31
0.0
  0
DIMENSION
  5
F4
100
AcDbEntity
  8
DIMENSION
100
AcDbDimension
  2
*D28
 10
-1025.0
 20
3425.0
 30
0.0
 11
-1035.0
 21
3429.0
 31
0.0
 70
    32
  3
STANDARD
100
AcDbAlignedDimension
 13
-1045.0
 23
3410.0
 33
0.0
 14
-1025.0
 24
3410.0
 34
0.0
100
AcDbRotatedDimension
1001
ACAD
1000
DSTYLE
1002
{
1070
   270
1070
     8
1070
    41
1040
2.5
1070
    42
1040
0.625
1070
    43
1040
3.75
1070
    44
1040
1.25
1070
    73
1070
     0
1070
    74
1070
     0
1070
    77
1070
     1
1070
    78
1070
     8
1070
   140
1040
4.0
1070
   141
1040
2.5
1070
   143
1040
0.0394
1070
   147
1040
2.0
1070
   171
1070
     4
1070
   172
1070
     1
1070
   178
1070
     6
1070
   273
1070
     8
1070
   274
1070
     4
1070
   277
1070
     6
1070
   340
1005
1C
1002
}
  0
INSERT
  5
101
100
AcDbEntity
  8
GLAS_MED_FOGNING
100
AcDbBlockReference
  2
*X2
 10
-1070.0
 20
3332.533941
 30
0.0
 50
270.0
1001
ACAD
1000
HATCH
1002
{
1070
    16
1000
AR-SAND
1040
2.0
1040
0.0
1002
}
  0
LINE
  5
117
100
AcDbEntity
  8
GLAS_MED_FOGNING
100
AcDbLine
 10
-1021.0
 20
3379.522938
 30
0.0
 11
-1040.0
 21
3379.522938
 31
0.0
  0
LINE
  5
118
100
AcDbEntity
  8
GLAS_MED_FOGNING
100
AcDbLine
 10
-1021.0
 20
3389.568811
 30
0.0
 11
-1040.0
 21
3389.568811
 31
0.0
  0
LWPOLYLINE
  5
119
100
AcDbEntity
  8
GLAS_MED_FOGNING
100
AcDbPolyline
 90
        4
 70
     0
 43
0.0
 10
-1046.8
 20
3390.0
 10
-1045.0
 20
3390.0
 10
-1045.0
 20
3380.0
 10
-1046.8
 20
3380.0
  0
INSERT
  5
11A
100
AcDbEntity
  8
GLAS_MED_FOGNING
100
AcDbBlockReference
  2
*X3
 10
-1070.0
 20
3347.0
 30
0.0
 50
270.0
1001
ACAD
1000
HATCH
1002
{
1070
    16
1000
AR-SAND
1040
2.0
1040
0.0
1002
}
  0
LINE
  5
143
100
AcDbEntity
  8
GLAS_MED_FOGNING
100
AcDbLine
 10
-1039.0
 20
3374.522938
 30
0.0
 11
-1039.0
 21
3379.522938
 31
0.0
  0
LINE
  5
144
100
AcDbEntity
  8
GLAS_MED_FOGNING
100
AcDbLine
 10
-1037.0
 20
3374.522938
 30
0.0
 11
-1037.0
 21
3379.522938
 31
0.0
  0
LINE
  5
145
100
AcDbEntity
  8
GLAS_MED_FOGNING
100
AcDbLine
 10
-1038.0
 20
3374.522938
 30
0.0
 11
-1038.0
 21
3379.522938
 31
0.0
  0
LINE
  5
146
100
AcDbEntity
  8
GLAS_MED_FOGNING
100
AcDbLine
 10
-1039.0
 20
3389.568811
 30
0.0
 11
-1039.0
 21
3395.568811
 31
0.0
  0
LINE
  5
147
100
AcDbEntity
  8
GLAS_MED_FOGNING
100
AcDbLine
 10
-1037.0
 20
3389.568811
 30
0.0
 11
-1037.0
 21
3395.568811
 31
0.0
  0
LINE
  5
148
100
AcDbEntity
  8
GLAS_MED_FOGNING
100
AcDbLine
 10
-1038.0
 20
3389.568811
 30
0.0
 11
-1038.0
 21
3395.568811
 31
0.0
  0
LINE
  5
149
100
AcDbEntity
  8
GLAS_MED_FOGNING
100
AcDbLine
 10
-1040.0
 20
3379.522938
 30
0.0
 11
-1040.0
 21
3389.568811
 31
0.0
  0
HATCH
  5
14A
100
AcDbEntity
  8
GLAS_MED_FOGNING
100
AcDbHatch
 10
0.0
 20
0.0
 30
0.0
210
0.0
220
0.0
230
1.0
  2
AR-SAND
 70
     0
 71
     0
 91
        1
 92
        7
 72
     1
 73
     1
 93
       10
 10
-1024.67558309509
 20
3375.729708513351
 42
0.0
 10
-1024.98453395839
 20
3374.288996633213
 42
0.0
 10
-1029.0
 20
3374.288996633213
 42
0.0
 10
-1029.0
 20
3379.540502912076
 42
0.0
 10
-1019.856480421003
 20
3379.540502912076
 42
0.0
 10
-1020.237842039536
 20
3379.436562692331
 42
0.0
 10
-1020.541481295845
 20
3379.316246359808
 42
0.0388476704749722
 10
-1021.466618226
 20
3378.949663053453
 42
0.0
 10
-1022.248691525783
 20
3378.639768370081
 42
0.0
 10
-1023.774158581793
 20
3377.254023851968
 42
0.0
 97
        0
 75
     0
 76
     1
 52
0.0
 41
1.0
 77
     0
 78
     4
 53
322.5
 43
1880.0
 44
5917.288997
 45
-0.0629933581096082
 46
-1.926823769013158
 79
     6
 49
0.0
 49
-1.52
 49
0.0
 49
-1.7
 49
0.0
 49
-1.625
 53
352.5
 43
1880.0
 44
5917.288997
 45
1.769776705267727
 46
-2.82214606522974
 79
     6
 49
0.0
 49
-0.82
 49
0.0
 49
-1.37
 49
0.0
 49
-0.525
 53
32.5
 43
1878.77
 44
5917.288997
 45
3.114141861751495
 46
-0.0056590535369645
 79
     6
 49
0.0
 49
-0.5
 49
0.0
 49
-1.8
 49
0.0
 49
-2.35
 53
42.5
 43
1878.77
 44
5917.288997
 45
3.006126604572293
 46
-0.877675564934249
 79
     6
 49
0.0
 49
-0.25
 49
0.0
 49
-1.18
 49
0.0
 49
-1.35
 47
0.034644
 98
        1
 10
-1027.726517
 20
3377.150096
  0
HATCH
  5
14B
100
AcDbEntity
  8
GLAS_MED_FOGNING
100
AcDbHatch
 10
0.0
 20
0.0
 30
0.0
210
0.0
220
0.0
230
1.0
  2
AR-SAND
 70
     0
 71
     0
 91
        1
 92
        7
 72
     1
 73
     1
 93
       10
 10
-1024.67558309509
 20
3393.362040131281
 42
0.0
 10
-1024.98453395839
 20
3394.802752011419
 42
0.0
 10
-1029.0
 20
3394.802752011419
 42
0.0
 10
-1029.0
 20
3389.551245732556
 42
0.0
 10
-1019.856480421003
 20
3389.551245732556
 42
0.0
 10
-1020.237842039536
 20
3389.655185952301
 42
0.0
 10
-1020.541481295845
 20
3389.775502284823
 42
-0.0388476704749722
 10
-1021.466618226
 20
3390.142085591179
 42
0.0
 10
-1022.248691525783
 20
3390.451980274551
 42
0.0
 10
-1023.774158581793
 20
3391.837724792664
 42
0.0
 97
        0
 75
     0
 76
     1
 52
0.0
 41
1.0
 77
     0
 78
     4
 53
37.5
 43
1880.0
 44
851.802752
 45
-0.0629933581096082
 46
1.926823769013158
 79
     6
 49
0.0
 49
-1.52
 49
0.0
 49
-1.7
 49
0.0
 49
-1.625
 53
7.5
 43
1880.0
 44
851.802752
 45
1.769776705267727
 46
2.82214606522974
 79
     6
 49
0.0
 49
-0.82
 49
0.0
 49
-1.37
 49
0.0
 49
-0.525
 53
327.5
 43
1878.77
 44
851.802752
 45
3.114141861751495
 46
0.0056590535369645
 79
     6
 49
0.0
 49
-0.5
 49
0.0
 49
-1.8
 49
0.0
 49
-2.35
 53
317.5
 43
1878.77
 44
851.802752
 45
3.006126604572293
 46
0.877675564934249
 79
     6
 49
0.0
 49
-0.25
 49
0.0
 49
-1.18
 49
0.0
 49
-1.35
 47
0.034644
 98
        1
 10
-1027.726517
 20
3391.941653
  0
LINE
  5
14C
100
AcDbEntity
  8
GLAS_MED_FOGNING
100
AcDbLine
 10
-1029.0
 20
3374.522938
 30
0.0
 11
-1029.0
 21
3379.522938
 31
0.0
  0
LINE
  5
14D
100
AcDbEntity
  8
GLAS_MED_FOGNING
100
AcDbLine
 10
-1030.0
 20
3374.522938
 30
0.0
 11
-1030.0
 21
3379.522938
 31
0.0
  0
LINE
  5
14E
100
AcDbEntity
  8
GLAS_MED_FOGNING
100
AcDbLine
 10
-1031.0
 20
3374.522938
 30
0.0
 11
-1031.0
 21
3379.522938
 31
0.0
  0
LINE
  5
14F
100
AcDbEntity
  8
GLAS_MED_FOGNING
100
AcDbLine
 10
-1029.0
 20
3389.568811
 30
0.0
 11
-1029.0
 21
3395.568811
 31
0.0
  0
LINE
  5
150
100
AcDbEntity
  8
GLAS_MED_FOGNING
100
AcDbLine
 10
-1031.0
 20
3389.568811
 30
0.0
 11
-1031.0
 21
3395.568811
 31
0.0
  0
LINE
  5
151
100
AcDbEntity
  8
GLAS_MED_FOGNING
100
AcDbLine
 10
-1030.0
 20
3389.568811
 30
0.0
 11
-1030.0
 21
3395.568811
 31
0.0
  0
LINE
  5
152
100
AcDbEntity
  8
GLAS_MED_FOGNING
100
AcDbLine
 10
-1032.0
 20
3374.522938
 30
0.0
 11
-1032.0
 21
3379.522938
 31
0.0
  0
LINE
  5
153
100
AcDbEntity
  8
GLAS_MED_FOGNING
100
AcDbLine
 10
-1033.0
 20
3374.522938
 30
0.0
 11
-1033.0
 21
3379.522938
 31
0.0
  0
LINE
  5
154
100
AcDbEntity
  8
GLAS_MED_FOGNING
100
AcDbLine
 10
-1034.0
 20
3374.522938
 30
0.0
 11
-1034.0
 21
3379.522938
 31
0.0
  0
LINE
  5
155
100
AcDbEntity
  8
GLAS_MED_FOGNING
100
AcDbLine
 10
-1035.0
 20
3374.522938
 30
0.0
 11
-1035.0
 21
3379.522938
 31
0.0
  0
LINE
  5
156
100
AcDbEntity
  8
GLAS_MED_FOGNING
100
AcDbLine
 10
-1036.0
 20
3374.522938
 30
0.0
 11
-1036.0
 21
3379.522938
 31
0.0
  0
LINE
  5
157
100
AcDbEntity
  8
GLAS_MED_FOGNING
100
AcDbLine
 10
-1032.0
 20
3389.568811
 30
0.0
 11
-1032.0
 21
3395.568811
 31
0.0
  0
LINE
  5
158
100
AcDbEntity
  8
GLAS_MED_FOGNING
100
AcDbLine
 10
-1033.0
 20
3389.568811
 30
0.0
 11
-1033.0
 21
3395.568811
 31
0.0
  0
LINE
  5
159
100
AcDbEntity
  8
GLAS_MED_FOGNING
100
AcDbLine
 10
-1034.0
 20
3389.568811
 30
0.0
 11
-1034.0
 21
3395.568811
 31
0.0
  0
LINE
  5
15A
100
AcDbEntity
  8
GLAS_MED_FOGNING
100
AcDbLine
 10
-1035.0
 20
3389.568811
 30
0.0
 11
-1035.0
 21
3395.568811
 31
0.0
  0
LINE
  5
15B
100
AcDbEntity
  8
GLAS_MED_FOGNING
100
AcDbLine
 10
-1036.0
 20
3389.568811
 30
0.0
 11
-1036.0
 21
3395.568811
 31
0.0
  0
LWPOLYLINE
  5
15C
100
AcDbEntity
  8
CENTRUM
100
AcDbPolyline
 90
        4
 70
     0
 43
0.0
 10
-1012.5
 20
3356.148262
 10
-1012.5
 20
3397.0
 10
-1012.5
 20
3403.0
 10
-1012.5
 20
3412.0
  0
LINE
  5
15D
100
AcDbEntity
  8
GLAS_MED_FOGNING
100
AcDbLine
 10
-1011.0
 20
3524.568811
 30
0.0
 11
-1030.0
 21
3524.568811
 31
0.0
  0
LINE
  5
15E
100
AcDbEntity
  8
GLAS_MED_FOGNING
100
AcDbLine
 10
-1011.0
 20
3514.522938
 30
0.0
 11
-1030.0
 21
3514.522938
 31
0.0
  0
DIMENSION
  5
15F
100
AcDbEntity
  8
DIMENSION
100
AcDbDimension
  2
*D29
 10
-1015.0
 20
3560.0
 30
0.0
 11
-1025.0
 21
3564.0
 31
0.0
 70
    32
  3
STANDARD
100
AcDbAlignedDimension
 13
-1035.0
 23
3545.0
 33
0.0
 14
-1015.0
 24
3545.0
 34
0.0
100
AcDbRotatedDimension
1001
ACAD
1000
DSTYLE
1002
{
1070
   270
1070
     8
1070
    41
1040
2.5
1070
    42
1040
0.625
1070
    43
1040
3.75
1070
    44
1040
1.25
1070
    73
1070
     0
1070
    74
1070
     0
1070
    77
1070
     1
1070
    78
1070
     8
1070
   140
1040
4.0
1070
   141
1040
2.5
1070
   143
1040
0.0394
1070
   147
1040
2.0
1070
   171
1070
     4
1070
   172
1070
     1
1070
   178
1070
     6
1070
   273
1070
     8
1070
   274
1070
     4
1070
   277
1070
     6
1070
   340
1005
1C
1002
}
  0
INSERT
  5
16C
100
AcDbEntity
  8
0
100
AcDbBlockReference
  2
SP41520
 10
-1060.0
 20
3530.0
 30
0.0
 50
270.0
  0
INSERT
  5
16D
100
AcDbEntity
  8
GLAS_MED_FOGNING
100
AcDbBlockReference
  2
*X2
 10
-1060.0
 20
3467.533941
 30
0.0
 50
270.0
1001
ACAD
1000
HATCH
1002
{
1070
    16
1000
AR-SAND
1040
2.0
1040
0.0
1002
}
  0
LINE
  5
16E
100
AcDbEntity
  8
GLAS_MED_FOGNING
100
AcDbLine
 10
-1030.0
 20
3514.522938
 30
0.0
 11
-1030.0
 21
3524.568811
 31
0.0
  0
LINE
  5
16F
100
AcDbEntity
  8
GLAS_MED_FOGNING
100
AcDbLine
 10
-1028.0
 20
3524.568811
 30
0.0
 11
-1028.0
 21
3530.568811
 31
0.0
  0
LINE
  5
170
100
AcDbEntity
  8
GLAS_MED_FOGNING
100
AcDbLine
 10
-1026.0
 20
3524.568811
 30
0.0
 11
-1026.0
 21
3530.568811
 31
0.0
  0
LINE
  5
171
100
AcDbEntity
  8
GLAS_MED_FOGNING
100
AcDbLine
 10
-1027.0
 20
3524.568811
 30
0.0
 11
-1027.0
 21
3530.568811
 31
0.0
  0
LINE
  5
172
100
AcDbEntity
  8
GLAS_MED_FOGNING
100
AcDbLine
 10
-1025.0
 20
3524.568811
 30
0.0
 11
-1025.0
 21
3530.568811
 31
0.0
  0
LINE
  5
173
100
AcDbEntity
  8
GLAS_MED_FOGNING
100
AcDbLine
 10
-1024.0
 20
3524.568811
 30
0.0
 11
-1024.0
 21
3530.568811
 31
0.0
  0
LINE
  5
174
100
AcDbEntity
  8
GLAS_MED_FOGNING
100
AcDbLine
 10
-1023.0
 20
3524.568811
 30
0.0
 11
-1023.0
 21
3530.568811
 31
0.0
  0
LINE
  5
175
100
AcDbEntity
  8
GLAS_MED_FOGNING
100
AcDbLine
 10
-1029.0
 20
3524.568811
 30
0.0
 11
-1029.0
 21
3530.568811
 31
0.0
  0
LINE
  5
176
100
AcDbEntity
  8
GLAS_MED_FOGNING
100
AcDbLine
 10
-1022.0
 20
3524.568811
 30
0.0
 11
-1022.0
 21
3530.568811
 31
0.0
  0
LINE
  5
177
100
AcDbEntity
  8
GLAS_MED_FOGNING
100
AcDbLine
 10
-1021.0
 20
3524.568811
 30
0.0
 11
-1021.0
 21
3530.568811
 31
0.0
  0
LINE
  5
178
100
AcDbEntity
  8
GLAS_MED_FOGNING
100
AcDbLine
 10
-1028.0
 20
3509.522938
 30
0.0
 11
-1028.0
 21
3514.522938
 31
0.0
  0
LINE
  5
179
100
AcDbEntity
  8
GLAS_MED_FOGNING
100
AcDbLine
 10
-1027.0
 20
3509.522938
 30
0.0
 11
-1027.0
 21
3514.522938
 31
0.0
  0
LINE
  5
17A
100
AcDbEntity
  8
GLAS_MED_FOGNING
100
AcDbLine
 10
-1026.0
 20
3509.522938
 30
0.0
 11
-1026.0
 21
3514.522938
 31
0.0
  0
LINE
  5
17B
100
AcDbEntity
  8
GLAS_MED_FOGNING
100
AcDbLine
 10
-1025.0
 20
3509.522938
 30
0.0
 11
-1025.0
 21
3514.522938
 31
0.0
  0
LINE
  5
17C
100
AcDbEntity
  8
GLAS_MED_FOGNING
100
AcDbLine
 10
-1024.0
 20
3509.522938
 30
0.0
 11
-1024.0
 21
3514.522938
 31
0.0
  0
LINE
  5
17D
100
AcDbEntity
  8
GLAS_MED_FOGNING
100
AcDbLine
 10
-1023.0
 20
3509.522938
 30
0.0
 11
-1023.0
 21
3514.522938
 31
0.0
  0
LINE
  5
17E
100
AcDbEntity
  8
GLAS_MED_FOGNING
100
AcDbLine
 10
-1029.0
 20
3509.522938
 30
0.0
 11
-1029.0
 21
3514.522938
 31
0.0
  0
LINE
  5
17F
100
AcDbEntity
  8
GLAS_MED_FOGNING
100
AcDbLine
 10
-1022.0
 20
3509.522938
 30
0.0
 11
-1022.0
 21
3514.522938
 31
0.0
  0
LINE
  5
180
100
AcDbEntity
  8
GLAS_MED_FOGNING
100
AcDbLine
 10
-1021.0
 20
3509.522938
 30
0.0
 11
-1021.0
 21
3514.522938
 31
0.0
  0
INSERT
  5
181
100
AcDbEntity
  8
GLAS_MED_FOGNING
100
AcDbBlockReference
  2
*X3
 10
-1060.0
 20
3482.0
 30
0.0
 50
270.0
1001
ACAD
1000
HATCH
1002
{
1070
    16
1000
AR-SAND
1040
2.0
1040
0.0
1002
}
  0
LINE
  5
182
100
AcDbEntity
  8
GLAS_MED_FOGNING
100
AcDbLine
 10
-1002.5
 20
3524.568811
 30
0.0
 11
-1011.0
 21
3524.568811
 31
0.0
  0
LINE
  5
183
100
AcDbEntity
  8
GLAS_MED_FOGNING
100
AcDbLine
 10
-1002.5
 20
3514.522938
 30
0.0
 11
-1011.0
 21
3514.522938
 31
0.0
  0
ARC
  5
184
100
AcDbEntity
  8
GLAS_MED_FOGNING
100
AcDbCircle
 10
-1008.648503
 20
3508.18832
 30
0.0
 40
6.413645
100
AcDbArc
 50
93.644277
 51
182.474943
  0
LINE
  5
185
100
AcDbEntity
  8
GLAS_MED_FOGNING
100
AcDbLine
 10
-1020.0
 20
3524.568811
 30
0.0
 11
-1020.0
 21
3530.568811
 31
0.0
  0
LINE
  5
186
100
AcDbEntity
  8
GLAS_MED_FOGNING
100
AcDbLine
 10
-1019.0
 20
3524.568811
 30
0.0
 11
-1019.0
 21
3530.568811
 31
0.0
  0
LINE
  5
187
100
AcDbEntity
  8
GLAS_MED_FOGNING
100
AcDbLine
 10
-1020.0
 20
3509.522938
 30
0.0
 11
-1020.0
 21
3514.522938
 31
0.0
  0
LINE
  5
188
100
AcDbEntity
  8
GLAS_MED_FOGNING
100
AcDbLine
 10
-1019.0
 20
3509.522938
 30
0.0
 11
-1019.0
 21
3514.522938
 31
0.0
  0
HATCH
  5
189
100
AcDbEntity
  8
GLAS_MED_FOGNING
100
AcDbHatch
 10
0.0
 20
0.0
 30
0.0
210
0.0
220
0.0
230
1.0
  2
AR-SAND
 70
     0
 71
     0
 91
        1
 92
        7
 72
     1
 73
     1
 93
       10
 10
-1014.67558309509
 20
3528.36204013128
 42
0.0
 10
-1014.98453395839
 20
3529.802752011419
 42
0.0
 10
-1018.999999999999
 20
3529.802752011419
 42
0.0
 10
-1018.999999999999
 20
3524.551245732556
 42
0.0
 10
-1009.856480421003
 20
3524.551245732556
 42
0.0
 10
-1010.237842039536
 20
3524.655185952301
 42
0.0
 10
-1010.541481295845
 20
3524.775502284823
 42
-0.0388476704749722
 10
-1011.466618226
 20
3525.142085591179
 42
0.0
 10
-1012.248691525783
 20
3525.45198027455
 42
0.0
 10
-1013.774158581793
 20
3526.837724792664
 42
0.0
 97
        0
 75
     0
 76
     1
 52
0.0
 41
1.0
 77
     0
 78
     4
 53
37.5
 43
1890.0
 44
986.802752
 45
-0.0629933581096082
 46
1.926823769013158
 79
     6
 49
0.0
 49
-1.52
 49
0.0
 49
-1.7
 49
0.0
 49
-1.625
 53
7.5
 43
1890.0
 44
986.802752
 45
1.769776705267727
 46
2.82214606522974
 79
     6
 49
0.0
 49
-0.82
 49
0.0
 49
-1.37
 49
0.0
 49
-0.525
 53
327.5
 43
1888.77
 44
986.802752
 45
3.114141861751495
 46
0.0056590535369645
 79
     6
 49
0.0
 49
-0.5
 49
0.0
 49
-1.8
 49
0.0
 49
-2.35
 53
317.5
 43
1888.77
 44
986.802752
 45
3.006126604572293
 46
0.877675564934249
 79
     6
 49
0.0
 49
-0.25
 49
0.0
 49
-1.18
 49
0.0
 49
-1.35
 47
0.034644
 98
        1
 10
-1017.726517
 20
3526.941653
  0
HATCH
  5
18A
100
AcDbEntity
  8
GLAS_MED_FOGNING
100
AcDbHatch
 10
0.0
 20
0.0
 30
0.0
210
0.0
220
0.0
230
1.0
  2
AR-SAND
 70
     0
 71
     0
 91
        1
 92
        7
 72
     1
 73
     1
 93
       10
 10
-1014.67558309509
 20
3510.729708513351
 42
0.0
 10
-1014.98453395839
 20
3509.288996633213
 42
0.0
 10
-1018.999999999999
 20
3509.288996633213
 42
0.0
 10
-1018.999999999999
 20
3514.540502912076
 42
0.0
 10
-1009.856480421003
 20
3514.540502912076
 42
0.0
 10
-1010.237842039536
 20
3514.436562692331
 42
0.0
 10
-1010.541481295845
 20
3514.316246359808
 42
0.0388476704749722
 10
-1011.466618226
 20
3513.949663053454
 42
0.0
 10
-1012.248691525783
 20
3513.639768370081
 42
0.0
 10
-1013.774158581793
 20
3512.254023851968
 42
0.0
 97
        0
 75
     0
 76
     1
 52
0.0
 41
1.0
 77
     0
 78
     4
 53
322.5
 43
1890.0
 44
6052.288997
 45
-0.0629933581096082
 46
-1.926823769013158
 79
     6
 49
0.0
 49
-1.52
 49
0.0
 49
-1.7
 49
0.0
 49
-1.625
 53
352.5
 43
1890.0
 44
6052.288997
 45
1.769776705267727
 46
-2.82214606522974
 79
     6
 49
0.0
 49
-0.82
 49
0.0
 49
-1.37
 49
0.0
 49
-0.525
 53
32.5
 43
1888.77
 44
6052.288997
 45
3.114141861751495
 46
-0.0056590535369645
 79
     6
 49
0.0
 49
-0.5
 49
0.0
 49
-1.8
 49
0.0
 49
-2.35
 53
42.5
 43
1888.77
 44
6052.288997
 45
3.006126604572293
 46
-0.877675564934249
 79
     6
 49
0.0
 49
-0.25
 49
0.0
 49
-1.18
 49
0.0
 49
-1.35
 47
0.034644
 98
        1
 10
-1017.726517
 20
3512.150096
  0
ARC
  5
18B
100
AcDbEntity
  8
GLAS_MED_FOGNING
100
AcDbCircle
 10
-1008.648503
 20
3530.903428
 30
0.0
 40
6.413645
100
AcDbArc
 50
177.525057
 51
266.355723
  0
DIMENSION
  5
18C
100
AcDbEntity
  8
DIMENSION
100
AcDbDimension
  2
*D30
 10
-905.0
 20
3340.0
 30
0.0
 11
-940.0
 21
3344.0
 31
0.0
 70
    32
  3
STANDARD
100
AcDbAlignedDimension
 13
-975.0
 23
3360.0
 33
0.0
 14
-905.0
 24
3360.0
 34
0.0
100
AcDbRotatedDimension
1001
ACAD
1000
DSTYLE
1002
{
1070
   270
1070
     8
1070
    41
1040
2.5
1070
    42
1040
0.625
1070
    43
1040
3.75
1070
    44
1040
1.25
1070
    73
1070
     0
1070
    74
1070
     0
1070
    77
1070
     1
1070
    78
1070
     8
1070
   140
1040
4.0
1070
   141
1040
2.5
1070
   143
1040
0.0394
1070
   147
1040
2.0
1070
   171
1070
     4
1070
   172
1070
     1
1070
   178
1070
     6
1070
   273
1070
     8
1070
   274
1070
     4
1070
   277
1070
     6
1070
   340
1005
1C
1002
}
  0
TEXT
  5
199
100
AcDbEntity
  8
TEXT
100
AcDbText
 10
-968.557143
 20
3350.383191
 30
0.0
 40
5.0
  1
%%USP 75021/750/10
 41
0.8
  7
ROMANS
 72
     1
 11
-940.0
 21
3350.383191
 31
0.0
100
AcDbText
  0
TEXT
  5
19A
100
AcDbEntity
  8
TEXT
100
AcDbText
 10
-949.828571
 20
3513.0
 30
0.0
 40
5.0
  1
%%USP 35021
 41
0.8
  7
ROMANS
 72
     1
 11
-935.0
 21
3513.0
 31
0.0
100
AcDbText
  0
LWPOLYLINE
  5
19B
100
AcDbEntity
  8
STALPROFIL
100
AcDbPolyline
 90
       27
 70
     1
 43
1.5
 10
-958.5
 20
3538.25
 42
-0.414214
 10
-957.75
 20
3537.5
 10
-957.75
 20
3533.0
 42
0.414214
 10
-955.5
 20
3530.75
 10
-953.5
 20
3530.75
 42
0.414214
 10
-951.25
 20
3533.0
 42
0.198912
 10
-951.90901
 20
3534.59099
 10
-952.59099
 20
3535.272971
 42
-0.198912
 10
-953.25
 20
3536.863961
 10
-953.25
 20
3537.0
 42
-0.414214
 10
-951.0
 20
3539.25
 10
-948.5
 20
3539.25
 42
0.414214
 10
-946.25
 20
3541.5
 10
-946.25
 20
3542.0
 42
-0.414214
 10
-944.0
 20
3544.25
 10
-912.5
 20
3544.25
 42
-0.414214
 10
-910.75
 20
3542.5
 10
-910.75
 20
3497.5
 42
-0.414214
 10
-912.5
 20
3495.75
 10
-978.501
 20
3495.75
 42
-0.414214
 10
-979.25
 20
3496.499
 10
-979.25
 20
3496.5
 42
-0.414214
 10
-978.5
 20
3497.25
 10
-961.5
 20
3497.25
 42
0.414214
 10
-959.25
 20
3499.5
 10
-959.25
 20
3537.501
 42
-0.414214
 10
-958.501
 20
3538.25
  0
LWPOLYLINE
  5
19C
100
AcDbEntity
  8
SPKONTUR
100
AcDbPolyline
 90
       28
 70
     1
 43
0.0
 10
-958.5
 20
3539.0
 42
-0.414214
 10
-957.0
 20
3537.5
 10
-957.0
 20
3533.0
 42
0.414214
 10
-955.5
 20
3531.5
 10
-953.5
 20
3531.5
 42
0.414214
 10
-952.0
 20
3533.0
 42
0.198912
 10
-952.43934
 20
3534.06066
 10
-953.12132
 20
3534.742641
 42
-0.198912
 10
-954.0
 20
3536.863961
 10
-954.0
 20
3537.0
 42
-0.414214
 10
-951.0
 20
3540.0
 10
-948.5
 20
3540.0
 42
0.414214
 10
-947.0
 20
3541.5
 10
-947.0
 20
3542.0
 42
-0.414214
 10
-944.0
 20
3545.0
 10
-912.5
 20
3545.0
 42
-0.414214
 10
-910.0
 20
3542.5
 10
-910.0
 20
3497.5
 42
-0.414214
 10
-912.5
 20
3495.0
 10
-978.501
 20
3495.0
 42
-0.414214
 10
-980.0
 20
3496.499
 10
-980.0
 20
3496.5
 42
-0.414214
 10
-978.5
 20
3498.0
 10
-961.5
 20
3498.0
 42
0.414214
 10
-960.0
 20
3499.5
 10
-960.0
 20
3531.5
 10
-960.0
 20
3537.501
 42
-0.414214
 10
-958.501
 20
3539.0
  0
DIMENSION
  5
19D
100
AcDbEntity
  8
DIMENSION
100
AcDbDimension
  2
*D31
 10
-910.0
 20
3560.0
 30
0.0
 11
-935.0
 21
3564.0
 31
0.0
 70
    32
  3
STANDARD
100
AcDbAlignedDimension
 13
-960.0
 23
3545.0
 33
0.0
 14
-910.0
 24
3545.0
 34
0.0
100
AcDbRotatedDimension
1001
ACAD
1000
DSTYLE
1002
{
1070
   270
1070
     8
1070
    41
1040
2.5
1070
    42
1040
0.625
1070
    43
1040
3.75
1070
    44
1040
1.25
1070
    73
1070
     0
1070
    74
1070
     0
1070
    77
1070
     1
1070
    78
1070
     8
1070
   140
1040
4.0
1070
   141
1040
2.5
1070
   143
1040
0.0394
1070
   147
1040
2.0
1070
   171
1070
     4
1070
   172
1070
     1
1070
   178
1070
     6
1070
   273
1070
     8
1070
   274
1070
     4
1070
   277
1070
     6
1070
   340
1005
1C
1002
}
  0
DIMENSION
  5
1AA
100
AcDbEntity
  8
DIMENSION
100
AcDbDimension
  2
*D32
 10
-905.0
 20
3425.0
 30
0.0
 11
-930.0
 21
3429.0
 31
0.0
 70
    32
  3
STANDARD
100
AcDbAlignedDimension
 13
-955.0
 23
3410.0
 33
0.0
 14
-905.0
 24
3410.0
 34
0.0
100
AcDbRotatedDimension
1001
ACAD
1000
DSTYLE
1002
{
1070
   270
1070
     8
1070
    41
1040
2.5
1070
    42
1040
0.625
1070
    43
1040
3.75
1070
    44
1040
1.25
1070
    73
1070
     0
1070
    74
1070
     0
1070
    77
1070
     1
1070
    78
1070
     8
1070
   140
1040
4.0
1070
   141
1040
2.5
1070
   143
1040
0.0394
1070
   147
1040
2.0
1070
   171
1070
     4
1070
   172
1070
     1
1070
   178
1070
     6
1070
   273
1070
     8
1070
   274
1070
     4
1070
   277
1070
     6
1070
   340
1005
1C
1002
}
  0
INSERT
  5
1B7
100
AcDbEntity
  8
0
100
AcDbBlockReference
  2
SP75021-750-10
 10
-930.0
 20
3410.0
 30
0.0
 50
90.0
  0
DIMENSION
  5
1C2
100
AcDbEntity
  8
DIMENSION
100
AcDbDimension
  2
*D33
 10
-910.0
 20
3475.0
 30
0.0
 11
-945.0
 21
3479.0
 31
0.0
 70
    32
  3
STANDARD
100
AcDbAlignedDimension
 13
-980.0
 23
3495.0
 33
0.0
 14
-910.0
 24
3495.0
 34
0.0
100
AcDbRotatedDimension
1001
ACAD
1000
DSTYLE
1002
{
1070
   270
1070
     8
1070
    41
1040
2.5
1070
    42
1040
0.625
1070
    43
1040
3.75
1070
    44
1040
1.25
1070
    73
1070
     0
1070
    74
1070
     0
1070
    77
1070
     1
1070
    78
1070
     8
1070
   140
1040
4.0
1070
   141
1040
2.5
1070
   143
1040
0.0394
1070
   147
1040
2.0
1070
   171
1070
     4
1070
   172
1070
     1
1070
   178
1070
     6
1070
   273
1070
     8
1070
   274
1070
     4
1070
   277
1070
     6
1070
   340
1005
1C
1002
}
  0
LWPOLYLINE
  5
1CF
100
AcDbEntity
  8
CENTRUM
100
AcDbPolyline
 90
        4
 70
     0
 43
0.0
 10
-877.5
 20
3491.148262
 10
-877.5
 20
3532.0
 10
-877.5
 20
3538.0
 10
-877.5
 20
3547.0
  0
INSERT
  5
1D0
100
AcDbEntity
  8
0
100
AcDbBlockReference
  2
SP41520
 10
-935.0
 20
3510.0
 30
0.0
 41
-1.0
 50
270.0
  0
LINE
  5
1D1
100
AcDbEntity
  8
GLAS_MED_FOGNING
100
AcDbLine
 10
-881.0
 20
3389.568811
 30
0.0
 11
-900.0
 21
3389.568811
 31
0.0
  0
LINE
  5
1D2
100
AcDbEntity
  8
GLAS_MED_FOGNING
100
AcDbLine
 10
-881.0
 20
3379.522938
 30
0.0
 11
-900.0
 21
3379.522938
 31
0.0
  0
DIMENSION
  5
1D3
100
AcDbEntity
  8
DIMENSION
100
AcDbDimension
  2
*D34
 10
-885.0
 20
3425.0
 30
0.0
 11
-895.0
 21
3429.0
 31
0.0
 70
    32
  3
STANDARD
100
AcDbAlignedDimension
 13
-905.0
 23
3410.0
 33
0.0
 14
-885.0
 24
3410.0
 34
0.0
100
AcDbRotatedDimension
1001
ACAD
1000
DSTYLE
1002
{
1070
   270
1070
     8
1070
    41
1040
2.5
1070
    42
1040
0.625
1070
    43
1040
3.75
1070
    44
1040
1.25
1070
    73
1070
     0
1070
    74
1070
     0
1070
    77
1070
     1
1070
    78
1070
     8
1070
   140
1040
4.0
1070
   141
1040
2.5
1070
   143
1040
0.0394
1070
   147
1040
2.0
1070
   171
1070
     4
1070
   172
1070
     1
1070
   178
1070
     6
1070
   273
1070
     8
1070
   274
1070
     4
1070
   277
1070
     6
1070
   340
1005
1C
1002
}
  0
INSERT
  5
1E0
100
AcDbEntity
  8
0
100
AcDbBlockReference
  2
SP41520
 10
-930.0
 20
3395.0
 30
0.0
 50
270.0
  0
INSERT
  5
1E1
100
AcDbEntity
  8
GLAS_MED_FOGNING
100
AcDbBlockReference
  2
*X2
 10
-930.0
 20
3332.533941
 30
0.0
 50
270.0
1001
ACAD
1000
HATCH
1002
{
1070
    16
1000
AR-SAND
1040
2.0
1040
0.0
1002
}
  0
INSERT
  5
1E2
100
AcDbEntity
  8
0
100
AcDbBlockReference
  2
SP41520
 10
-930.0
 20
3375.0
 30
0.0
 41
-1.0
 50
270.0
  0
LINE
  5
1E3
100
AcDbEntity
  8
GLAS_MED_FOGNING
100
AcDbLine
 10
-900.0
 20
3379.522938
 30
0.0
 11
-900.0
 21
3389.568811
 31
0.0
  0
LINE
  5
1E4
100
AcDbEntity
  8
GLAS_MED_FOGNING
100
AcDbLine
 10
-898.0
 20
3389.568811
 30
0.0
 11
-898.0
 21
3395.568811
 31
0.0
  0
LINE
  5
1E5
100
AcDbEntity
  8
GLAS_MED_FOGNING
100
AcDbLine
 10
-899.0
 20
3389.568811
 30
0.0
 11
-899.0
 21
3395.568811
 31
0.0
  0
LINE
  5
1E6
100
AcDbEntity
  8
GLAS_MED_FOGNING
100
AcDbLine
 10
-898.0
 20
3374.522938
 30
0.0
 11
-898.0
 21
3379.522938
 31
0.0
  0
LINE
  5
1E7
100
AcDbEntity
  8
GLAS_MED_FOGNING
100
AcDbLine
 10
-899.0
 20
3374.522938
 30
0.0
 11
-899.0
 21
3379.522938
 31
0.0
  0
INSERT
  5
1E8
100
AcDbEntity
  8
GLAS_MED_FOGNING
100
AcDbBlockReference
  2
*X3
 10
-930.0
 20
3347.0
 30
0.0
 50
270.0
1001
ACAD
1000
HATCH
1002
{
1070
    16
1000
AR-SAND
1040
2.0
1040
0.0
1002
}
  0
LWPOLYLINE
  5
1E9
100
AcDbEntity
  8
GLAS_MED_FOGNING
100
AcDbPolyline
 90
        4
 70
     0
 43
0.0
 10
-906.8
 20
3390.0
 10
-905.0
 20
3390.0
 10
-905.0
 20
3380.0
 10
-906.8
 20
3380.0
  0
ARC
  5
1EA
100
AcDbEntity
  8
GLAS_MED_FOGNING
100
AcDbCircle
 10
-878.648503
 20
3373.18832
 30
0.0
 40
6.413645
100
AcDbArc
 50
93.644277
 51
182.474943
  0
HATCH
  5
1EB
100
AcDbEntity
  8
GLAS_MED_FOGNING
100
AcDbHatch
 10
0.0
 20
0.0
 30
0.0
210
0.0
220
0.0
230
1.0
  2
AR-SAND
 70
     0
 71
     0
 91
        1
 92
        7
 72
     1
 73
     1
 93
       10
 10
-884.67558309509
 20
3393.362040131281
 42
0.0
 10
-884.9845339583907
 20
3394.802752011419
 42
0.0
 10
-889.0
 20
3394.802752011419
 42
0.0
 10
-889.0
 20
3389.551245732556
 42
0.0
 10
-879.8564804210036
 20
3389.551245732556
 42
0.0
 10
-880.2378420395362
 20
3389.655185952301
 42
0.0
 10
-880.5414812958456
 20
3389.775502284823
 42
-0.0388476704749722
 10
-881.4666182260003
 20
3390.142085591179
 42
0.0
 10
-882.2486915257831
 20
3390.451980274551
 42
0.0
 10
-883.774158581793
 20
3391.837724792664
 42
0.0
 97
        0
 75
     0
 76
     1
 52
0.0
 41
1.0
 77
     0
 78
     4
 53
37.5
 43
2020.0
 44
851.802752
 45
-0.0629933581096082
 46
1.926823769013158
 79
     6
 49
0.0
 49
-1.52
 49
0.0
 49
-1.7
 49
0.0
 49
-1.625
 53
7.5
 43
2020.0
 44
851.802752
 45
1.769776705267727
 46
2.82214606522974
 79
     6
 49
0.0
 49
-0.82
 49
0.0
 49
-1.37
 49
0.0
 49
-0.525
 53
327.5
 43
2018.77
 44
851.802752
 45
3.114141861751495
 46
0.0056590535369645
 79
     6
 49
0.0
 49
-0.5
 49
0.0
 49
-1.8
 49
0.0
 49
-2.35
 53
317.5
 43
2018.77
 44
851.802752
 45
3.006126604572293
 46
0.877675564934249
 79
     6
 49
0.0
 49
-0.25
 49
0.0
 49
-1.18
 49
0.0
 49
-1.35
 47
0.034644
 98
        1
 10
-887.726517
 20
3391.941653
  0
HATCH
  5
1EC
100
AcDbEntity
  8
GLAS_MED_FOGNING
100
AcDbHatch
 10
0.0
 20
0.0
 30
0.0
210
0.0
220
0.0
230
1.0
  2
AR-SAND
 70
     0
 71
     0
 91
        1
 92
        7
 72
     1
 73
     1
 93
       10
 10
-884.67558309509
 20
3375.729708513351
 42
0.0
 10
-884.9845339583907
 20
3374.288996633213
 42
0.0
 10
-889.0
 20
3374.288996633213
 42
0.0
 10
-889.0
 20
3379.540502912076
 42
0.0
 10
-879.8564804210036
 20
3379.540502912076
 42
0.0
 10
-880.2378420395362
 20
3379.436562692331
 42
0.0
 10
-880.5414812958456
 20
3379.316246359808
 42
0.0388476704749722
 10
-881.4666182260003
 20
3378.949663053453
 42
0.0
 10
-882.2486915257831
 20
3378.639768370081
 42
0.0
 10
-883.774158581793
 20
3377.254023851968
 42
0.0
 97
        0
 75
     0
 76
     1
 52
0.0
 41
1.0
 77
     0
 78
     4
 53
322.5
 43
2020.0
 44
5917.288997
 45
-0.0629933581096082
 46
-1.926823769013158
 79
     6
 49
0.0
 49
-1.52
 49
0.0
 49
-1.7
 49
0.0
 49
-1.625
 53
352.5
 43
2020.0
 44
5917.288997
 45
1.769776705267727
 46
-2.82214606522974
 79
     6
 49
0.0
 49
-0.82
 49
0.0
 49
-1.37
 49
0.0
 49
-0.525
 53
32.5
 43
2018.77
 44
5917.288997
 45
3.114141861751495
 46
-0.0056590535369645
 79
     6
 49
0.0
 49
-0.5
 49
0.0
 49
-1.8
 49
0.0
 49
-2.35
 53
42.5
 43
2018.77
 44
5917.288997
 45
3.006126604572293
 46
-0.877675564934249
 79
     6
 49
0.0
 49
-0.25
 49
0.0
 49
-1.18
 49
0.0
 49
-1.35
 47
0.034644
 98
        1
 10
-887.726517
 20
3377.150096
  0
ARC
  5
1ED
100
AcDbEntity
  8
GLAS_MED_FOGNING
100
AcDbCircle
 10
-878.648503
 20
3395.903428
 30
0.0
 40
6.413645
100
AcDbArc
 50
177.525057
 51
266.355723
  0
LINE
  5
1EE
100
AcDbEntity
  8
GLAS_MED_FOGNING
100
AcDbLine
 10
-896.0
 20
3389.568811
 30
0.0
 11
-896.0
 21
3395.568811
 31
0.0
  0
LINE
  5
1EF
100
AcDbEntity
  8
GLAS_MED_FOGNING
100
AcDbLine
 10
-897.0
 20
3389.568811
 30
0.0
 11
-897.0
 21
3395.568811
 31
0.0
  0
LINE
  5
1F0
100
AcDbEntity
  8
GLAS_MED_FOGNING
100
AcDbLine
 10
-895.0
 20
3389.568811
 30
0.0
 11
-895.0
 21
3395.568811
 31
0.0
  0
LINE
  5
1F1
100
AcDbEntity
  8
GLAS_MED_FOGNING
100
AcDbLine
 10
-894.0
 20
3389.568811
 30
0.0
 11
-894.0
 21
3395.568811
 31
0.0
  0
LINE
  5
1F2
100
AcDbEntity
  8
GLAS_MED_FOGNING
100
AcDbLine
 10
-893.0
 20
3389.568811
 30
0.0
 11
-893.0
 21
3395.568811
 31
0.0
  0
LINE
  5
1F3
100
AcDbEntity
  8
GLAS_MED_FOGNING
100
AcDbLine
 10
-892.0
 20
3389.568811
 30
0.0
 11
-892.0
 21
3395.568811
 31
0.0
  0
LINE
  5
1F4
100
AcDbEntity
  8
GLAS_MED_FOGNING
100
AcDbLine
 10
-897.0
 20
3374.522938
 30
0.0
 11
-897.0
 21
3379.522938
 31
0.0
  0
LINE
  5
1F5
100
AcDbEntity
  8
GLAS_MED_FOGNING
100
AcDbLine
 10
-896.0
 20
3374.522938
 30
0.0
 11
-896.0
 21
3379.522938
 31
0.0
  0
LINE
  5
1F6
100
AcDbEntity
  8
GLAS_MED_FOGNING
100
AcDbLine
 10
-895.0
 20
3374.522938
 30
0.0
 11
-895.0
 21
3379.522938
 31
0.0
  0
LINE
  5
1F7
100
AcDbEntity
  8
GLAS_MED_FOGNING
100
AcDbLine
 10
-894.0
 20
3374.522938
 30
0.0
 11
-894.0
 21
3379.522938
 31
0.0
  0
LINE
  5
1F8
100
AcDbEntity
  8
GLAS_MED_FOGNING
100
AcDbLine
 10
-893.0
 20
3374.522938
 30
0.0
 11
-893.0
 21
3379.522938
 31
0.0
  0
LINE
  5
1F9
100
AcDbEntity
  8
GLAS_MED_FOGNING
100
AcDbLine
 10
-892.0
 20
3374.522938
 30
0.0
 11
-892.0
 21
3379.522938
 31
0.0
  0
LINE
  5
1FA
100
AcDbEntity
  8
GLAS_MED_FOGNING
100
AcDbLine
 10
-890.0
 20
3389.568811
 30
0.0
 11
-890.0
 21
3395.568811
 31
0.0
  0
LINE
  5
1FB
100
AcDbEntity
  8
GLAS_MED_FOGNING
100
AcDbLine
 10
-891.0
 20
3389.568811
 30
0.0
 11
-891.0
 21
3395.568811
 31
0.0
  0
LINE
  5
1FC
100
AcDbEntity
  8
GLAS_MED_FOGNING
100
AcDbLine
 10
-889.0
 20
3389.568811
 30
0.0
 11
-889.0
 21
3395.568811
 31
0.0
  0
LINE
  5
1FD
100
AcDbEntity
  8
GLAS_MED_FOGNING
100
AcDbLine
 10
-891.0
 20
3374.522938
 30
0.0
 11
-891.0
 21
3379.522938
 31
0.0
  0
LINE
  5
1FE
100
AcDbEntity
  8
GLAS_MED_FOGNING
100
AcDbLine
 10
-890.0
 20
3374.522938
 30
0.0
 11
-890.0
 21
3379.522938
 31
0.0
  0
LINE
  5
1FF
100
AcDbEntity
  8
GLAS_MED_FOGNING
100
AcDbLine
 10
-889.0
 20
3374.522938
 30
0.0
 11
-889.0
 21
3379.522938
 31
0.0
  0
LWPOLYLINE
  5
200
100
AcDbEntity
  8
CENTRUM
100
AcDbPolyline
 90
        4
 70
     0
 43
0.0
 10
-872.5
 20
3356.148262
 10
-872.5
 20
3397.0
 10
-872.5
 20
3403.0
 10
-872.5
 20
3412.0
  0
LINE
  5
201
100
AcDbEntity
  8
GLAS_MED_FOGNING
100
AcDbLine
 10
-872.5
 20
3389.568811
 30
0.0
 11
-881.0
 21
3389.568811
 31
0.0
  0
LINE
  5
202
100
AcDbEntity
  8
GLAS_MED_FOGNING
100
AcDbLine
 10
-872.5
 20
3379.522938
 30
0.0
 11
-881.0
 21
3379.522938
 31
0.0
  0
INSERT
  5
203
100
AcDbEntity
  8
GLAS_MED_FOGNING
100
AcDbBlockReference
  2
*X2
 10
-935.0
 20
3467.533941
 30
0.0
 50
270.0
1001
ACAD
1000
HATCH
1002
{
1070
    16
1000
AR-SAND
1040
2.0
1040
0.0
1002
}
  0
INSERT
  5
204
100
AcDbEntity
  8
0
100
AcDbBlockReference
  2
SP41520
 10
-935.0
 20
3530.0
 30
0.0
 50
270.0
  0
DIMENSION
  5
205
100
AcDbEntity
  8
DIMENSION
100
AcDbDimension
  2
*D35
 10
-890.0
 20
3560.0
 30
0.0
 11
-900.0
 21
3564.0
 31
0.0
 70
    32
  3
STANDARD
100
AcDbAlignedDimension
 13
-910.0
 23
3545.0
 33
0.0
 14
-890.0
 24
3545.0
 34
0.0
100
AcDbRotatedDimension
1001
ACAD
1000
DSTYLE
1002
{
1070
   270
1070
     8
1070
    41
1040
2.5
1070
    42
1040
0.625
1070
    43
1040
3.75
1070
    44
1040
1.25
1070
    73
1070
     0
1070
    74
1070
     0
1070
    77
1070
     1
1070
    78
1070
     8
1070
   140
1040
4.0
1070
   141
1040
2.5
1070
   143
1040
0.0394
1070
   147
1040
2.0
1070
   171
1070
     4
1070
   172
1070
     1
1070
   178
1070
     6
1070
   273
1070
     8
1070
   274
1070
     4
1070
   277
1070
     6
1070
   340
1005
1C
1002
}
  0
LINE
  5
212
100
AcDbEntity
  8
GLAS_MED_FOGNING
100
AcDbLine
 10
-886.0
 20
3514.522938
 30
0.0
 11
-905.0
 21
3514.522938
 31
0.0
  0
LINE
  5
213
100
AcDbEntity
  8
GLAS_MED_FOGNING
100
AcDbLine
 10
-886.0
 20
3524.568811
 30
0.0
 11
-905.0
 21
3524.568811
 31
0.0
  0
INSERT
  5
214
100
AcDbEntity
  8
GLAS_MED_FOGNING
100
AcDbBlockReference
  2
*X3
 10
-935.0
 20
3482.0
 30
0.0
 50
270.0
1001
ACAD
1000
HATCH
1002
{
1070
    16
1000
AR-SAND
1040
2.0
1040
0.0
1002
}
  0
LINE
  5
215
100
AcDbEntity
  8
GLAS_MED_FOGNING
100
AcDbLine
 10
-904.0
 20
3509.522938
 30
0.0
 11
-904.0
 21
3514.522938
 31
0.0
  0
LINE
  5
216
100
AcDbEntity
  8
GLAS_MED_FOGNING
100
AcDbLine
 10
-898.0
 20
3509.522938
 30
0.0
 11
-898.0
 21
3514.522938
 31
0.0
  0
LINE
  5
217
100
AcDbEntity
  8
GLAS_MED_FOGNING
100
AcDbLine
 10
-899.0
 20
3509.522938
 30
0.0
 11
-899.0
 21
3514.522938
 31
0.0
  0
LINE
  5
218
100
AcDbEntity
  8
GLAS_MED_FOGNING
100
AcDbLine
 10
-900.0
 20
3509.522938
 30
0.0
 11
-900.0
 21
3514.522938
 31
0.0
  0
LINE
  5
219
100
AcDbEntity
  8
GLAS_MED_FOGNING
100
AcDbLine
 10
-901.0
 20
3509.522938
 30
0.0
 11
-901.0
 21
3514.522938
 31
0.0
  0
LINE
  5
21A
100
AcDbEntity
  8
GLAS_MED_FOGNING
100
AcDbLine
 10
-902.0
 20
3509.522938
 30
0.0
 11
-902.0
 21
3514.522938
 31
0.0
  0
LINE
  5
21B
100
AcDbEntity
  8
GLAS_MED_FOGNING
100
AcDbLine
 10
-903.0
 20
3509.522938
 30
0.0
 11
-903.0
 21
3514.522938
 31
0.0
  0
LINE
  5
21C
100
AcDbEntity
  8
GLAS_MED_FOGNING
100
AcDbLine
 10
-904.0
 20
3524.568811
 30
0.0
 11
-904.0
 21
3530.568811
 31
0.0
  0
LINE
  5
21D
100
AcDbEntity
  8
GLAS_MED_FOGNING
100
AcDbLine
 10
-898.0
 20
3524.568811
 30
0.0
 11
-898.0
 21
3530.568811
 31
0.0
  0
LINE
  5
21E
100
AcDbEntity
  8
GLAS_MED_FOGNING
100
AcDbLine
 10
-899.0
 20
3524.568811
 30
0.0
 11
-899.0
 21
3530.568811
 31
0.0
  0
LINE
  5
21F
100
AcDbEntity
  8
GLAS_MED_FOGNING
100
AcDbLine
 10
-900.0
 20
3524.568811
 30
0.0
 11
-900.0
 21
3530.568811
 31
0.0
  0
LINE
  5
220
100
AcDbEntity
  8
GLAS_MED_FOGNING
100
AcDbLine
 10
-902.0
 20
3524.568811
 30
0.0
 11
-902.0
 21
3530.568811
 31
0.0
  0
LINE
  5
221
100
AcDbEntity
  8
GLAS_MED_FOGNING
100
AcDbLine
 10
-901.0
 20
3524.568811
 30
0.0
 11
-901.0
 21
3530.568811
 31
0.0
  0
LINE
  5
222
100
AcDbEntity
  8
GLAS_MED_FOGNING
100
AcDbLine
 10
-903.0
 20
3524.568811
 30
0.0
 11
-903.0
 21
3530.568811
 31
0.0
  0
LINE
  5
223
100
AcDbEntity
  8
GLAS_MED_FOGNING
100
AcDbLine
 10
-905.0
 20
3514.522938
 30
0.0
 11
-905.0
 21
3524.568811
 31
0.0
  0
LINE
  5
224
100
AcDbEntity
  8
GLAS_MED_FOGNING
100
AcDbLine
 10
-877.5
 20
3514.522938
 30
0.0
 11
-886.0
 21
3514.522938
 31
0.0
  0
LINE
  5
225
100
AcDbEntity
  8
GLAS_MED_FOGNING
100
AcDbLine
 10
-877.5
 20
3524.568811
 30
0.0
 11
-886.0
 21
3524.568811
 31
0.0
  0
ARC
  5
226
100
AcDbEntity
  8
GLAS_MED_FOGNING
100
AcDbCircle
 10
-883.648503
 20
3530.903428
 30
0.0
 40
6.413645
100
AcDbArc
 50
177.525057
 51
266.355723
  0
HATCH
  5
227
100
AcDbEntity
  8
GLAS_MED_FOGNING
100
AcDbHatch
 10
0.0
 20
0.0
 30
0.0
210
0.0
220
0.0
230
1.0
  2
AR-SAND
 70
     0
 71
     0
 91
        1
 92
        7
 72
     1
 73
     1
 93
       10
 10
-889.6755830950901
 20
3510.729708513351
 42
0.0
 10
-889.9845339583908
 20
3509.288996633213
 42
0.0
 10
-893.9999999999999
 20
3509.288996633213
 42
0.0
 10
-893.9999999999999
 20
3514.540502912076
 42
0.0
 10
-884.8564804210036
 20
3514.540502912076
 42
0.0
 10
-885.2378420395362
 20
3514.436562692331
 42
0.0
 10
-885.5414812958455
 20
3514.316246359808
 42
0.0388476704749722
 10
-886.4666182260002
 20
3513.949663053454
 42
0.0
 10
-887.2486915257832
 20
3513.639768370081
 42
0.0
 10
-888.7741585817931
 20
3512.254023851968
 42
0.0
 97
        0
 75
     0
 76
     1
 52
0.0
 41
1.0
 77
     0
 78
     4
 53
322.5
 43
2015.0
 44
6052.288997
 45
-0.0629933581096082
 46
-1.926823769013158
 79
     6
 49
0.0
 49
-1.52
 49
0.0
 49
-1.7
 49
0.0
 49
-1.625
 53
352.5
 43
2015.0
 44
6052.288997
 45
1.769776705267727
 46
-2.82214606522974
 79
     6
 49
0.0
 49
-0.82
 49
0.0
 49
-1.37
 49
0.0
 49
-0.525
 53
32.5
 43
2013.77
 44
6052.288997
 45
3.114141861751495
 46
-0.0056590535369645
 79
     6
 49
0.0
 49
-0.5
 49
0.0
 49
-1.8
 49
0.0
 49
-2.35
 53
42.5
 43
2013.77
 44
6052.288997
 45
3.006126604572293
 46
-0.877675564934249
 79
     6
 49
0.0
 49
-0.25
 49
0.0
 49
-1.18
 49
0.0
 49
-1.35
 47
0.034644
 98
        1
 10
-892.726517
 20
3512.150096
  0
HATCH
  5
228
100
AcDbEntity
  8
GLAS_MED_FOGNING
100
AcDbHatch
 10
0.0
 20
0.0
 30
0.0
210
0.0
220
0.0
230
1.0
  2
AR-SAND
 70
     0
 71
     0
 91
        1
 92
        7
 72
     1
 73
     1
 93
       10
 10
-889.6755830950901
 20
3528.36204013128
 42
0.0
 10
-889.9845339583908
 20
3529.802752011419
 42
0.0
 10
-893.9999999999999
 20
3529.802752011419
 42
0.0
 10
-893.9999999999999
 20
3524.551245732556
 42
0.0
 10
-884.8564804210036
 20
3524.551245732556
 42
0.0
 10
-885.2378420395362
 20
3524.655185952301
 42
0.0
 10
-885.5414812958455
 20
3524.775502284823
 42
-0.0388476704749722
 10
-886.4666182260002
 20
3525.142085591179
 42
0.0
 10
-887.2486915257832
 20
3525.45198027455
 42
0.0
 10
-888.7741585817931
 20
3526.837724792664
 42
0.0
 97
        0
 75
     0
 76
     1
 52
0.0
 41
1.0
 77
     0
 78
     4
 53
37.5
 43
2015.0
 44
986.802752
 45
-0.0629933581096082
 46
1.926823769013158
 79
     6
 49
0.0
 49
-1.52
 49
0.0
 49
-1.7
 49
0.0
 49
-1.625
 53
7.5
 43
2015.0
 44
986.802752
 45
1.769776705267727
 46
2.82214606522974
 79
     6
 49
0.0
 49
-0.82
 49
0.0
 49
-1.37
 49
0.0
 49
-0.525
 53
327.5
 43
2013.77
 44
986.802752
 45
3.114141861751495
 46
0.0056590535369645
 79
     6
 49
0.0
 49
-0.5
 49
0.0
 49
-1.8
 49
0.0
 49
-2.35
 53
317.5
 43
2013.77
 44
986.802752
 45
3.006126604572293
 46
0.877675564934249
 79
     6
 49
0.0
 49
-0.25
 49
0.0
 49
-1.18
 49
0.0
 49
-1.35
 47
0.034644
 98
        1
 10
-892.726517
 20
3526.941653
  0
LINE
  5
229
100
AcDbEntity
  8
GLAS_MED_FOGNING
100
AcDbLine
 10
-894.0
 20
3509.522938
 30
0.0
 11
-894.0
 21
3514.522938
 31
0.0
  0
LINE
  5
22A
100
AcDbEntity
  8
GLAS_MED_FOGNING
100
AcDbLine
 10
-895.0
 20
3509.522938
 30
0.0
 11
-895.0
 21
3514.522938
 31
0.0
  0
LINE
  5
22B
100
AcDbEntity
  8
GLAS_MED_FOGNING
100
AcDbLine
 10
-896.0
 20
3509.522938
 30
0.0
 11
-896.0
 21
3514.522938
 31
0.0
  0
LINE
  5
22C
100
AcDbEntity
  8
GLAS_MED_FOGNING
100
AcDbLine
 10
-897.0
 20
3509.522938
 30
0.0
 11
-897.0
 21
3514.522938
 31
0.0
  0
LINE
  5
22D
100
AcDbEntity
  8
GLAS_MED_FOGNING
100
AcDbLine
 10
-894.0
 20
3524.568811
 30
0.0
 11
-894.0
 21
3530.568811
 31
0.0
  0
LINE
  5
22E
100
AcDbEntity
  8
GLAS_MED_FOGNING
100
AcDbLine
 10
-896.0
 20
3524.568811
 30
0.0
 11
-896.0
 21
3530.568811
 31
0.0
  0
LINE
  5
22F
100
AcDbEntity
  8
GLAS_MED_FOGNING
100
AcDbLine
 10
-895.0
 20
3524.568811
 30
0.0
 11
-895.0
 21
3530.568811
 31
0.0
  0
LINE
  5
230
100
AcDbEntity
  8
GLAS_MED_FOGNING
100
AcDbLine
 10
-897.0
 20
3524.568811
 30
0.0
 11
-897.0
 21
3530.568811
 31
0.0
  0
ARC
  5
231
100
AcDbEntity
  8
GLAS_MED_FOGNING
100
AcDbCircle
 10
-883.648503
 20
3508.18832
 30
0.0
 40
6.413645
100
AcDbArc
 50
93.644277
 51
182.474943
  0
LINE
  5
232
100
AcDbEntity
  8
GLAS_MED_FOGNING
100
AcDbLine
 10
-741.0
 20
3524.568811
 30
0.0
 11
-760.0
 21
3524.568811
 31
0.0
  0
LINE
  5
233
100
AcDbEntity
  8
GLAS_MED_FOGNING
100
AcDbLine
 10
-741.0
 20
3514.522938
 30
0.0
 11
-760.0
 21
3514.522938
 31
0.0
  0
ARC
  5
234
100
AcDbEntity
  8
GLAS_MED_FOGNING
100
AcDbCircle
 10
-738.648503
 20
3508.18832
 30
0.0
 40
6.413645
100
AcDbArc
 50
93.644277
 51
182.474943
  0
HATCH
  5
235
100
AcDbEntity
  8
GLAS_MED_FOGNING
100
AcDbHatch
 10
0.0
 20
0.0
 30
0.0
210
0.0
220
0.0
230
1.0
  2
AR-SAND
 70
     0
 71
     0
 91
        1
 92
        7
 72
     1
 73
     1
 93
       10
 10
-744.6755830950901
 20
3528.36204013128
 42
0.0
 10
-744.9845339583908
 20
3529.802752011419
 42
0.0
 10
-749.0
 20
3529.802752011419
 42
0.0
 10
-749.0
 20
3524.551245732556
 42
0.0
 10
-739.8564804210036
 20
3524.551245732556
 42
0.0
 10
-740.2378420395361
 20
3524.655185952301
 42
0.0
 10
-740.5414812958456
 20
3524.775502284823
 42
-0.0388476704749722
 10
-741.4666182260003
 20
3525.142085591179
 42
0.0
 10
-742.2486915257832
 20
3525.45198027455
 42
0.0
 10
-743.774158581793
 20
3526.837724792664
 42
0.0
 97
        0
 75
     0
 76
     1
 52
0.0
 41
1.0
 77
     0
 78
     4
 53
37.5
 43
2160.0
 44
986.802752
 45
-0.0629933581096082
 46
1.926823769013158
 79
     6
 49
0.0
 49
-1.52
 49
0.0
 49
-1.7
 49
0.0
 49
-1.625
 53
7.5
 43
2160.0
 44
986.802752
 45
1.769776705267727
 46
2.82214606522974
 79
     6
 49
0.0
 49
-0.82
 49
0.0
 49
-1.37
 49
0.0
 49
-0.525
 53
327.5
 43
2158.77
 44
986.802752
 45
3.114141861751495
 46
0.0056590535369645
 79
     6
 49
0.0
 49
-0.5
 49
0.0
 49
-1.8
 49
0.0
 49
-2.35
 53
317.5
 43
2158.77
 44
986.802752
 45
3.006126604572293
 46
0.877675564934249
 79
     6
 49
0.0
 49
-0.25
 49
0.0
 49
-1.18
 49
0.0
 49
-1.35
 47
0.034644
 98
        1
 10
-747.726517
 20
3526.941653
  0
HATCH
  5
236
100
AcDbEntity
  8
GLAS_MED_FOGNING
100
AcDbHatch
 10
0.0
 20
0.0
 30
0.0
210
0.0
220
0.0
230
1.0
  2
AR-SAND
 70
     0
 71
     0
 91
        1
 92
        7
 72
     1
 73
     1
 93
       10
 10
-744.6755830950901
 20
3510.729708513351
 42
0.0
 10
-744.9845339583908
 20
3509.288996633213
 42
0.0
 10
-749.0
 20
3509.288996633213
 42
0.0
 10
-749.0
 20
3514.540502912076
 42
0.0
 10
-739.8564804210036
 20
3514.540502912076
 42
0.0
 10
-740.2378420395361
 20
3514.436562692331
 42
0.0
 10
-740.5414812958456
 20
3514.316246359808
 42
0.0388476704749722
 10
-741.4666182260003
 20
3513.949663053454
 42
0.0
 10
-742.2486915257832
 20
3513.639768370081
 42
0.0
 10
-743.774158581793
 20
3512.254023851968
 42
0.0
 97
        0
 75
     0
 76
     1
 52
0.0
 41
1.0
 77
     0
 78
     4
 53
322.5
 43
2160.0
 44
6052.288997
 45
-0.0629933581096082
 46
-1.926823769013158
 79
     6
 49
0.0
 49
-1.52
 49
0.0
 49
-1.7
 49
0.0
 49
-1.625
 53
352.5
 43
2160.0
 44
6052.288997
 45
1.769776705267727
 46
-2.82214606522974
 79
     6
 49
0.0
 49
-0.82
 49
0.0
 49
-1.37
 49
0.0
 49
-0.525
 53
32.5
 43
2158.77
 44
6052.288997
 45
3.114141861751495
 46
-0.0056590535369645
 79
     6
 49
0.0
 49
-0.5
 49
0.0
 49
-1.8
 49
0.0
 49
-2.35
 53
42.5
 43
2158.77
 44
6052.288997
 45
3.006126604572293
 46
-0.877675564934249
 79
     6
 49
0.0
 49
-0.25
 49
0.0
 49
-1.18
 49
0.0
 49
-1.35
 47
0.034644
 98
        1
 10
-747.726517
 20
3512.150096
  0
ARC
  5
237
100
AcDbEntity
  8
GLAS_MED_FOGNING
100
AcDbCircle
 10
-738.648503
 20
3530.903428
 30
0.0
 40
6.413645
100
AcDbArc
 50
177.525057
 51
266.355723
  0
LINE
  5
238
100
AcDbEntity
  8
GLAS_MED_FOGNING
100
AcDbLine
 10
-742.5
 20
3379.522938
 30
0.0
 11
-751.0
 21
3379.522938
 31
0.0
  0
LINE
  5
239
100
AcDbEntity
  8
GLAS_MED_FOGNING
100
AcDbLine
 10
-742.5
 20
3389.568811
 30
0.0
 11
-751.0
 21
3389.568811
 31
0.0
  0
DIMENSION
  5
23A
100
AcDbEntity
  8
DIMENSION
100
AcDbDimension
  2
*D36
 10
-775.0
 20
3340.0
 30
0.0
 11
-795.0
 21
3344.0
 31
0.0
 70
    32
  3
STANDARD
100
AcDbAlignedDimension
 13
-815.0
 23
3360.0
 33
0.0
 14
-775.0
 24
3360.0
 34
0.0
100
AcDbRotatedDimension
1001
ACAD
1000
DSTYLE
1002
{
1070
   270
1070
     8
1070
    41
1040
2.5
1070
    42
1040
0.625
1070
    43
1040
3.75
1070
    44
1040
1.25
1070
    73
1070
     0
1070
    74
1070
     0
1070
    77
1070
     1
1070
    78
1070
     8
1070
   140
1040
4.0
1070
   141
1040
2.5
1070
   143
1040
0.0394
1070
   147
1040
2.0
1070
   171
1070
     4
1070
   172
1070
     1
1070
   178
1070
     6
1070
   273
1070
     8
1070
   274
1070
     4
1070
   277
1070
     6
1070
   340
1005
1C
1002
}
  0
TEXT
  5
247
100
AcDbEntity
  8
TEXT
100
AcDbText
 10
-828.557143
 20
3485.383177
 30
0.0
 40
5.0
  1
%%USP 75011/750/10
 41
0.8
  7
ROMANS
 72
     1
 11
-800.0
 21
3485.383177
 31
0.0
100
AcDbText
  0
DIMENSION
  5
248
100
AcDbEntity
  8
DIMENSION
100
AcDbDimension
  2
*D37
 10
-765.0
 20
3560.0
 30
0.0
 11
-790.0
 21
3564.0
 31
0.0
 70
    32
  3
STANDARD
100
AcDbAlignedDimension
 13
-815.0
 23
3545.0
 33
0.0
 14
-765.0
 24
3545.0
 34
0.0
100
AcDbRotatedDimension
1001
ACAD
1000
DSTYLE
1002
{
1070
   270
1070
     8
1070
    41
1040
2.5
1070
    42
1040
0.625
1070
    43
1040
3.75
1070
    44
1040
1.25
1070
    73
1070
     0
1070
    74
1070
     0
1070
    77
1070
     1
1070
    78
1070
     8
1070
   140
1040
4.0
1070
   141
1040
2.5
1070
   143
1040
0.0394
1070
   147
1040
2.0
1070
   171
1070
     4
1070
   172
1070
     1
1070
   178
1070
     6
1070
   273
1070
     8
1070
   274
1070
     4
1070
   277
1070
     6
1070
   340
1005
1C
1002
}
  0
LWPOLYLINE
  5
255
100
AcDbEntity
  8
STALPROFIL
100
AcDbPolyline
 90
       22
 70
     1
 43
1.8
 10
-807.5
 20
3536.885281
 10
-807.5
 20
3536.9
 42
-0.414214
 10
-805.9
 20
3538.5
 10
-803.8
 20
3538.5
 42
0.414214
 10
-801.1
 20
3541.2
 10
-801.1
 20
3541.4
 42
-0.414214
 10
-798.4
 20
3544.1
 10
-766.8
 20
3544.1
 42
-0.414214
 10
-765.9
 20
3543.2
 10
-765.9
 20
3526.8
 42
-0.414214
 10
-766.8
 20
3525.9
 10
-813.2
 20
3525.9
 42
-0.414214
 10
-814.1
 20
3526.8
 10
-814.1
 20
3537.1
 42
-0.414214
 10
-813.199
 20
3538.0
 42
-0.414214
 10
-812.3
 20
3537.101
 10
-812.3
 20
3532.4
 42
0.414214
 10
-809.6
 20
3529.7
 10
-808.2
 20
3529.7
 42
0.414214
 10
-805.5
 20
3532.4
 42
0.198912
 10
-806.642284
 20
3535.157716
 10
-806.884924
 20
3535.400357
 42
-0.198912
  0
LWPOLYLINE
  5
256
100
AcDbEntity
  8
SPKONTUR
100
AcDbPolyline
 90
       25
 70
     0
 43
0.0
 10
-808.4
 20
3536.9
 10
-808.4
 20
3536.885281
 10
-808.4
 20
3536.9
 42
-0.414214
 10
-805.9
 20
3539.4
 10
-803.8
 20
3539.4
 42
0.414214
 10
-802.0
 20
3541.2
 10
-802.0
 20
3541.4
 42
-0.414214
 10
-798.4
 20
3545.0
 10
-766.8
 20
3545.0
 42
-0.414214
 10
-765.0
 20
3543.2
 10
-765.0
 20
3526.8
 42
-0.414214
 10
-766.8
 20
3525.0
 10
-813.2
 20
3525.0
 42
-0.414214
 10
-815.0
 20
3526.8
 10
-815.0
 20
3537.1
 42
-0.414214
 10
-813.2
 20
3538.9
 10
-813.199
 20
3538.9
 42
-0.414214
 10
-811.4
 20
3537.101
 10
-811.4
 20
3532.4
 42
0.414214
 10
-809.6
 20
3530.6
 10
-808.2
 20
3530.6
 42
0.414214
 10
-806.4
 20
3532.4
 42
0.198912
 10
-807.27868
 20
3534.52132
 10
-807.52132
 20
3534.763961
 42
-0.198912
 10
-808.4
 20
3536.885281
  0
INSERT
  5
257
100
AcDbEntity
  8
GLAS_MED_FOGNING
100
AcDbBlockReference
  2
*X5
 10
-790.0
 20
3545.0
 30
0.0
 50
90.0
1001
ACAD
1000
HATCH
1002
{
1070
    16
1000
DASH
1040
25.0
1040
2.007129
1002
}
  0
LWPOLYLINE
  5
258
100
AcDbEntity
  8
SPKONTUR
100
AcDbPolyline
 90
       11
 70
     1
 43
0.0
 10
-815.0
 20
3498.6
 10
-815.0
 20
3513.2
 42
-0.414214
 10
-813.2
 20
3515.0
 10
-766.8
 20
3515.0
 42
-0.414214
 10
-765.0
 20
3513.2
 10
-765.0
 20
3496.8
 42
-0.414214
 10
-766.8
 20
3495.0
 10
-833.2
 20
3495.0
 42
-0.414214
 10
-835.0
 20
3496.8
 10
-835.0
 20
3496.801
 42
-0.414214
 10
-833.201
 20
3498.6
  0
LWPOLYLINE
  5
259
100
AcDbEntity
  8
STALPROFIL
100
AcDbPolyline
 90
       11
 70
     1
 43
1.8
 10
-814.1
 20
3498.6
 10
-814.1
 20
3513.2
 42
-0.414214
 10
-813.2
 20
3514.1
 10
-766.8
 20
3514.1
 42
-0.414214
 10
-765.9
 20
3513.2
 10
-765.9
 20
3496.8
 42
-0.414214
 10
-766.8
 20
3495.9
 10
-833.2
 20
3495.9
 42
-0.414214
 10
-834.1
 20
3496.801
 42
-0.414214
 10
-833.201
 20
3497.7
 10
-815.0
 20
3497.7
 42
0.414214
  0
INSERT
  5
25A
100
AcDbEntity
  8
0
100
AcDbBlockReference
  2
SP01502020
 10
-785.0
 20
3410.0
 30
0.0
 50
90.0
  0
DIMENSION
  5
260
100
AcDbEntity
  8
DIMENSION
100
AcDbDimension
  2
*D38
 10
-765.0
 20
3475.0
 30
0.0
 11
-800.0
 21
3479.0
 31
0.0
 70
    32
  3
STANDARD
100
AcDbAlignedDimension
 13
-835.0
 23
3495.0
 33
0.0
 14
-765.0
 24
3495.0
 34
0.0
100
AcDbRotatedDimension
1001
ACAD
1000
DSTYLE
1002
{
1070
   270
1070
     8
1070
    41
1040
2.5
1070
    42
1040
0.625
1070
    43
1040
3.75
1070
    44
1040
1.25
1070
    73
1070
     0
1070
    74
1070
     0
1070
    77
1070
     1
1070
    78
1070
     8
1070
   140
1040
4.0
1070
   141
1040
2.5
1070
   143
1040
0.0394
1070
   147
1040
2.0
1070
   171
1070
     4
1070
   172
1070
     1
1070
   178
1070
     6
1070
   273
1070
     8
1070
   274
1070
     4
1070
   277
1070
     6
1070
   340
1005
1C
1002
}
  0
LWPOLYLINE
  5
26D
100
AcDbEntity
  8
GLAS_MED_FOGNING
100
AcDbPolyline
 90
        4
 70
     0
 43
0.0
 10
-813.2
 20
3525.0
 10
-815.0
 20
3525.0
 10
-815.0
 20
3515.0
 10
-813.2
 20
3515.0
  0
INSERT
  5
26E
100
AcDbEntity
  8
0
100
AcDbBlockReference
  2
SP41520
 10
-790.0
 20
3510.0
 30
0.0
 41
-1.0
 50
270.0
  0
INSERT
  5
26F
100
AcDbEntity
  8
0
100
AcDbBlockReference
  2
SP41520
 10
-800.0
 20
3395.0
 30
0.0
 50
270.0
  0
INSERT
  5
270
100
AcDbEntity
  8
GLAS_MED_FOGNING
100
AcDbBlockReference
  2
*X3
 10
-800.0
 20
3347.0
 30
0.0
 50
270.0
1001
ACAD
1000
HATCH
1002
{
1070
    16
1000
AR-SAND
1040
2.0
1040
0.0
1002
}
  0
INSERT
  5
271
100
AcDbEntity
  8
GLAS_MED_FOGNING
100
AcDbBlockReference
  2
*X2
 10
-800.0
 20
3332.533941
 30
0.0
 50
270.0
1001
ACAD
1000
HATCH
1002
{
1070
    16
1000
AR-SAND
1040
2.0
1040
0.0
1002
}
  0
DIMENSION
  5
272
100
AcDbEntity
  8
DIMENSION
100
AcDbDimension
  2
*D39
 10
-755.0
 20
3425.0
 30
0.0
 11
-765.0
 21
3429.0
 31
0.0
 70
    32
  3
STANDARD
100
AcDbAlignedDimension
 13
-775.0
 23
3410.0
 33
0.0
 14
-755.0
 24
3410.0
 34
0.0
100
AcDbRotatedDimension
1001
ACAD
1000
DSTYLE
1002
{
1070
   270
1070
     8
1070
    41
1040
2.5
1070
    42
1040
0.625
1070
    43
1040
3.75
1070
    44
1040
1.25
1070
    73
1070
     0
1070
    74
1070
     0
1070
    77
1070
     1
1070
    78
1070
     8
1070
   140
1040
4.0
1070
   141
1040
2.5
1070
   143
1040
0.0394
1070
   147
1040
2.0
1070
   171
1070
     4
1070
   172
1070
     1
1070
   178
1070
     6
1070
   273
1070
     8
1070
   274
1070
     4
1070
   277
1070
     6
1070
   340
1005
1C
1002
}
  0
INSERT
  5
27F
100
AcDbEntity
  8
0
100
AcDbBlockReference
  2
SP41520
 10
-800.0
 20
3375.0
 30
0.0
 41
-1.0
 50
270.0
  0
DIMENSION
  5
280
100
AcDbEntity
  8
DIMENSION
100
AcDbDimension
  2
*D40
 10
-775.0
 20
3425.0
 30
0.0
 11
-785.0
 21
3429.0
 31
0.0
 70
    32
  3
STANDARD
100
AcDbAlignedDimension
 13
-795.0
 23
3410.0
 33
0.0
 14
-775.0
 24
3410.0
 34
0.0
100
AcDbRotatedDimension
1001
ACAD
1000
DSTYLE
1002
{
1070
   270
1070
     8
1070
    41
1040
2.5
1070
    42
1040
0.625
1070
    43
1040
3.75
1070
    44
1040
1.25
1070
    73
1070
     0
1070
    74
1070
     0
1070
    77
1070
     1
1070
    78
1070
     8
1070
   140
1040
4.0
1070
   141
1040
2.5
1070
   143
1040
0.0394
1070
   147
1040
2.0
1070
   171
1070
     4
1070
   172
1070
     1
1070
   178
1070
     6
1070
   273
1070
     8
1070
   274
1070
     4
1070
   277
1070
     6
1070
   340
1005
1C
1002
}
  0
TEXT
  5
28D
100
AcDbEntity
  8
TEXT
100
AcDbText
 10
-783.0
 20
3364.442857
 30
0.0
 40
5.0
  1
%%USP 01502020
 50
90.0
 41
0.8
  7
ROMANS
 72
     1
 11
-783.0
 21
3385.0
 31
0.0
100
AcDbText
  0
LWPOLYLINE
  5
28E
100
AcDbEntity
  8
GLAS_MED_FOGNING
100
AcDbPolyline
 90
        4
 70
     0
 43
0.0
 10
-776.8
 20
3390.0
 10
-775.0
 20
3390.0
 10
-775.0
 20
3380.0
 10
-776.8
 20
3380.0
  0
HATCH
  5
28F
100
AcDbEntity
  8
GLAS_MED_FOGNING
100
AcDbHatch
 10
0.0
 20
0.0
 30
0.0
210
0.0
220
0.0
230
1.0
  2
AR-SAND
 70
     0
 71
     0
 91
        1
 92
        7
 72
     1
 73
     1
 93
       10
 10
-754.6755830950901
 20
3375.729708513351
 42
0.0
 10
-754.9845339583908
 20
3374.288996633213
 42
0.0
 10
-758.9999999999999
 20
3374.288996633213
 42
0.0
 10
-758.9999999999999
 20
3379.540502912076
 42
0.0
 10
-749.8564804210036
 20
3379.540502912076
 42
0.0
 10
-750.2378420395362
 20
3379.436562692331
 42
0.0
 10
-750.5414812958456
 20
3379.316246359808
 42
0.0388476704749722
 10
-751.4666182260002
 20
3378.949663053453
 42
0.0
 10
-752.2486915257831
 20
3378.639768370081
 42
0.0
 10
-753.774158581793
 20
3377.254023851968
 42
0.0
 97
        0
 75
     0
 76
     1
 52
0.0
 41
1.0
 77
     0
 78
     4
 53
322.5
 43
2150.0
 44
5917.288997
 45
-0.0629933581096082
 46
-1.926823769013158
 79
     6
 49
0.0
 49
-1.52
 49
0.0
 49
-1.7
 49
0.0
 49
-1.625
 53
352.5
 43
2150.0
 44
5917.288997
 45
1.769776705267727
 46
-2.82214606522974
 79
     6
 49
0.0
 49
-0.82
 49
0.0
 49
-1.37
 49
0.0
 49
-0.525
 53
32.5
 43
2148.77
 44
5917.288997
 45
3.114141861751495
 46
-0.0056590535369645
 79
     6
 49
0.0
 49
-0.5
 49
0.0
 49
-1.8
 49
0.0
 49
-2.35
 53
42.5
 43
2148.77
 44
5917.288997
 45
3.006126604572293
 46
-0.877675564934249
 79
     6
 49
0.0
 49
-0.25
 49
0.0
 49
-1.18
 49
0.0
 49
-1.35
 47
0.034644
 98
        1
 10
-757.726517
 20
3377.150096
  0
HATCH
  5
290
100
AcDbEntity
  8
GLAS_MED_FOGNING
100
AcDbHatch
 10
0.0
 20
0.0
 30
0.0
210
0.0
220
0.0
230
1.0
  2
AR-SAND
 70
     0
 71
     0
 91
        1
 92
        7
 72
     1
 73
     1
 93
       10
 10
-754.6755830950901
 20
3393.362040131281
 42
0.0
 10
-754.9845339583908
 20
3394.802752011419
 42
0.0
 10
-758.9999999999999
 20
3394.802752011419
 42
0.0
 10
-758.9999999999999
 20
3389.551245732556
 42
0.0
 10
-749.8564804210036
 20
3389.551245732556
 42
0.0
 10
-750.2378420395362
 20
3389.655185952301
 42
0.0
 10
-750.5414812958456
 20
3389.775502284823
 42
-0.0388476704749722
 10
-751.4666182260002
 20
3390.142085591179
 42
0.0
 10
-752.2486915257831
 20
3390.451980274551
 42
0.0
 10
-753.774158581793
 20
3391.837724792664
 42
0.0
 97
        0
 75
     0
 76
     1
 52
0.0
 41
1.0
 77
     0
 78
     4
 53
37.5
 43
2150.0
 44
851.802752
 45
-0.0629933581096082
 46
1.926823769013158
 79
     6
 49
0.0
 49
-1.52
 49
0.0
 49
-1.7
 49
0.0
 49
-1.625
 53
7.5
 43
2150.0
 44
851.802752
 45
1.769776705267727
 46
2.82214606522974
 79
     6
 49
0.0
 49
-0.82
 49
0.0
 49
-1.37
 49
0.0
 49
-0.525
 53
327.5
 43
2148.77
 44
851.802752
 45
3.114141861751495
 46
0.0056590535369645
 79
     6
 49
0.0
 49
-0.5
 49
0.0
 49
-1.8
 49
0.0
 49
-2.35
 53
317.5
 43
2148.77
 44
851.802752
 45
3.006126604572293
 46
0.877675564934249
 79
     6
 49
0.0
 49
-0.25
 49
0.0
 49
-1.18
 49
0.0
 49
-1.35
 47
0.034644
 98
        1
 10
-757.726517
 20
3391.941653
  0
LINE
  5
291
100
AcDbEntity
  8
GLAS_MED_FOGNING
100
AcDbLine
 10
-751.0
 20
3379.522938
 30
0.0
 11
-770.0
 21
3379.522938
 31
0.0
  0
LINE
  5
292
100
AcDbEntity
  8
GLAS_MED_FOGNING
100
AcDbLine
 10
-751.0
 20
3389.568811
 30
0.0
 11
-770.0
 21
3389.568811
 31
0.0
  0
LINE
  5
293
100
AcDbEntity
  8
GLAS_MED_FOGNING
100
AcDbLine
 10
-759.0
 20
3374.522938
 30
0.0
 11
-759.0
 21
3379.522938
 31
0.0
  0
LINE
  5
294
100
AcDbEntity
  8
GLAS_MED_FOGNING
100
AcDbLine
 10
-760.0
 20
3374.522938
 30
0.0
 11
-760.0
 21
3379.522938
 31
0.0
  0
LINE
  5
295
100
AcDbEntity
  8
GLAS_MED_FOGNING
100
AcDbLine
 10
-761.0
 20
3374.522938
 30
0.0
 11
-761.0
 21
3379.522938
 31
0.0
  0
LINE
  5
296
100
AcDbEntity
  8
GLAS_MED_FOGNING
100
AcDbLine
 10
-759.0
 20
3389.568811
 30
0.0
 11
-759.0
 21
3395.568811
 31
0.0
  0
LINE
  5
297
100
AcDbEntity
  8
GLAS_MED_FOGNING
100
AcDbLine
 10
-761.0
 20
3389.568811
 30
0.0
 11
-761.0
 21
3395.568811
 31
0.0
  0
LINE
  5
298
100
AcDbEntity
  8
GLAS_MED_FOGNING
100
AcDbLine
 10
-760.0
 20
3389.568811
 30
0.0
 11
-760.0
 21
3395.568811
 31
0.0
  0
LINE
  5
299
100
AcDbEntity
  8
GLAS_MED_FOGNING
100
AcDbLine
 10
-762.0
 20
3374.522938
 30
0.0
 11
-762.0
 21
3379.522938
 31
0.0
  0
LINE
  5
29A
100
AcDbEntity
  8
GLAS_MED_FOGNING
100
AcDbLine
 10
-769.0
 20
3374.522938
 30
0.0
 11
-769.0
 21
3379.522938
 31
0.0
  0
LINE
  5
29B
100
AcDbEntity
  8
GLAS_MED_FOGNING
100
AcDbLine
 10
-763.0
 20
3374.522938
 30
0.0
 11
-763.0
 21
3379.522938
 31
0.0
  0
LINE
  5
29C
100
AcDbEntity
  8
GLAS_MED_FOGNING
100
AcDbLine
 10
-764.0
 20
3374.522938
 30
0.0
 11
-764.0
 21
3379.522938
 31
0.0
  0
LINE
  5
29D
100
AcDbEntity
  8
GLAS_MED_FOGNING
100
AcDbLine
 10
-765.0
 20
3374.522938
 30
0.0
 11
-765.0
 21
3379.522938
 31
0.0
  0
LINE
  5
29E
100
AcDbEntity
  8
GLAS_MED_FOGNING
100
AcDbLine
 10
-766.0
 20
3374.522938
 30
0.0
 11
-766.0
 21
3379.522938
 31
0.0
  0
LINE
  5
29F
100
AcDbEntity
  8
GLAS_MED_FOGNING
100
AcDbLine
 10
-767.0
 20
3374.522938
 30
0.0
 11
-767.0
 21
3379.522938
 31
0.0
  0
LINE
  5
2A0
100
AcDbEntity
  8
GLAS_MED_FOGNING
100
AcDbLine
 10
-768.0
 20
3374.522938
 30
0.0
 11
-768.0
 21
3379.522938
 31
0.0
  0
LINE
  5
2A1
100
AcDbEntity
  8
GLAS_MED_FOGNING
100
AcDbLine
 10
-762.0
 20
3389.568811
 30
0.0
 11
-762.0
 21
3395.568811
 31
0.0
  0
LINE
  5
2A2
100
AcDbEntity
  8
GLAS_MED_FOGNING
100
AcDbLine
 10
-769.0
 20
3389.568811
 30
0.0
 11
-769.0
 21
3395.568811
 31
0.0
  0
LINE
  5
2A3
100
AcDbEntity
  8
GLAS_MED_FOGNING
100
AcDbLine
 10
-763.0
 20
3389.568811
 30
0.0
 11
-763.0
 21
3395.568811
 31
0.0
  0
LINE
  5
2A4
100
AcDbEntity
  8
GLAS_MED_FOGNING
100
AcDbLine
 10
-764.0
 20
3389.568811
 30
0.0
 11
-764.0
 21
3395.568811
 31
0.0
  0
LINE
  5
2A5
100
AcDbEntity
  8
GLAS_MED_FOGNING
100
AcDbLine
 10
-765.0
 20
3389.568811
 30
0.0
 11
-765.0
 21
3395.568811
 31
0.0
  0
LINE
  5
2A6
100
AcDbEntity
  8
GLAS_MED_FOGNING
100
AcDbLine
 10
-767.0
 20
3389.568811
 30
0.0
 11
-767.0
 21
3395.568811
 31
0.0
  0
LINE
  5
2A7
100
AcDbEntity
  8
GLAS_MED_FOGNING
100
AcDbLine
 10
-766.0
 20
3389.568811
 30
0.0
 11
-766.0
 21
3395.568811
 31
0.0
  0
LINE
  5
2A8
100
AcDbEntity
  8
GLAS_MED_FOGNING
100
AcDbLine
 10
-768.0
 20
3389.568811
 30
0.0
 11
-768.0
 21
3395.568811
 31
0.0
  0
LINE
  5
2A9
100
AcDbEntity
  8
GLAS_MED_FOGNING
100
AcDbLine
 10
-770.0
 20
3379.522938
 30
0.0
 11
-770.0
 21
3389.568811
 31
0.0
  0
ARC
  5
2AA
100
AcDbEntity
  8
GLAS_MED_FOGNING
100
AcDbCircle
 10
-748.648503
 20
3395.903428
 30
0.0
 40
6.413645
100
AcDbArc
 50
177.525057
 51
266.355723
  0
ARC
  5
2AB
100
AcDbEntity
  8
GLAS_MED_FOGNING
100
AcDbCircle
 10
-748.648503
 20
3373.18832
 30
0.0
 40
6.413645
100
AcDbArc
 50
93.644277
 51
182.474943
  0
DIMENSION
  5
2AC
100
AcDbEntity
  8
DIMENSION
100
AcDbDimension
  2
*D41
 10
-745.0
 20
3560.0
 30
0.0
 11
-755.0
 21
3564.0
 31
0.0
 70
    32
  3
STANDARD
100
AcDbAlignedDimension
 13
-765.0
 23
3545.0
 33
0.0
 14
-745.0
 24
3545.0
 34
0.0
100
AcDbRotatedDimension
1001
ACAD
1000
DSTYLE
1002
{
1070
   270
1070
     8
1070
    41
1040
2.5
1070
    42
1040
0.625
1070
    43
1040
3.75
1070
    44
1040
1.25
1070
    73
1070
     0
1070
    74
1070
     0
1070
    77
1070
     1
1070
    78
1070
     8
1070
   140
1040
4.0
1070
   141
1040
2.5
1070
   143
1040
0.0394
1070
   147
1040
2.0
1070
   171
1070
     4
1070
   172
1070
     1
1070
   178
1070
     6
1070
   273
1070
     8
1070
   274
1070
     4
1070
   277
1070
     6
1070
   340
1005
1C
1002
}
  0
INSERT
  5
2B9
100
AcDbEntity
  8
0
100
AcDbBlockReference
  2
SP41520
 10
-790.0
 20
3530.0
 30
0.0
 50
270.0
  0
INSERT
  5
2BA
100
AcDbEntity
  8
GLAS_MED_FOGNING
100
AcDbBlockReference
  2
*X2
 10
-790.0
 20
3467.533941
 30
0.0
 50
270.0
1001
ACAD
1000
HATCH
1002
{
1070
    16
1000
AR-SAND
1040
2.0
1040
0.0
1002
}
  0
LWPOLYLINE
  5
2BB
100
AcDbEntity
  8
GLAS_MED_FOGNING
100
AcDbPolyline
 90
        4
 70
     0
 43
0.0
 10
-766.8
 20
3525.0
 10
-765.0
 20
3525.0
 10
-765.0
 20
3515.0
 10
-766.8
 20
3515.0
  0
LINE
  5
2BC
100
AcDbEntity
  8
GLAS_MED_FOGNING
100
AcDbLine
 10
-760.0
 20
3514.522938
 30
0.0
 11
-760.0
 21
3524.568811
 31
0.0
  0
LINE
  5
2BD
100
AcDbEntity
  8
GLAS_MED_FOGNING
100
AcDbLine
 10
-759.0
 20
3524.568811
 30
0.0
 11
-759.0
 21
3530.568811
 31
0.0
  0
LINE
  5
2BE
100
AcDbEntity
  8
GLAS_MED_FOGNING
100
AcDbLine
 10
-759.0
 20
3509.522938
 30
0.0
 11
-759.0
 21
3514.522938
 31
0.0
  0
INSERT
  5
2BF
100
AcDbEntity
  8
GLAS_MED_FOGNING
100
AcDbBlockReference
  2
*X3
 10
-790.0
 20
3482.0
 30
0.0
 50
270.0
1001
ACAD
1000
HATCH
1002
{
1070
    16
1000
AR-SAND
1040
2.0
1040
0.0
1002
}
  0
LINE
  5
2C0
100
AcDbEntity
  8
GLAS_MED_FOGNING
100
AcDbLine
 10
-758.0
 20
3524.568811
 30
0.0
 11
-758.0
 21
3530.568811
 31
0.0
  0
LINE
  5
2C1
100
AcDbEntity
  8
GLAS_MED_FOGNING
100
AcDbLine
 10
-756.0
 20
3524.568811
 30
0.0
 11
-756.0
 21
3530.568811
 31
0.0
  0
LINE
  5
2C2
100
AcDbEntity
  8
GLAS_MED_FOGNING
100
AcDbLine
 10
-757.0
 20
3524.568811
 30
0.0
 11
-757.0
 21
3530.568811
 31
0.0
  0
LINE
  5
2C3
100
AcDbEntity
  8
GLAS_MED_FOGNING
100
AcDbLine
 10
-755.0
 20
3524.568811
 30
0.0
 11
-755.0
 21
3530.568811
 31
0.0
  0
LINE
  5
2C4
100
AcDbEntity
  8
GLAS_MED_FOGNING
100
AcDbLine
 10
-754.0
 20
3524.568811
 30
0.0
 11
-754.0
 21
3530.568811
 31
0.0
  0
LINE
  5
2C5
100
AcDbEntity
  8
GLAS_MED_FOGNING
100
AcDbLine
 10
-753.0
 20
3524.568811
 30
0.0
 11
-753.0
 21
3530.568811
 31
0.0
  0
LINE
  5
2C6
100
AcDbEntity
  8
GLAS_MED_FOGNING
100
AcDbLine
 10
-752.0
 20
3524.568811
 30
0.0
 11
-752.0
 21
3530.568811
 31
0.0
  0
LINE
  5
2C7
100
AcDbEntity
  8
GLAS_MED_FOGNING
100
AcDbLine
 10
-750.0
 20
3524.568811
 30
0.0
 11
-750.0
 21
3530.568811
 31
0.0
  0
LINE
  5
2C8
100
AcDbEntity
  8
GLAS_MED_FOGNING
100
AcDbLine
 10
-751.0
 20
3524.568811
 30
0.0
 11
-751.0
 21
3530.568811
 31
0.0
  0
LINE
  5
2C9
100
AcDbEntity
  8
GLAS_MED_FOGNING
100
AcDbLine
 10
-749.0
 20
3524.568811
 30
0.0
 11
-749.0
 21
3530.568811
 31
0.0
  0
LINE
  5
2CA
100
AcDbEntity
  8
GLAS_MED_FOGNING
100
AcDbLine
 10
-758.0
 20
3509.522938
 30
0.0
 11
-758.0
 21
3514.522938
 31
0.0
  0
LINE
  5
2CB
100
AcDbEntity
  8
GLAS_MED_FOGNING
100
AcDbLine
 10
-757.0
 20
3509.522938
 30
0.0
 11
-757.0
 21
3514.522938
 31
0.0
  0
LINE
  5
2CC
100
AcDbEntity
  8
GLAS_MED_FOGNING
100
AcDbLine
 10
-756.0
 20
3509.522938
 30
0.0
 11
-756.0
 21
3514.522938
 31
0.0
  0
LINE
  5
2CD
100
AcDbEntity
  8
GLAS_MED_FOGNING
100
AcDbLine
 10
-755.0
 20
3509.522938
 30
0.0
 11
-755.0
 21
3514.522938
 31
0.0
  0
LINE
  5
2CE
100
AcDbEntity
  8
GLAS_MED_FOGNING
100
AcDbLine
 10
-754.0
 20
3509.522938
 30
0.0
 11
-754.0
 21
3514.522938
 31
0.0
  0
LINE
  5
2CF
100
AcDbEntity
  8
GLAS_MED_FOGNING
100
AcDbLine
 10
-753.0
 20
3509.522938
 30
0.0
 11
-753.0
 21
3514.522938
 31
0.0
  0
LINE
  5
2D0
100
AcDbEntity
  8
GLAS_MED_FOGNING
100
AcDbLine
 10
-752.0
 20
3509.522938
 30
0.0
 11
-752.0
 21
3514.522938
 31
0.0
  0
LINE
  5
2D1
100
AcDbEntity
  8
GLAS_MED_FOGNING
100
AcDbLine
 10
-751.0
 20
3509.522938
 30
0.0
 11
-751.0
 21
3514.522938
 31
0.0
  0
LINE
  5
2D2
100
AcDbEntity
  8
GLAS_MED_FOGNING
100
AcDbLine
 10
-750.0
 20
3509.522938
 30
0.0
 11
-750.0
 21
3514.522938
 31
0.0
  0
LINE
  5
2D3
100
AcDbEntity
  8
GLAS_MED_FOGNING
100
AcDbLine
 10
-749.0
 20
3509.522938
 30
0.0
 11
-749.0
 21
3514.522938
 31
0.0
  0
LWPOLYLINE
  5
2D4
100
AcDbEntity
  8
CENTRUM
100
AcDbPolyline
 90
        4
 70
     0
 43
0.0
 10
-732.5
 20
3491.148262
 10
-732.5
 20
3532.0
 10
-732.5
 20
3538.0
 10
-732.5
 20
3547.0
  0
LWPOLYLINE
  5
2D5
100
AcDbEntity
  8
CENTRUM
100
AcDbPolyline
 90
        4
 70
     0
 43
0.0
 10
-742.5
 20
3356.148262
 10
-742.5
 20
3397.0
 10
-742.5
 20
3403.0
 10
-742.5
 20
3412.0
  0
LINE
  5
2D6
100
AcDbEntity
  8
GLAS_MED_FOGNING
100
AcDbLine
 10
-732.5
 20
3524.568811
 30
0.0
 11
-741.0
 21
3524.568811
 31
0.0
  0
LINE
  5
2D7
100
AcDbEntity
  8
GLAS_MED_FOGNING
100
AcDbLine
 10
-732.5
 20
3514.522938
 30
0.0
 11
-741.0
 21
3514.522938
 31
0.0
  0
TEXT
  5
2EC
100
AcDbEntity
  8
TEXT
100
AcDbText
 10
-1124.622387
 20
3677.174933
 30
0.0
 40
8.0
  1
ALLOWED FOR REPLACING NORMAL GLAZING ACCORDING TO THE SAMPLES DRAWING.
 41
0.8
  7
ROMANT
100
AcDbText
  0
TEXT
  5
2ED
100
AcDbEntity
  8
TEXT
100
AcDbText
 10
-1132.314285
 20
3690.205042
 30
0.0
 40
8.0
  1
 COULD BE SECURED WITH TYPE FIXING SCREW FOR EXTERN PARTIONS.
 41
0.8
  7
ROMANT
100
AcDbText
  0
TEXT
  5
2EE
100
AcDbEntity
  8
TEXT
100
AcDbText
 10
-1124.622387
 20
3714.60561
 30
0.0
 40
8.0
  1
PROFILES WITH ONE GLASS BEAD ON EACH SIDE AT THE GLASS CENTERED
 41
0.8
  7
ROMANT
100
AcDbText
  0
TEXT
  5
2F0
100
AcDbEntity
  8
TEXT
100
AcDbText
 10
-1124.622387
 20
3702.629776
 30
0.0
 40
8.0
  1
PLACED, SP 40000 ELLER SP 90000.
 41
0.8
  7
ROMANT
100
AcDbText
  0
ENDSEC
  0
SECTION
  2
OBJECTS
  0
DICTIONARY
  5
1A
100
AcDbDictionary
  3
ACAD_GROUP
350
18
  3
ACAD_LAYOUT
350
2DB
  3
ACAD_MLINESTYLE
350
19
  3
ACAD_PLOTSETTINGS
350
2DC
  3
ACAD_PLOTSTYLENAME
350
2D9
  3
ACDBHEADERROUNDTRIPXREC
350
2F4
  0
DICTIONARY
  5
2F2
100
AcDbDictionary
280
     1
  3
ACAD_XREC_ROUNDTRIP
360
2F3
  0
DICTIONARY
  5
326
100
AcDbDictionary
280
     1
  3
ACAD_XREC_ROUNDTRIP
360
327
  0
DICTIONARY
  5
315
100
AcDbDictionary
280
     1
  3
ACAD_LAYOUTSELFREF
360
316
  0
DICTIONARY
  5
317
100
AcDbDictionary
280
     1
  3
ACAD_LAYOUTSELFREF
360
318
  0
DICTIONARY
  5
18
102
{ACAD_REACTORS
330
1A
102
}
100
AcDbDictionary
  0
DICTIONARY
  5
2DB
102
{ACAD_XDICTIONARY
360
3E8
102
}
102
{ACAD_REACTORS
330
1A
102
}
100
AcDbDictionary
  3
LAYOUT1
350
2DE
  3
MODEL
350
2DD
  0
DICTIONARY
  5
19
102
{ACAD_REACTORS
330
1A
102
}
100
AcDbDictionary
  3
STANDARD
350
1D
  0
DICTIONARY
  5
2DC
102
{ACAD_REACTORS
330
1A
102
}
100
AcDbDictionary
  0
ACAD_PROXY_OBJECT
  5
2D9
102
{ACAD_REACTORS
330
1A
102
}
100
AcDbProxyObject
 90
      499
 91
      503
 93
       86
310
405010041939BDC9B585B2
350
2DA
340
2DA
 94
        0
  0
DICTIONARY
  5
2F4
102
{ACAD_REACTORS
330
1A
102
}
100
AcDbDictionary
  3
CEPSNTYPE
350
2FE
  3
DIMSTYLEDATA
350
302
  3
FINGERPRINTGUID
350
2FF
  3
HYPERLINKBASE
350
2F7
  3
INSUNITS
350
2FD
  3
LAYOUTDICT
350
2F9
  3
LWETCUNION
350
2FC
  3
PLOTSETDICT
350
2FA
  3
PLOTSTYLNAMDICT
350
2FB
  3
PSVPSCALE
350
301
  3
PUCSBASE
350
305
  3
PUCSORGBACK
350
30B
  3
PUCSORGBOTTOM
350
307
  3
PUCSORGFRONT
350
30A
  3
PUCSORGLEFT
350
308
  3
PUCSORGRIGHT
350
309
  3
PUCSORGTOP
350
306
  3
PUCSORTHOREF
350
303
  3
PUCSORTHOVIEW
350
304
  3
STYLESHEET
350
2F8
  3
TSTACKALIGN
350
2F5
  3
TSTACKSIZE
350
2F6
  3
UCSBASE
350
30E
  3
UCSORGBACK
350
314
  3
UCSORGBOTTOM
350
310
  3
UCSORGFRONT
350
313
  3
UCSORGLEFT
350
311
  3
UCSORGRIGHT
350
312
  3
UCSORGTOP
350
30F
  3
UCSORTHOREF
350
30C
  3
UCSORTHOVIEW
350
30D
  3
VERSIONGUID
350
300
  0
XRECORD
  5
2F3
102
{ACAD_REACTORS
330
2F2
102
}
100
AcDbXrecord
102
EXTNAMES
  1
*ACTIVE
  2
*Active
102
UCS
 74
     0
 71
     1
 10
0.0
 20
0.0
 30
0.0
 10
1.0
 20
0.0
 30
0.0
 10
0.0
 20
1.0
 30
0.0
146
0.0
 79
     0
102
VIEW
281
     0
  0
XRECORD
  5
327
102
{ACAD_REACTORS
330
326
102
}
100
AcDbXrecord
102
PLOTBIT
280
     0
  0
XRECORD
  5
316
102
{ACAD_REACTORS
330
315
102
}
100
AcDbXrecord
340
2
  0
XRECORD
  5
318
102
{ACAD_REACTORS
330
317
102
}
100
AcDbXrecord
340
7
  0
DICTIONARY
  5
3E8
100
AcDbDictionary
280
     1
  3
ACAD_XREC_ROUNDTRIP
360
3E9
  0
ACAD_PROXY_OBJECT
  5
2DE
102
{ACAD_REACTORS
330
2DB
102
}
100
AcDbProxyObject
 90
      499
 91
      505
 93
     1092
310
91D4850204C617365724A65742034562F344D5620506F73745363726970742C00AAAAAA416AA591069074C61796F75743140501A800000000000000000000000000000000000000000101E900000000000241C902A6A6A10232D5E076BC5510408CB5781DAF154410232D5E076BC5510408CB5781DAF15C410232D5E076BC5
310
710408CB5781DAF15C40
330
7
330
0
340
0
340
0
 94
        0
  0
ACAD_PROXY_OBJECT
  5
2DD
102
{ACAD_REACTORS
330
2DB
102
}
100
AcDbProxyObject
 90
      499
 91
      505
 93
      668
310
91D4850204C617365724A65742034562F344D5620506F73745363726970742C01AAAAAAAAA5A69054D6F64656C901A800000000000000000000000000000000000000000000A1000000000000008902A6A6AAAA3
330
2
330
0
340
0
340
0
 94
        0
  0
MLINESTYLE
  5
1D
102
{ACAD_REACTORS
330
19
102
}
100
AcDbMlineStyle
  2
STANDARD
 70
     0
  3

 62
   256
 51
90.0
 52
90.0
 71
     2
 49
0.5
 62
   256
  6
BYLAYER
 49
-0.5
 62
   256
  6
BYLAYER
  0
ACAD_PROXY_OBJECT
  5
2DA
102
{ACAD_REACTORS
330
2D9
102
}
100
AcDbProxyObject
 90
      499
 91
      504
 93
        0
 94
        0
  0
XRECORD
  5
2FE
102
{ACAD_REACTORS
330
2F4
102
}
100
AcDbXrecord
 90
        0
  0
XRECORD
  5
302
102
{ACAD_REACTORS
330
2F4
102
}
100
AcDbXrecord
1000
DSTYLE
1002
{
1070
   277
 70
     6
1002
}
  0
XRECORD
  5
2FF
102
{ACAD_REACTORS
330
2F4
102
}
100
AcDbXrecord
  1
{DCFA0865-0BE8-11D6-AA0B-00D0B7E2A69D}
  0
XRECORD
  5
2F7
102
{ACAD_REACTORS
330
2F4
102
}
100
AcDbXrecord
  1

  0
XRECORD
  5
2FD
102
{ACAD_REACTORS
330
2F4
102
}
100
AcDbXrecord
 90
        0
  0
XRECORD
  5
2F9
102
{ACAD_REACTORS
330
2F4
102
}
100
AcDbXrecord
340
2DB
  0
XRECORD
  5
2FC
102
{ACAD_REACTORS
330
2F4
102
}
100
AcDbXrecord
 90
    14877
  0
XRECORD
  5
2FA
102
{ACAD_REACTORS
330
2F4
102
}
100
AcDbXrecord
340
2DC
  0
XRECORD
  5
2FB
102
{ACAD_REACTORS
330
2F4
102
}
100
AcDbXrecord
340
2D9
  0
XRECORD
  5
301
102
{ACAD_REACTORS
330
2F4
102
}
100
AcDbXrecord
 40
0.0
  0
XRECORD
  5
305
102
{ACAD_REACTORS
330
2F4
102
}
100
AcDbXrecord
340
0
  0
XRECORD
  5
30B
102
{ACAD_REACTORS
330
2F4
102
}
100
AcDbXrecord
 10
0.0
 20
0.0
 30
0.0
  0
XRECORD
  5
307
102
{ACAD_REACTORS
330
2F4
102
}
100
AcDbXrecord
 10
0.0
 20
0.0
 30
0.0
  0
XRECORD
  5
30A
102
{ACAD_REACTORS
330
2F4
102
}
100
AcDbXrecord
 10
0.0
 20
0.0
 30
0.0
  0
XRECORD
  5
308
102
{ACAD_REACTORS
330
2F4
102
}
100
AcDbXrecord
 10
0.0
 20
0.0
 30
0.0
  0
XRECORD
  5
309
102
{ACAD_REACTORS
330
2F4
102
}
100
AcDbXrecord
 10
0.0
 20
0.0
 30
0.0
  0
XRECORD
  5
306
102
{ACAD_REACTORS
330
2F4
102
}
100
AcDbXrecord
 10
0.0
 20
0.0
 30
0.0
  0
XRECORD
  5
303
102
{ACAD_REACTORS
330
2F4
102
}
100
AcDbXrecord
340
0
  0
XRECORD
  5
304
102
{ACAD_REACTORS
330
2F4
102
}
100
AcDbXrecord
 70
     0
  0
XRECORD
  5
2F8
102
{ACAD_REACTORS
330
2F4
102
}
100
AcDbXrecord
  1

  0
XRECORD
  5
2F5
102
{ACAD_REACTORS
330
2F4
102
}
100
AcDbXrecord
 90
        1
  0
XRECORD
  5
2F6
102
{ACAD_REACTORS
330
2F4
102
}
100
AcDbXrecord
 90
       70
  0
XRECORD
  5
30E
102
{ACAD_REACTORS
330
2F4
102
}
100
AcDbXrecord
340
0
  0
XRECORD
  5
314
102
{ACAD_REACTORS
330
2F4
102
}
100
AcDbXrecord
 10
0.0
 20
0.0
 30
0.0
  0
XRECORD
  5
310
102
{ACAD_REACTORS
330
2F4
102
}
100
AcDbXrecord
 10
0.0
 20
0.0
 30
0.0
  0
XRECORD
  5
313
102
{ACAD_REACTORS
330
2F4
102
}
100
AcDbXrecord
 10
0.0
 20
0.0
 30
0.0
  0
XRECORD
  5
311
102
{ACAD_REACTORS
330
2F4
102
}
100
AcDbXrecord
 10
0.0
 20
0.0
 30
0.0
  0
XRECORD
  5
312
102
{ACAD_REACTORS
330
2F4
102
}
100
AcDbXrecord
 10
0.0
 20
0.0
 30
0.0
  0
XRECORD
  5
30F
102
{ACAD_REACTORS
330
2F4
102
}
100
AcDbXrecord
 10
0.0
 20
0.0
 30
0.0
  0
XRECORD
  5
30C
102
{ACAD_REACTORS
330
2F4
102
}
100
AcDbXrecord
340
0
  0
XRECORD
  5
30D
102
{ACAD_REACTORS
330
2F4
102
}
100
AcDbXrecord
 70
     0
  0
XRECORD
  5
300
102
{ACAD_REACTORS
330
2F4
102
}
100
AcDbXrecord
  1
{DCFA0895-0BE8-11D6-AA0B-00D0B7E2A69D}
  0
XRECORD
  5
3E9
102
{ACAD_REACTORS
330
3E8
102
}
100
AcDbXrecord
102
EXTNAMES
  1
LAYOUT1
  2
Layout1
  1
MODEL
  2
Model
  0
ENDSEC
  0
EOF
