  0
SECTION
  2
HEADER
  9
$ACADVER
  1
AC1014
  9
$ACADMAINTVER
 70
     0
  9
$DWGCODEPAGE
  3
ANSI_1252
  9
$INSBASE
 10
-2055.0
 20
-885.0
 30
0.0
  9
$EXTMIN
 10
-2582.703239
 20
-879.930303
 30
-7.878462
  9
$EXTMAX
 10
-2065.203239
 20
-189.180303
 30
0.0
  9
$LIMMIN
 10
0.0
 20
0.0
  9
$LIMMAX
 10
420.0
 20
297.0
  9
$ORTHOMODE
 70
     1
  9
$REGENMODE
 70
     1
  9
$FILLMODE
 70
     1
  9
$QTEXTMODE
 70
     0
  9
$MIRRTEXT
 70
     1
  9
$DRAGMODE
 70
     2
  9
$LTSCALE
 40
1.0
  9
$OSMODE
 70
     0
  9
$ATTMODE
 70
     1
  9
$TEXTSIZE
 40
4.0
  9
$TRACEWID
 40
1.0
  9
$TEXTSTYLE
  7
ROMANS
  9
$CLAYER
  8
RAM
  9
$CELTYPE
  6
BYLAYER
  9
$CECOLOR
 62
   256
  9
$CELTSCALE
 40
1.0
  9
$DELOBJ
 70
     1
  9
$DISPSILH
 70
     0
  9
$DIMSCALE
 40
1.0
  9
$DIMASZ
 40
2.5
  9
$DIMEXO
 40
0.625
  9
$DIMDLI
 40
3.75
  9
$DIMRND
 40
0.0
  9
$DIMDLE
 40
0.0
  9
$DIMEXE
 40
1.25
  9
$DIMTP
 40
0.0
  9
$DIMTM
 40
0.0
  9
$DIMTXT
 40
4.0
  9
$DIMCEN
 40
2.5
  9
$DIMTSZ
 40
0.0
  9
$DIMTOL
 70
     0
  9
$DIMLIM
 70
     0
  9
$DIMTIH
 70
     0
  9
$DIMTOH
 70
     0
  9
$DIMSE1
 70
     0
  9
$DIMSE2
 70
     0
  9
$DIMTAD
 70
     1
  9
$DIMZIN
 70
     8
  9
$DIMBLK
  1

  9
$DIMASO
 70
     1
  9
$DIMSHO
 70
     1
  9
$DIMPOST
  1

  9
$DIMAPOST
  1

  9
$DIMALT
 70
     0
  9
$DIMALTD
 70
     4
  9
$DIMALTF
 40
0.0394
  9
$DIMLFAC
 40
1.0
  9
$DIMTOFL
 70
     1
  9
$DIMTVP
 40
0.0
  9
$DIMTIX
 70
     0
  9
$DIMSOXD
 70
     0
  9
$DIMSAH
 70
     0
  9
$DIMBLK1
  1

  9
$DIMBLK2
  1

  9
$DIMSTYLE
  2
STANDARD
  9
$DIMCLRD
 70
     0
  9
$DIMCLRE
 70
     0
  9
$DIMCLRT
 70
     6
  9
$DIMTFAC
 40
1.0
  9
$DIMGAP
 40
2.0
  9
$DIMJUST
 70
     0
  9
$DIMSD1
 70
     0
  9
$DIMSD2
 70
     0
  9
$DIMTOLJ
 70
     1
  9
$DIMTZIN
 70
     0
  9
$DIMALTZ
 70
     0
  9
$DIMALTTZ
 70
     0
  9
$DIMFIT
 70
     3
  9
$DIMUPT
 70
     0
  9
$DIMUNIT
 70
     8
  9
$DIMDEC
 70
     4
  9
$DIMTDEC
 70
     4
  9
$DIMALTU
 70
     8
  9
$DIMALTTD
 70
     4
  9
$DIMTXSTY
  7
ROMANS
  9
$DIMAUNIT
 70
     0
  9
$LUNITS
 70
     2
  9
$LUPREC
 70
     4
  9
$SKETCHINC
 40
1.0
  9
$FILLETRAD
 40
10.0
  9
$AUNITS
 70
     0
  9
$AUPREC
 70
     0
  9
$MENU
  1
acad
  9
$ELEVATION
 40
0.0
  9
$PELEVATION
 40
0.0
  9
$THICKNESS
 40
0.0
  9
$LIMCHECK
 70
     0
  9
$BLIPMODE
 70
     0
  9
$CHAMFERA
 40
10.0
  9
$CHAMFERB
 40
10.0
  9
$CHAMFERC
 40
20.0
  9
$CHAMFERD
 40
0.0
  9
$SKPOLY
 70
     0
  9
$TDCREATE
 40
2451083.294540393
  9
$TDUPDATE
 40
2452293.542118981
  9
$TDINDWG
 40
5.2619850694
  9
$TDUSRTIMER
 40
5.2619850694
  9
$USRTIMER
 70
     1
  9
$ANGBASE
 50
0.0
  9
$ANGDIR
 70
     0
  9
$PDMODE
 70
     0
  9
$PDSIZE
 40
0.0
  9
$PLINEWID
 40
0.0
  9
$COORDS
 70
     2
  9
$SPLFRAME
 70
     0
  9
$SPLINETYPE
 70
     6
  9
$SPLINESEGS
 70
     8
  9
$ATTDIA
 70
     0
  9
$ATTREQ
 70
     1
  9
$HANDLING
 70
     1
  9
$HANDSEED
  5
380
  9
$SURFTAB1
 70
     6
  9
$SURFTAB2
 70
     6
  9
$SURFTYPE
 70
     6
  9
$SURFU
 70
     6
  9
$SURFV
 70
     6
  9
$UCSNAME
  2

  9
$UCSORG
 10
0.0
 20
0.0
 30
0.0
  9
$UCSXDIR
 10
1.0
 20
0.0
 30
0.0
  9
$UCSYDIR
 10
0.0
 20
1.0
 30
0.0
  9
$PUCSNAME
  2

  9
$PUCSORG
 10
0.0
 20
0.0
 30
0.0
  9
$PUCSXDIR
 10
1.0
 20
0.0
 30
0.0
  9
$PUCSYDIR
 10
0.0
 20
1.0
 30
0.0
  9
$USERI1
 70
     0
  9
$USERI2
 70
     0
  9
$USERI3
 70
     0
  9
$USERI4
 70
     0
  9
$USERI5
 70
     0
  9
$USERR1
 40
0.0
  9
$USERR2
 40
0.0
  9
$USERR3
 40
0.0
  9
$USERR4
 40
0.0
  9
$USERR5
 40
0.0
  9
$WORLDVIEW
 70
     1
  9
$SHADEDGE
 70
     3
  9
$SHADEDIF
 70
    70
  9
$TILEMODE
 70
     1
  9
$MAXACTVP
 70
    48
  9
$PINSBASE
 10
0.0
 20
0.0
 30
0.0
  9
$PLIMCHECK
 70
     0
  9
$PEXTMIN
 10
1.000000E+20
 20
1.000000E+20
 30
1.000000E+20
  9
$PEXTMAX
 10
-1.000000E+20
 20
-1.000000E+20
 30
-1.000000E+20
  9
$PLIMMIN
 10
0.0
 20
0.0
  9
$PLIMMAX
 10
420.0
 20
297.0
  9
$UNITMODE
 70
     0
  9
$VISRETAIN
 70
     1
  9
$PLINEGEN
 70
     0
  9
$PSLTSCALE
 70
     1
  9
$TREEDEPTH
 70
  3020
  9
$PICKSTYLE
 70
     1
  9
$CMLSTYLE
  2
STANDARD
  9
$CMLJUST
 70
     0
  9
$CMLSCALE
 40
20.0
  9
$PROXYGRAPHICS
 70
     1
  9
$MEASUREMENT
 70
     0
  0
ENDSEC
  0
SECTION
  2
CLASSES
  0
CLASS
  1
LWPOLYLINE
  2
AcDbPolyline
  3
"AutoCAD"
 90
        0
280
     0
281
     1
  0
CLASS
  1
DICTIONARYVAR
  2
AcDbDictionaryVar
  3
"AutoCAD"
 90
        0
280
     0
281
     0
  0
CLASS
  1
HATCH
  2
AcDbHatch
  3
"ACAD_SEDONA"
 90
        0
280
     0
281
     1
  0
ENDSEC
  0
SECTION
  2
TABLES
  0
TABLE
  2
VPORT
  5
12
100
AcDbSymbolTable
 70
     1
  0
VPORT
  5
37A
100
AcDbSymbolTableRecord
100
AcDbViewportTableRecord
  2
*ACTIVE
 70
     0
 10
0.0
 20
0.0
 11
1.0
 21
1.0
 12
-2317.5
 22
-540.0
 13
0.0
 23
0.0
 14
5.0
 24
5.0
 15
10.0
 25
10.0
 16
0.0
 26
0.0
 36
1.0
 17
0.0
 27
0.0
 37
0.0
 40
730.0
 41
1.47625
 42
50.0
 43
0.0
 44
0.0
 50
0.0
 51
0.0
 71
     0
 72
   100
 73
     1
 74
     1
 75
     0
 76
     0
 77
     0
 78
     2
  0
ENDTAB
  0
TABLE
  2
LTYPE
  5
D
100
AcDbSymbolTable
 70
     2
  0
LTYPE
  5
E
100
AcDbSymbolTableRecord
100
AcDbLinetypeTableRecord
  2
BYBLOCK
 70
     0
  3

 72
    65
 73
     0
 40
0.0
  0
LTYPE
  5
F
100
AcDbSymbolTableRecord
100
AcDbLinetypeTableRecord
  2
BYLAYER
 70
     0
  3

 72
    65
 73
     0
 40
0.0
  0
LTYPE
  5
5
100
AcDbSymbolTableRecord
100
AcDbLinetypeTableRecord
  2
CONTINUOUS
 70
     0
  3
Solid line
 72
    65
 73
     0
 40
0.0
  0
LTYPE
  5
17E
100
AcDbSymbolTableRecord
100
AcDbLinetypeTableRecord
  2
DASHDOT
 70
     0
  3
__ . __ . __ . __ . __ . __ . __ . __ . __ . __
 72
    65
 73
     4
 40
1.0
 49
0.5
 74
     0
 49
-0.25
 74
     0
 49
0.0
 74
     0
 49
-0.25
 74
     0
  0
ENDTAB
  0
TABLE
  2
LAYER
  5
A
100
AcDbSymbolTable
 70
    12
  0
LAYER
  5
4
100
AcDbSymbolTableRecord
100
AcDbLayerTableRecord
  2
0
 70
     0
 62
     7
  6
CONTINUOUS
  0
LAYER
  5
97
100
AcDbSymbolTableRecord
100
AcDbLayerTableRecord
  2
STALPROFIL
 70
     0
 62
     1
  6
CONTINUOUS
  0
LAYER
  5
99
100
AcDbSymbolTableRecord
100
AcDbLayerTableRecord
  2
SPKONTUR
 70
     0
 62
     7
  6
CONTINUOUS
  0
LAYER
  5
74
100
AcDbSymbolTableRecord
100
AcDbLayerTableRecord
  2
GLAS_MED_FOGNING
 70
     0
 62
     2
  6
CONTINUOUS
  0
LAYER
  5
43
100
AcDbSymbolTableRecord
100
AcDbLayerTableRecord
  2
TEXT
 70
     0
 62
     6
  6
CONTINUOUS
  0
LAYER
  5
1B
100
AcDbSymbolTableRecord
100
AcDbLayerTableRecord
  2
RAM
 70
     0
 62
     5
  6
CONTINUOUS
  0
LAYER
  5
17D
100
AcDbSymbolTableRecord
100
AcDbLayerTableRecord
  2
CENTRUM
 70
     0
 62
     3
  6
DASHDOT
  0
LAYER
  5
14C
100
AcDbSymbolTableRecord
100
AcDbLayerTableRecord
  2
ISOLERING
 70
     0
 62
     3
  6
CONTINUOUS
  0
LAYER
  5
14E
100
AcDbSymbolTableRecord
100
AcDbLayerTableRecord
  2
FOGNINGB
 70
     0
 62
     5
  6
CONTINUOUS
  0
LAYER
  5
7D
100
AcDbSymbolTableRecord
100
AcDbLayerTableRecord
  2
DIMENSION
 70
     0
 62
     2
  6
CONTINUOUS
  0
LAYER
  5
90
100
AcDbSymbolTableRecord
100
AcDbLayerTableRecord
  2
DEFPOINTS
 70
     0
 62
     7
  6
CONTINUOUS
  0
LAYER
  5
21
100
AcDbSymbolTableRecord
100
AcDbLayerTableRecord
  2
RAMTEXT
 70
     0
 62
     6
  6
CONTINUOUS
  0
ENDTAB
  0
TABLE
  2
STYLE
  5
B
100
AcDbSymbolTable
 70
     4
  0
STYLE
  5
C
100
AcDbSymbolTableRecord
100
AcDbTextStyleTableRecord
  2
STANDARD
 70
     0
 40
0.0
 41
1.0
 50
0.0
 71
     0
 42
2.5
  3
txt
  4

  0
STYLE
  5
1C
100
AcDbSymbolTableRecord
100
AcDbTextStyleTableRecord
  2
ROMANS
 70
     0
 40
0.0
 41
0.8
 50
0.0
 71
     0
 42
4.0
  3
romans
  4

  0
STYLE
  5
22
100
AcDbSymbolTableRecord
100
AcDbTextStyleTableRecord
  2
ISO
 70
     0
 40
0.0
 41
1.0
 50
0.0
 71
     0
 42
3.15
  3
ISO.SHX
  4

  0
STYLE
  5
36E
100
AcDbSymbolTableRecord
100
AcDbTextStyleTableRecord
  2
ROMANT
 70
     0
 40
0.0
 41
0.8
 50
0.0
 71
     0
 42
5.0
  3
romant
  4

  0
ENDTAB
  0
TABLE
  2
VIEW
  5
10
100
AcDbSymbolTable
 70
     0
  0
ENDTAB
  0
TABLE
  2
UCS
  5
11
100
AcDbSymbolTable
 70
     0
  0
ENDTAB
  0
TABLE
  2
APPID
  5
14
100
AcDbSymbolTable
 70
     2
  0
APPID
  5
15
100
AcDbSymbolTableRecord
100
AcDbRegAppTableRecord
  2
ACAD
 70
     0
  0
APPID
  5
71
100
AcDbSymbolTableRecord
100
AcDbRegAppTableRecord
  2
CONTENTBLOCKICON
 70
     0
  0
ENDTAB
  0
TABLE
  2
DIMSTYLE
  5
16
100
AcDbSymbolTable
 70
     2
  0
DIMSTYLE
105
1E
102
{ACAD_REACTORS
330
223
330
1E4
102
}
100
AcDbSymbolTableRecord
100
AcDbDimStyleTableRecord
  2
STANDARD
 70
     0
  3

  4

  5

  6

  7

 40
1.0
 41
0.18
 42
0.0625
 43
0.38
 44
0.18
 45
0.0
 46
0.0
 47
0.0
 48
0.0
140
0.18
141
0.09
142
0.0
143
25.4
144
1.0
145
0.0
146
1.0
147
0.09
 71
     0
 72
     0
 73
     1
 74
     1
 75
     0
 76
     0
 77
     0
 78
     0
170
     0
171
     2
172
     0
173
     0
174
     0
175
     0
176
     0
177
     0
178
     0
270
     2
271
     4
272
     4
273
     2
274
     2
340
C
275
     0
280
     0
281
     0
282
     0
283
     1
284
     0
285
     0
286
     0
287
     3
288
     0
  0
DIMSTYLE
105
87
102
{ACAD_REACTORS
330
138
330
86
330
1D3
102
}
100
AcDbSymbolTableRecord
100
AcDbDimStyleTableRecord
  2
ROMANS
 70
     0
  3

  4

  5

  6

  7

 40
1.3
 41
3.0
 42
1.0
 43
10.0
 44
2.0
 45
0.0
 46
0.0
 47
0.0
 48
0.0
140
3.5
141
2.5
142
0.0
143
25.4
144
1.0
145
0.0
146
1.0
147
0.1
 71
     0
 72
     0
 73
     0
 74
     0
 75
     0
 76
     0
 77
     1
 78
     8
170
     0
171
     2
172
     1
173
     0
174
     0
175
     0
176
     0
177
     0
178
     6
270
     2
271
     3
272
     3
273
     2
274
     2
340
C
275
     0
280
     0
281
     0
282
     0
283
     1
284
     8
285
     8
286
     8
287
     5
288
     0
  0
ENDTAB
  0
TABLE
  2
BLOCK_RECORD
  5
1
100
AcDbSymbolTable
 70
    21
  0
BLOCK_RECORD
  5
2
100
AcDbSymbolTableRecord
100
AcDbBlockTableRecord
  2
*MODEL_SPACE
  0
BLOCK_RECORD
  5
7
100
AcDbSymbolTableRecord
100
AcDbBlockTableRecord
  2
*PAPER_SPACE
  0
BLOCK_RECORD
  5
34B
100
AcDbSymbolTableRecord
100
AcDbBlockTableRecord
  2
SP40020
  0
BLOCK_RECORD
  5
31
100
AcDbSymbolTableRecord
100
AcDbBlockTableRecord
  2
RAMA4
1001
CONTENTBLOCKICON
1071
        0
1004
2800000020000000200000000100040000000000000200000000000000000000000000000000000000000000000080000080000000808000800000008000800080800000C0C0C000808080000000FF0000FF000000FFFF00FF000000FF00FF00FFFF0000FFFFFF00FFFFFFCFFFFFFFFFFFFFFFFFFFFFFFFF
1004
FFFFF9DDCCCDDDCCCCCCDDDDDCCFFFFFFFFFF999D9CDDDFFFFCDDDDDDCCFFFFFFFFFFDDDDDDDDDDDDDCDDDDCCCCFFFFFFFFFFCCCCCCCCCCCCCCCCCCCCCCFFFFFFFFFFCFFFFFFFFFFFFFFFFFFFFCFFFFFFFFFFCFFFFFFFFFFFFFFFFFFFFCFFFFFFFFFFCFFFFFFFFFFFFFFFFFFFFCFFFFFFFFFFCFFFFFFFFFF
1004
FFFFFFFFFFCFFFFFFFFFFCFFFFFFFFFFFFFFFFFFFFCFFFFFFFFFFCFFFFFFFFFFFFFFFFFFFFCFFFFFFFFFFCFFFFFFFFFFFFFFFFFFFFCFFFFFFFFFFCFFFFFFFFFFFFFFFFFFFFCFFFFFFFFFFCFFFFFFFFFFFFFFFFFFFFCFFFFFFFFFFCFFFFFFFFFFFFFFFFFFFFCFFFFFFFFFFCFFFFFFFFFFFFFFFFFFFFCFFFFF
1004
FFFFCCFFFFFFFFFFFFFFFFFFFFCCFFFFFFFFFCFFFFFFFFFFFFFFFFFFFFCFFFFFFFFFFCFFFFFFFFFFFFFFFFFFFFCFFFFFFFFFFCFFFFFFFFFFFFFFFFFFFFCFFFFFFFFFFCFFFFFFFFFFFFFFFFFFFFCFFFFFFFFFFCFFFFFFFFFFFFFFFFFFFFCFFFFFFFFFFCFFFFFFFFFFFFFFFFFFFFCFFFFFFFFFFCFFFFFFFFFF
1004
FFFFFFFFFFCFFFFFFFFFFCFFFFFFFFFFFFFFFFFFFFCFFFFFFFFFFCFFFFFFFFFFFFFFFFFFFFCFFFFFFFFFFCFFFFFFFFFFFFFFFFFFFFCFFFFFFFFFFCFFFFFFFFFFFFFFFFFFFFCFFFFFFFFFFCFFFFFFFFFFFFFFFFFFFFCFFFFFFFFFFCFFFFFFFFFFFFFFFFFFFFCFFFFFFFFFFCCCCCCCCCCCCCCCCCCCCCCFFFFF
1004
FFFFFFCFFFFFFFFFFFFFFFFFFFFFFFFF
  0
BLOCK_RECORD
  5
A2
100
AcDbSymbolTableRecord
100
AcDbBlockTableRecord
  2
*X2
  0
BLOCK_RECORD
  5
A0
100
AcDbSymbolTableRecord
100
AcDbBlockTableRecord
  2
SP79020
  0
BLOCK_RECORD
  5
2CC
100
AcDbSymbolTableRecord
100
AcDbBlockTableRecord
  2
SP79021
  0
BLOCK_RECORD
  5
347
100
AcDbSymbolTableRecord
100
AcDbBlockTableRecord
  2
SP44020
  0
BLOCK_RECORD
  5
2F7
100
AcDbSymbolTableRecord
100
AcDbBlockTableRecord
  2
*X6
  0
BLOCK_RECORD
  5
307
100
AcDbSymbolTableRecord
100
AcDbBlockTableRecord
  2
*X7
  0
BLOCK_RECORD
  5
2E8
100
AcDbSymbolTableRecord
100
AcDbBlockTableRecord
  2
*X8
  0
BLOCK_RECORD
  5
30F
100
AcDbSymbolTableRecord
100
AcDbBlockTableRecord
  2
*X9
  0
BLOCK_RECORD
  5
2E0
100
AcDbSymbolTableRecord
100
AcDbBlockTableRecord
  2
GLAS40-4X3DK
  0
BLOCK_RECORD
  5
14F
100
AcDbSymbolTableRecord
100
AcDbBlockTableRecord
  2
*X11
  0
BLOCK_RECORD
  5
286
100
AcDbSymbolTableRecord
100
AcDbBlockTableRecord
  2
*X12
  0
BLOCK_RECORD
  5
234
100
AcDbSymbolTableRecord
100
AcDbBlockTableRecord
  2
*X13
  0
BLOCK_RECORD
  5
201
100
AcDbSymbolTableRecord
100
AcDbBlockTableRecord
  2
*X14
  0
BLOCK_RECORD
  5
26F
100
AcDbSymbolTableRecord
100
AcDbBlockTableRecord
  2
*X15
  0
BLOCK_RECORD
  5
139
100
AcDbSymbolTableRecord
100
AcDbBlockTableRecord
  2
*D16
  0
BLOCK_RECORD
  5
88
100
AcDbSymbolTableRecord
100
AcDbBlockTableRecord
  2
*D17
  0
BLOCK_RECORD
  5
224
100
AcDbSymbolTableRecord
100
AcDbBlockTableRecord
  2
*D18
  0
BLOCK_RECORD
  5
1D4
100
AcDbSymbolTableRecord
100
AcDbBlockTableRecord
  2
*D19
  0
BLOCK_RECORD
  5
1E5
100
AcDbSymbolTableRecord
100
AcDbBlockTableRecord
  2
*D20
  0
ENDTAB
  0
ENDSEC
  0
SECTION
  2
BLOCKS
  0
BLOCK
  5
3
100
AcDbEntity
  8
0
100
AcDbBlockBegin
  2
*MODEL_SPACE
 70
     2
 10
0.0
 20
0.0
 30
0.0
  3
*MODEL_SPACE
  1

  0
ENDBLK
  5
6
100
AcDbEntity
  8
0
100
AcDbBlockEnd
  0
BLOCK
  5
8
100
AcDbEntity
 67
     1
  8
0
100
AcDbBlockBegin
  2
*PAPER_SPACE
 70
     0
 10
0.0
 20
0.0
 30
0.0
  3
*PAPER_SPACE
  1

  0
ENDBLK
  5
9
100
AcDbEntity
 67
     1
  8
0
100
AcDbBlockEnd
  0
BLOCK
  5
35C
100
AcDbEntity
  8
0
100
AcDbBlockBegin
  2
SP40020
 70
     0
 10
0.0
 20
0.0
 30
0.0
  3
SP40020
  1

  0
LINE
  5
34C
100
AcDbEntity
  8
CENTRUM
100
AcDbLine
 10
-13.0
 20
34.06657
 30
0.0
 11
-13.0
 21
18.0
 31
0.0
  0
LINE
  5
34D
100
AcDbEntity
  8
GLAS_MED_FOGNING
100
AcDbLine
 10
-16.0
 20
23.5
 30
0.0
 11
-16.0
 21
22.0
 31
0.0
  0
LINE
  5
34E
100
AcDbEntity
  8
GLAS_MED_FOGNING
100
AcDbLine
 10
-15.5
 20
23.5
 30
0.0
 11
-15.5
 21
21.0
 31
0.0
  0
LINE
  5
34F
100
AcDbEntity
  8
GLAS_MED_FOGNING
100
AcDbLine
 10
-10.5
 20
23.5
 30
0.0
 11
-10.5
 21
21.0
 31
0.0
  0
LINE
  5
350
100
AcDbEntity
  8
GLAS_MED_FOGNING
100
AcDbLine
 10
-10.0
 20
23.5
 30
0.0
 11
-10.0
 21
22.0
 31
0.0
  0
LINE
  5
351
100
AcDbEntity
  8
GLAS_MED_FOGNING
100
AcDbLine
 10
-10.5
 20
21.0
 30
0.0
 11
-15.5
 21
21.0
 31
0.0
  0
LINE
  5
352
100
AcDbEntity
  8
GLAS_MED_FOGNING
100
AcDbLine
 10
-10.0
 20
22.0
 30
0.0
 11
-16.0
 21
22.0
 31
0.0
  0
LINE
  5
353
100
AcDbEntity
  8
GLAS_MED_FOGNING
100
AcDbLine
 10
-16.0
 20
22.0
 30
0.0
 11
-15.5
 21
21.0
 31
0.0
  0
LINE
  5
354
100
AcDbEntity
  8
GLAS_MED_FOGNING
100
AcDbLine
 10
-10.0
 20
22.0
 30
0.0
 11
-10.5
 21
21.0
 31
0.0
  0
LINE
  5
355
100
AcDbEntity
  8
GLAS_MED_FOGNING
100
AcDbLine
 10
-9.267949
 20
26.0
 30
0.0
 11
-16.73205
 21
26.0
 31
0.0
  0
LINE
  5
356
100
AcDbEntity
  8
GLAS_MED_FOGNING
100
AcDbLine
 10
-8.196152
 20
30.0
 30
0.0
 11
-17.803848
 21
30.0
 31
0.0
  0
ARC
  5
357
100
AcDbEntity
  8
GLAS_MED_FOGNING
100
AcDbCircle
 10
-13.0
 20
18.928391
 30
0.0
 40
12.068864
100
AcDbArc
 50
66.544514
 51
113.455486
  0
LINE
  5
358
100
AcDbEntity
  8
GLAS_MED_FOGNING
100
AcDbLine
 10
-17.803848
 20
30.0
 30
0.0
 11
-16.73205
 21
26.0
 31
0.0
  0
LINE
  5
359
100
AcDbEntity
  8
GLAS_MED_FOGNING
100
AcDbLine
 10
-16.73205
 20
26.0
 30
0.0
 11
-16.73205
 21
25.0
 31
0.0
  0
LINE
  5
35A
100
AcDbEntity
  8
GLAS_MED_FOGNING
100
AcDbLine
 10
-8.196152
 20
30.0
 30
0.0
 11
-9.267949
 21
26.0
 31
0.0
  0
LINE
  5
35B
100
AcDbEntity
  8
GLAS_MED_FOGNING
100
AcDbLine
 10
-9.267949
 20
26.0
 30
0.0
 11
-9.267949
 21
25.0
 31
0.0
  0
ENDBLK
  5
35D
100
AcDbEntity
  8
0
100
AcDbBlockEnd
  0
BLOCK
  5
6F
100
AcDbEntity
  8
0
100
AcDbBlockBegin
  2
RAMA4
 70
     2
 10
0.0
 20
0.0
 30
0.0
  3
RAMA4
  1

  0
LINE
  5
32
100
AcDbEntity
  8
RAM
100
AcDbLine
 10
-0.000033
 20
573.999992
 30
0.0
 11
-0.000033
 21
-0.000008
 31
0.0
  0
LINE
  5
33
100
AcDbEntity
  8
RAM
100
AcDbLine
 10
419.999967
 20
-0.000008
 30
0.0
 11
419.999967
 21
573.999992
 31
0.0
  0
LINE
  5
34
100
AcDbEntity
  8
RAM
100
AcDbLine
 10
419.999967
 20
573.999992
 30
0.0
 11
-0.000033
 21
573.999992
 31
0.0
  0
LINE
  5
35
100
AcDbEntity
  8
RAM
100
AcDbLine
 10
9.999967
 20
593.999992
 30
0.0
 11
9.999967
 21
573.999992
 31
0.0
  0
LINE
  5
36
100
AcDbEntity
  8
RAM
100
AcDbLine
 10
55.999967
 20
573.999992
 30
0.0
 11
55.999967
 21
593.999992
 31
0.0
  0
LINE
  5
37
100
AcDbEntity
  8
RAM
100
AcDbLine
 10
245.999967
 20
573.999992
 30
0.0
 11
245.999967
 21
593.999992
 31
0.0
  0
LINE
  5
38
100
AcDbEntity
  8
RAM
100
AcDbLine
 10
-20.000033
 20
286.999992
 30
0.0
 11
-0.000033
 21
286.999992
 31
0.0
  0
LINE
  5
39
100
AcDbEntity
  8
RAM
100
AcDbLine
 10
439.999967
 20
286.999992
 30
0.0
 11
419.999967
 21
286.999992
 31
0.0
  0
LINE
  5
3A
100
AcDbEntity
  8
RAM
100
AcDbLine
 10
249.999967
 20
19.999992
 30
0.0
 11
419.999967
 21
19.999992
 31
0.0
  0
LINE
  5
3B
100
AcDbEntity
  8
RAM
100
AcDbLine
 10
-0.000033
 20
-0.000008
 30
0.0
 11
419.999967
 21
-0.000008
 31
0.0
  0
LINE
  5
3C
100
AcDbEntity
  8
RAM
100
AcDbLine
 10
-0.000033
 20
33.999992
 30
0.0
 11
419.999967
 21
33.999992
 31
0.0
  0
LINE
  5
3D
100
AcDbEntity
  8
RAM
100
AcDbLine
 10
-0.000033
 20
49.999992
 30
0.0
 11
419.999967
 21
49.999992
 31
0.0
  0
LINE
  5
3E
100
AcDbEntity
  8
RAM
100
AcDbLine
 10
9.999967
 20
-20.000008
 30
0.0
 11
9.999967
 21
-0.000008
 31
0.0
  0
TEXT
  5
3F
100
AcDbEntity
  8
RAMTEXT
 62
     6
100
AcDbText
 10
71.999967
 20
43.999992
 30
0.0
 40
3.6
  1
Kop.
 41
0.8
  7
ROMANS
100
AcDbText
  0
ATTDEF
  5
40
100
AcDbEntity
  8
RAMTEXT
 62
     6
100
AcDbText
 10
87.214155
 20
37.261701
 30
0.0
 40
4.5
  1
 
  7
ISO
 72
     1
 11
87.999967
 21
37.261701
 31
0.0
100
AcDbAttributeDefinition
  3
Kopierad
  2
COPIED
 70
     0
  0
ATTDEF
  5
41
100
AcDbEntity
  8
RAMTEXT
 62
     6
100
AcDbText
 10
51.214155
 20
37.261701
 30
0.0
 40
4.5
  1
 
  7
ISO
 72
     1
 11
51.999967
 21
37.261701
 31
0.0
100
AcDbAttributeDefinition
  3
Ritad av
  2
DOC_DESIGNER
 70
     0
  0
TEXT
  5
42
100
AcDbEntity
  8
TEXT
 62
     1
100
AcDbText
 10
17.762344
 20
10.346862
 30
0.0
 40
9.0
  1
STALPROFIL AB
 41
0.8
  7
ROMANS
100
AcDbText
  0
LINE
  5
44
100
AcDbEntity
  8
RAM
100
AcDbLine
 10
-0.000033
 20
-0.000008
 30
0.0
 11
-0.000033
 21
49.999992
 31
0.0
  0
ATTDEF
  5
45
100
AcDbEntity
  8
RAMTEXT
 62
     6
100
AcDbText
 10
3.941003
 20
5.47778
 30
0.0
 40
6.3
  1

  7
ISO
100
AcDbAttributeDefinition
  3
Firma
  2
LG_DESC_1
 70
     0
  0
TEXT
  5
46
100
AcDbEntity
  8
RAMTEXT
 62
     6
100
AcDbText
 10
3.941003
 20
27.999992
 30
0.0
 40
3.6
  1
Firma
 41
0.8
  7
ROMANS
100
AcDbText
  0
LWPOLYLINE
  5
47
100
AcDbEntity
  8
TEXT
 62
     1
100
AcDbPolyline
 90
       12
 70
     1
 43
0.8
 10
10.159602
 20
17.422598
 42
1.000001
 10
10.088892
 20
17.351887
 10
12.031175
 20
15.409604
 42
-0.414214
 10
12.031175
 20
11.803359
 10
9.861936
 20
9.63412
 42
-0.198912
 10
8.058814
 20
8.887243
 10
6.174247
 20
8.887243
 42
1.0
 10
6.174247
 20
8.787243
 10
9.135769
 20
8.787243
 42
0.198912
 10
9.171125
 20
8.801887
 10
13.940363
 20
13.571126
 42
0.414214
 10
13.940363
 20
13.641837
  0
LWPOLYLINE
  5
48
100
AcDbEntity
  8
TEXT
 62
     1
100
AcDbPolyline
 90
       12
 70
     1
 43
1.3
 10
9.16653
 20
12.987243
 42
1.0
 10
10.085769
 20
13.906481
 10
8.143486
 20
15.848765
 42
-0.414214
 10
8.143486
 20
18.606481
 10
10.312725
 20
20.77572
 42
-0.198912
 10
11.691583
 20
21.346862
 10
13.57615
 20
21.346862
 42
1.0
 10
13.57615
 20
22.646862
 10
10.614627
 20
22.646862
 42
0.198912
 10
10.155008
 20
22.456481
 10
5.385769
 20
17.687243
 42
0.414214
 10
5.385769
 20
16.768004
  0
LWPOLYLINE
  5
49
100
AcDbEntity
  8
TEXT
 62
     1
100
AcDbPolyline
 90
       12
 70
     1
 43
0.8
 10
9.590795
 20
13.411507
 42
1.000001
 10
9.661505
 20
13.482217
 10
7.719222
 20
15.424501
 42
-0.414214
 10
7.719222
 20
19.030745
 10
9.88846
 20
21.199984
 42
-0.198912
 10
11.691583
 20
21.946862
 10
13.57615
 20
21.946862
 42
1.0
 10
13.57615
 20
22.046862
 10
10.614627
 20
22.046862
 42
0.198912
 10
10.579272
 20
22.032217
 10
5.810033
 20
17.262978
 42
0.414214
 10
5.810033
 20
17.192268
  0
LWPOLYLINE
  5
4A
100
AcDbEntity
  8
TEXT
 62
     1
100
AcDbPolyline
 90
       12
 70
     1
 43
1.3
 10
10.583866
 20
17.846862
 42
1.0
 10
9.664627
 20
16.927623
 10
11.606911
 20
14.98534
 42
-0.414214
 10
11.606911
 20
12.227623
 10
9.437672
 20
10.058384
 42
-0.198912
 10
8.058814
 20
9.487243
 10
6.174247
 20
9.487243
 42
1.0
 10
6.174247
 20
8.187243
 10
9.135769
 20
8.187243
 42
0.198912
 10
9.595389
 20
8.377623
 10
14.364627
 20
13.146862
 42
0.414214
 10
14.364627
 20
14.066101
  0
CIRCLE
  5
4B
100
AcDbEntity
  8
TEXT
 62
     1
100
AcDbCircle
 10
33.196897
 20
21.642379
 30
0.0
 40
1.021132
  0
LINE
  5
4C
100
AcDbEntity
  8
RAM
100
AcDbLine
 10
50.999967
 20
-10.000008
 30
0.0
 11
55.999967
 21
-0.000008
 31
0.0
  0
LINE
  5
4D
100
AcDbEntity
  8
RAM
100
AcDbLine
 10
55.999967
 20
-0.000008
 30
0.0
 11
60.999967
 21
-10.000008
 31
0.0
  0
ATTDEF
  5
4E
100
AcDbEntity
  8
RAMTEXT
 62
     6
100
AcDbText
 10
17.214155
 20
37.261701
 30
0.0
 40
4.5
  1
 
  7
ISO
 72
     1
 11
17.999967
 21
37.261701
 31
0.0
100
AcDbAttributeDefinition
  3
Konstrukt\U+0094r
  2
DOC_DESIGNER
 70
     0
  0
TEXT
  5
4F
100
AcDbEntity
  8
RAMTEXT
 62
     6
100
AcDbText
 10
1.999967
 20
43.999992
 30
0.0
 40
3.6
  1
Konstr.
 41
0.8
  7
ROMANS
100
AcDbText
  0
LINE
  5
50
100
AcDbEntity
  8
RAM
100
AcDbLine
 10
-0.000033
 20
49.999992
 30
0.0
 11
-0.000033
 21
63.999992
 31
0.0
  0
TEXT
  5
51
100
AcDbEntity
  8
RAMTEXT
 62
     6
100
AcDbText
 10
37.999967
 20
43.999992
 30
0.0
 40
3.6
  1
Ritad
 41
0.8
  7
ROMANS
100
AcDbText
  0
LINE
  5
52
100
AcDbEntity
  8
RAM
100
AcDbLine
 10
69.999967
 20
49.999992
 30
0.0
 11
69.999967
 21
33.999992
 31
0.0
  0
LINE
  5
53
100
AcDbEntity
  8
RAM
100
AcDbLine
 10
34.999967
 20
49.999992
 30
0.0
 11
34.999967
 21
33.999992
 31
0.0
  0
LINE
  5
54
100
AcDbEntity
  8
RAM
100
AcDbLine
 10
104.999967
 20
49.999992
 30
0.0
 11
104.999967
 21
-0.000008
 31
0.0
  0
ATTDEF
  5
55
100
AcDbEntity
  8
RAMTEXT
 62
     6
100
AcDbText
 10
109.941003
 20
5.47778
 30
0.0
 40
6.3
  1

  7
ISO
100
AcDbAttributeDefinition
  3
Titelrad 2
  2
DOC_DESC2
 70
     0
  0
ATTDEF
  5
56
100
AcDbEntity
  8
RAMTEXT
 62
     6
100
AcDbText
 10
109.941003
 20
17.47778
 30
0.0
 40
6.3
  1

  7
ISO
100
AcDbAttributeDefinition
  3
Titelrad 1 (av 2)
  2
DOC_DESC1
 70
     0
  0
TEXT
  5
57
100
AcDbEntity
  8
RAMTEXT
 62
     6
100
AcDbText
 10
109.941003
 20
27.999992
 30
0.0
 40
3.6
  1
Titel
 41
0.8
  7
ROMANS
100
AcDbText
  0
ATTDEF
  5
58
100
AcDbEntity
  8
RAMTEXT
 62
     6
100
AcDbText
 10
121.214155
 20
37.261701
 30
0.0
 40
4.5
  1
 
  7
ISO
 72
     1
 11
121.999967
 21
37.261701
 31
0.0
100
AcDbAttributeDefinition
  3
Kontrollerad
  2
CHECK
 70
     0
  0
TEXT
  5
59
100
AcDbEntity
  8
RAMTEXT
 62
     6
100
AcDbText
 10
107.999967
 20
43.999992
 30
0.0
 40
3.6
  1
Kontr.
 41
0.8
  7
ROMANS
100
AcDbText
  0
TEXT
  5
5A
100
AcDbEntity
  8
RAMTEXT
 62
     6
100
AcDbText
 10
141.999967
 20
43.999992
 30
0.0
 40
3.6
  1
Stand.
 41
0.8
  7
ROMANS
100
AcDbText
  0
ATTDEF
  5
5B
100
AcDbEntity
  8
RAMTEXT
 62
     6
100
AcDbText
 10
157.214155
 20
37.261701
 30
0.0
 40
4.5
  1
 
  7
ISO
 72
     1
 11
157.999967
 21
37.261701
 31
0.0
100
AcDbAttributeDefinition
  3
Standard
  2
STAND
 70
     0
  0
LINE
  5
5C
100
AcDbEntity
  8
RAM
100
AcDbLine
 10
139.999967
 20
49.999992
 30
0.0
 11
139.999967
 21
33.999992
 31
0.0
  0
TEXT
  5
5D
100
AcDbEntity
  8
RAMTEXT
 62
     6
100
AcDbText
 10
251.999967
 20
13.999992
 30
0.0
 40
3.6
  1
Ritn.-nr
 41
0.8
  7
ROMANS
100
AcDbText
  0
TEXT
  5
5E
100
AcDbEntity
  8
RAMTEXT
 62
     6
100
AcDbText
 10
251.999967
 20
27.999992
 30
0.0
 40
3.6
  1
Regist.nr
 41
0.8
  7
ROMANS
100
AcDbText
  0
TEXT
  5
5F
100
AcDbEntity
  8
RAMTEXT
 62
     6
100
AcDbText
 10
251.999967
 20
43.999992
 30
0.0
 40
3.6
  1
Ersätter
 41
0.8
  7
ROMANS
100
AcDbText
  0
ATTDEF
  5
60
100
AcDbEntity
  8
RAMTEXT
 62
     6
100
AcDbText
 10
295.999967
 20
5.47778
 30
0.0
 40
6.3
  1

  7
ISO
 72
     1
 11
295.999967
 21
5.47778
 31
0.0
100
AcDbAttributeDefinition
  3
Ritningsnummer
  2
DOC_FILE_NAME
 70
     0
  0
LINE
  5
61
100
AcDbEntity
  8
RAM
100
AcDbLine
 10
249.999967
 20
49.999992
 30
0.0
 11
249.999967
 21
-0.000008
 31
0.0
  0
TEXT
  5
62
100
AcDbEntity
  8
RAMTEXT
 62
     6
100
AcDbText
 10
211.999967
 20
43.999992
 30
0.0
 40
3.6
  1
Skala
 41
0.8
  7
ROMANS
100
AcDbText
  0
TEXT
  5
63
100
AcDbEntity
  8
RAMTEXT
 62
     6
100
AcDbText
 10
177.999967
 20
43.999992
 30
0.0
 40
3.6
  1
Godk.
 41
0.8
  7
ROMANS
100
AcDbText
  0
ATTDEF
  5
64
100
AcDbEntity
  8
RAMTEXT
 62
     6
100
AcDbText
 10
191.214155
 20
37.261701
 30
0.0
 40
4.5
  1
 
  7
ISO
 72
     1
 11
191.999967
 21
37.261701
 31
0.0
100
AcDbAttributeDefinition
  3
Godk\U+0084nd
  2
GODK
 70
     0
  0
LINE
  5
65
100
AcDbEntity
  8
RAM
100
AcDbLine
 10
209.999967
 20
49.999992
 30
0.0
 11
209.999967
 21
33.999992
 31
0.0
  0
LINE
  5
66
100
AcDbEntity
  8
RAM
100
AcDbLine
 10
174.999967
 20
49.999992
 30
0.0
 11
174.999967
 21
33.999992
 31
0.0
  0
ATTDEF
  5
67
100
AcDbEntity
  8
RAMTEXT
 62
     6
100
AcDbText
 10
225.865247
 20
37.261701
 30
0.0
 40
4.5
  1
1:1
  7
ISO
 72
     1
 11
229.999967
 21
37.261701
 31
0.0
100
AcDbAttributeDefinition
  3
Skala
  2
SCALE
 70
     0
  0
LINE
  5
68
100
AcDbEntity
  8
RAM
100
AcDbLine
 10
294.999967
 20
49.999992
 30
0.0
 11
294.999967
 21
19.999992
 31
0.0
  0
ATTDEF
  5
69
100
AcDbEntity
  8
RAMTEXT
 62
     6
100
AcDbText
 10
317.999967
 20
22.032344
 30
0.0
 40
4.5
  1

  7
ISO
 72
     1
 11
317.999967
 21
22.032344
 31
0.0
100
AcDbAttributeDefinition
  3
Datum
  2
DOC_LASTEDIT_DATE
 70
     0
  0
TEXT
  5
6A
100
AcDbEntity
  8
RAMTEXT
 62
     6
100
AcDbText
 10
297.999967
 20
27.999992
 30
0.0
 40
3.6
  1
Dat.
 41
0.8
  7
ROMANS
100
AcDbText
  0
ATTDEF
  5
6B
100
AcDbEntity
  8
RAMTEXT
 62
     6
100
AcDbText
 10
271.999967
 20
22.032344
 30
0.0
 40
4.5
  1

  7
ISO
 72
     1
 11
271.999967
 21
22.032344
 31
0.0
100
AcDbAttributeDefinition
  3
Registernummer
  2
REG
 70
     0
  0
TEXT
  5
6C
100
AcDbEntity
  8
RAMTEXT
 62
     6
100
AcDbText
 10
297.999967
 20
43.999992
 30
0.0
 40
3.6
  1
Ersatt av
 41
0.8
  7
ROMANS
100
AcDbText
  0
ATTDEF
  5
6D
100
AcDbEntity
  8
RAMTEXT
 62
     6
100
AcDbText
 10
317.214155
 20
37.261701
 30
0.0
 40
4.5
  1
 
  7
ISO
 72
     1
 11
317.999967
 21
37.261701
 31
0.0
100
AcDbAttributeDefinition
  3
Ersatt av
  2
REPL_BY
 70
     0
  0
ATTDEF
  5
6E
100
AcDbEntity
  8
RAMTEXT
 62
     6
100
AcDbText
 10
271.214155
 20
37.261701
 30
0.0
 40
4.5
  1
 
  7
ISO
 72
     1
 11
271.999967
 21
37.261701
 31
0.0
100
AcDbAttributeDefinition
  3
Ers\U+0084tter
  2
REPL
 70
     0
  0
ENDBLK
  5
70
100
AcDbEntity
  8
0
100
AcDbBlockEnd
  0
BLOCK
  5
12E
100
AcDbEntity
  8
0
100
AcDbBlockBegin
  2
*X2
 70
     1
 10
0.0
 20
0.0
 30
0.0
  3
*X2
  1

  0
LINE
  5
A3
100
AcDbEntity
  8
0
 62
     0
100
AcDbLine
 10
-33.167037
 20
-25.0
 30
0.0
 11
-34.17739
 21
-22.833291
 31
0.0
  0
LINE
  5
A4
100
AcDbEntity
  8
0
 62
     0
100
AcDbLine
 10
-35.498072
 20
-20.001079
 30
0.0
 11
-36.818754
 21
-17.168867
 31
0.0
  0
LINE
  5
A5
100
AcDbEntity
  8
0
 62
     0
100
AcDbLine
 10
-38.139436
 20
-14.336655
 30
0.0
 11
-39.460118
 21
-11.504443
 31
0.0
  0
LINE
  5
A6
100
AcDbEntity
  8
0
 62
     0
100
AcDbLine
 10
-40.7808
 20
-8.672231
 30
0.0
 11
-42.101482
 21
-5.84002
 31
0.0
  0
LINE
  5
A7
100
AcDbEntity
  8
0
 62
     0
100
AcDbLine
 10
-43.422164
 20
-3.007808
 30
0.0
 11
-44.742846
 21
-0.175596
 31
0.0
  0
LINE
  5
A8
100
AcDbEntity
  8
0
 62
     0
100
AcDbLine
 10
-46.063528
 20
2.656616
 30
0.0
 11
-47.38421
 21
5.488828
 31
0.0
  0
LINE
  5
A9
100
AcDbEntity
  8
0
 62
     0
100
AcDbLine
 10
-48.704892
 20
8.32104
 30
0.0
 11
-50.025575
 21
11.153251
 31
0.0
  0
LINE
  5
AA
100
AcDbEntity
  8
0
 62
     0
100
AcDbLine
 10
-51.346257
 20
13.985463
 30
0.0
 11
-52.666939
 21
16.817675
 31
0.0
  0
LINE
  5
AB
100
AcDbEntity
  8
0
 62
     0
100
AcDbLine
 10
-53.987621
 20
19.649887
 30
0.0
 11
-55.308303
 21
22.482099
 31
0.0
  0
LINE
  5
AC
100
AcDbEntity
  8
0
 62
     0
100
AcDbLine
 10
-37.009602
 20
-24.153973
 30
0.0
 11
-38.330284
 21
-21.321761
 31
0.0
  0
LINE
  5
AD
100
AcDbEntity
  8
0
 62
     0
100
AcDbLine
 10
-39.650966
 20
-18.489549
 30
0.0
 11
-40.971648
 21
-15.657337
 31
0.0
  0
LINE
  5
AE
100
AcDbEntity
  8
0
 62
     0
100
AcDbLine
 10
-42.29233
 20
-12.825125
 30
0.0
 11
-43.613012
 21
-9.992913
 31
0.0
  0
LINE
  5
AF
100
AcDbEntity
  8
0
 62
     0
100
AcDbLine
 10
-44.933694
 20
-7.160702
 30
0.0
 11
-46.254376
 21
-4.32849
 31
0.0
  0
LINE
  5
B0
100
AcDbEntity
  8
0
 62
     0
100
AcDbLine
 10
-47.575058
 20
-1.496278
 30
0.0
 11
-48.89574
 21
1.335934
 31
0.0
  0
LINE
  5
B1
100
AcDbEntity
  8
0
 62
     0
100
AcDbLine
 10
-50.216422
 20
4.168146
 30
0.0
 11
-51.537104
 21
7.000358
 31
0.0
  0
LINE
  5
B2
100
AcDbEntity
  8
0
 62
     0
100
AcDbLine
 10
-52.857786
 20
9.832569
 30
0.0
 11
-54.178468
 21
12.664781
 31
0.0
  0
LINE
  5
B3
100
AcDbEntity
  8
0
 62
     0
100
AcDbLine
 10
-55.49915
 20
15.496993
 30
0.0
 11
-56.819833
 21
18.329205
 31
0.0
  0
LINE
  5
B4
100
AcDbEntity
  8
0
 62
     0
100
AcDbLine
 10
-58.140515
 20
21.161417
 30
0.0
 11
-59.461197
 21
23.993629
 31
0.0
  0
LINE
  5
B5
100
AcDbEntity
  8
0
 62
     0
100
AcDbLine
 10
-41.162495
 20
-22.642443
 30
0.0
 11
-42.483178
 21
-19.810231
 31
0.0
  0
LINE
  5
B6
100
AcDbEntity
  8
0
 62
     0
100
AcDbLine
 10
-43.80386
 20
-16.978019
 30
0.0
 11
-45.124542
 21
-14.145807
 31
0.0
  0
LINE
  5
B7
100
AcDbEntity
  8
0
 62
     0
100
AcDbLine
 10
-46.445224
 20
-11.313596
 30
0.0
 11
-47.765906
 21
-8.481384
 31
0.0
  0
LINE
  5
B8
100
AcDbEntity
  8
0
 62
     0
100
AcDbLine
 10
-49.086588
 20
-5.649172
 30
0.0
 11
-50.40727
 21
-2.81696
 31
0.0
  0
LINE
  5
B9
100
AcDbEntity
  8
0
 62
     0
100
AcDbLine
 10
-51.727952
 20
0.015252
 30
0.0
 11
-53.048634
 21
2.847464
 31
0.0
  0
LINE
  5
BA
100
AcDbEntity
  8
0
 62
     0
100
AcDbLine
 10
-54.369316
 20
5.679675
 30
0.0
 11
-55.689998
 21
8.511887
 31
0.0
  0
LINE
  5
BB
100
AcDbEntity
  8
0
 62
     0
100
AcDbLine
 10
-57.01068
 20
11.344099
 30
0.0
 11
-58.331362
 21
14.176311
 31
0.0
  0
LINE
  5
BC
100
AcDbEntity
  8
0
 62
     0
100
AcDbLine
 10
-59.652044
 20
17.008523
 30
0.0
 11
-60.972726
 21
19.840735
 31
0.0
  0
LINE
  5
BD
100
AcDbEntity
  8
0
 62
     0
100
AcDbLine
 10
-62.293409
 20
22.672946
 30
0.0
 11
-63.378531
 21
25.0
 31
0.0
  0
LINE
  5
BE
100
AcDbEntity
  8
0
 62
     0
100
AcDbLine
 10
-43.511204
 20
-25.0
 30
0.0
 11
-43.994707
 21
-23.963125
 31
0.0
  0
LINE
  5
BF
100
AcDbEntity
  8
0
 62
     0
100
AcDbLine
 10
-45.315389
 20
-21.130913
 30
0.0
 11
-46.636071
 21
-18.298701
 31
0.0
  0
LINE
  5
C0
100
AcDbEntity
  8
0
 62
     0
100
AcDbLine
 10
-47.956753
 20
-15.466489
 30
0.0
 11
-49.277436
 21
-12.634278
 31
0.0
  0
LINE
  5
C1
100
AcDbEntity
  8
0
 62
     0
100
AcDbLine
 10
-50.598118
 20
-9.802066
 30
0.0
 11
-51.9188
 21
-6.969854
 31
0.0
  0
LINE
  5
C2
100
AcDbEntity
  8
0
 62
     0
100
AcDbLine
 10
-53.239482
 20
-4.137642
 30
0.0
 11
-54.560164
 21
-1.30543
 31
0.0
  0
LINE
  5
C3
100
AcDbEntity
  8
0
 62
     0
100
AcDbLine
 10
-55.880846
 20
1.526782
 30
0.0
 11
-57.201528
 21
4.358993
 31
0.0
  0
LINE
  5
C4
100
AcDbEntity
  8
0
 62
     0
100
AcDbLine
 10
-58.52221
 20
7.191205
 30
0.0
 11
-59.842892
 21
10.023417
 31
0.0
  0
LINE
  5
C5
100
AcDbEntity
  8
0
 62
     0
100
AcDbLine
 10
-61.163574
 20
12.855629
 30
0.0
 11
-62.484256
 21
15.687841
 31
0.0
  0
LINE
  5
C6
100
AcDbEntity
  8
0
 62
     0
100
AcDbLine
 10
-63.804938
 20
18.520053
 30
0.0
 11
-65.12562
 21
21.352264
 31
0.0
  0
LINE
  5
C7
100
AcDbEntity
  8
0
 62
     0
100
AcDbLine
 10
-66.446302
 20
24.184476
 30
0.0
 11
-66.826587
 21
25.0
 31
0.0
  0
LINE
  5
C8
100
AcDbEntity
  8
0
 62
     0
100
AcDbLine
 10
-46.95926
 20
-25.0
 30
0.0
 11
-48.147601
 21
-22.451595
 31
0.0
  0
LINE
  5
C9
100
AcDbEntity
  8
0
 62
     0
100
AcDbLine
 10
-49.468283
 20
-19.619383
 30
0.0
 11
-50.788965
 21
-16.787171
 31
0.0
  0
LINE
  5
CA
100
AcDbEntity
  8
0
 62
     0
100
AcDbLine
 10
-52.109647
 20
-13.95496
 30
0.0
 11
-53.430329
 21
-11.122748
 31
0.0
  0
LINE
  5
CB
100
AcDbEntity
  8
0
 62
     0
100
AcDbLine
 10
-54.751012
 20
-8.290536
 30
0.0
 11
-56.071694
 21
-5.458324
 31
0.0
  0
LINE
  5
CC
100
AcDbEntity
  8
0
 62
     0
100
AcDbLine
 10
-57.392376
 20
-2.626112
 30
0.0
 11
-58.713058
 21
0.2061
 31
0.0
  0
LINE
  5
CD
100
AcDbEntity
  8
0
 62
     0
100
AcDbLine
 10
-60.03374
 20
3.038311
 30
0.0
 11
-61.354422
 21
5.870523
 31
0.0
  0
LINE
  5
CE
100
AcDbEntity
  8
0
 62
     0
100
AcDbLine
 10
-62.675104
 20
8.702735
 30
0.0
 11
-63.995786
 21
11.534947
 31
0.0
  0
LINE
  5
CF
100
AcDbEntity
  8
0
 62
     0
100
AcDbLine
 10
-65.316468
 20
14.367159
 30
0.0
 11
-66.63715
 21
17.199371
 31
0.0
  0
LINE
  5
D0
100
AcDbEntity
  8
0
 62
     0
100
AcDbLine
 10
-67.957832
 20
20.031582
 30
0.0
 11
-69.278514
 21
22.863794
 31
0.0
  0
LINE
  5
D1
100
AcDbEntity
  8
0
 62
     0
100
AcDbLine
 10
-50.979813
 20
-23.772277
 30
0.0
 11
-52.300495
 21
-20.940065
 31
0.0
  0
LINE
  5
D2
100
AcDbEntity
  8
0
 62
     0
100
AcDbLine
 10
-53.621177
 20
-18.107854
 30
0.0
 11
-54.941859
 21
-15.275642
 31
0.0
  0
LINE
  5
D3
100
AcDbEntity
  8
0
 62
     0
100
AcDbLine
 10
-56.262541
 20
-12.44343
 30
0.0
 11
-57.583223
 21
-9.611218
 31
0.0
  0
LINE
  5
D4
100
AcDbEntity
  8
0
 62
     0
100
AcDbLine
 10
-58.903905
 20
-6.779006
 30
0.0
 11
-60.224587
 21
-3.946794
 31
0.0
  0
LINE
  5
D5
100
AcDbEntity
  8
0
 62
     0
100
AcDbLine
 10
-61.54527
 20
-1.114583
 30
0.0
 11
-62.865952
 21
1.717629
 31
0.0
  0
LINE
  5
D6
100
AcDbEntity
  8
0
 62
     0
100
AcDbLine
 10
-64.186634
 20
4.549841
 30
0.0
 11
-65.507316
 21
7.382053
 31
0.0
  0
LINE
  5
D7
100
AcDbEntity
  8
0
 62
     0
100
AcDbLine
 10
-66.827998
 20
10.214265
 30
0.0
 11
-68.14868
 21
13.046477
 31
0.0
  0
LINE
  5
D8
100
AcDbEntity
  8
0
 62
     0
100
AcDbLine
 10
-69.469362
 20
15.878688
 30
0.0
 11
-70.0
 21
17.016645
 31
0.0
  0
LINE
  5
D9
100
AcDbEntity
  8
0
 62
     0
100
AcDbLine
 10
-55.132707
 20
-22.260747
 30
0.0
 11
-56.453389
 21
-19.428536
 31
0.0
  0
LINE
  5
DA
100
AcDbEntity
  8
0
 62
     0
100
AcDbLine
 10
-57.774071
 20
-16.596324
 30
0.0
 11
-59.094753
 21
-13.764112
 31
0.0
  0
LINE
  5
DB
100
AcDbEntity
  8
0
 62
     0
100
AcDbLine
 10
-60.415435
 20
-10.9319
 30
0.0
 11
-61.736117
 21
-8.099688
 31
0.0
  0
LINE
  5
DC
100
AcDbEntity
  8
0
 62
     0
100
AcDbLine
 10
-63.056799
 20
-5.267476
 30
0.0
 11
-64.377481
 21
-2.435265
 31
0.0
  0
LINE
  5
DD
100
AcDbEntity
  8
0
 62
     0
100
AcDbLine
 10
-65.698163
 20
0.396947
 30
0.0
 11
-67.018846
 21
3.229159
 31
0.0
  0
LINE
  5
DE
100
AcDbEntity
  8
0
 62
     0
100
AcDbLine
 10
-68.339528
 20
6.061371
 30
0.0
 11
-69.66021
 21
8.893583
 31
0.0
  0
LINE
  5
DF
100
AcDbEntity
  8
0
 62
     0
100
AcDbLine
 10
-57.303428
 20
-25.0
 30
0.0
 11
-57.964919
 21
-23.58143
 31
0.0
  0
LINE
  5
E0
100
AcDbEntity
  8
0
 62
     0
100
AcDbLine
 10
-59.285601
 20
-20.749218
 30
0.0
 11
-60.606283
 21
-17.917006
 31
0.0
  0
LINE
  5
E1
100
AcDbEntity
  8
0
 62
     0
100
AcDbLine
 10
-61.926965
 20
-15.084794
 30
0.0
 11
-63.247647
 21
-12.252582
 31
0.0
  0
LINE
  5
E2
100
AcDbEntity
  8
0
 62
     0
100
AcDbLine
 10
-64.568329
 20
-9.42037
 30
0.0
 11
-65.889011
 21
-6.588159
 31
0.0
  0
LINE
  5
E3
100
AcDbEntity
  8
0
 62
     0
100
AcDbLine
 10
-67.209693
 20
-3.755947
 30
0.0
 11
-68.530375
 21
-0.923735
 31
0.0
  0
LINE
  5
E4
100
AcDbEntity
  8
0
 62
     0
100
AcDbLine
 10
-69.851057
 20
1.908477
 30
0.0
 11
-70.0
 21
2.227885
 31
0.0
  0
LINE
  5
E5
100
AcDbEntity
  8
0
 62
     0
100
AcDbLine
 10
-60.797131
 20
-24.902112
 30
0.0
 11
-62.117813
 21
-22.0699
 31
0.0
  0
LINE
  5
E6
100
AcDbEntity
  8
0
 62
     0
100
AcDbLine
 10
-63.438495
 20
-19.237688
 30
0.0
 11
-64.759177
 21
-16.405476
 31
0.0
  0
LINE
  5
E7
100
AcDbEntity
  8
0
 62
     0
100
AcDbLine
 10
-66.079859
 20
-13.573264
 30
0.0
 11
-67.400541
 21
-10.741052
 31
0.0
  0
LINE
  5
E8
100
AcDbEntity
  8
0
 62
     0
100
AcDbLine
 10
-68.721223
 20
-7.908841
 30
0.0
 11
-70.0
 21
-5.166494
 31
0.0
  0
LINE
  5
E9
100
AcDbEntity
  8
0
 62
     0
100
AcDbLine
 10
-64.950024
 20
-23.390582
 30
0.0
 11
-66.270707
 21
-20.55837
 31
0.0
  0
LINE
  5
EA
100
AcDbEntity
  8
0
 62
     0
100
AcDbLine
 10
-67.591389
 20
-17.726158
 30
0.0
 11
-68.912071
 21
-14.893946
 31
0.0
  0
LINE
  5
EB
100
AcDbEntity
  8
0
 62
     0
100
AcDbLine
 10
-67.647596
 20
-25.0
 30
0.0
 11
-67.782236
 21
-24.711264
 31
0.0
  0
LINE
  5
EC
100
AcDbEntity
  8
0
 62
     0
100
AcDbLine
 10
-69.102918
 20
-21.879052
 30
0.0
 11
-70.0
 21
-19.955254
 31
0.0
  0
LINE
  5
ED
100
AcDbEntity
  8
0
 62
     0
100
AcDbLine
 10
-29.718981
 20
-25.0
 30
0.0
 11
-30.024496
 21
-24.34482
 31
0.0
  0
LINE
  5
EE
100
AcDbEntity
  8
0
 62
     0
100
AcDbLine
 10
-31.345178
 20
-21.512608
 30
0.0
 11
-32.66586
 21
-18.680397
 31
0.0
  0
LINE
  5
EF
100
AcDbEntity
  8
0
 62
     0
100
AcDbLine
 10
-33.986542
 20
-15.848185
 30
0.0
 11
-35.307224
 21
-13.015973
 31
0.0
  0
LINE
  5
F0
100
AcDbEntity
  8
0
 62
     0
100
AcDbLine
 10
-36.627906
 20
-10.183761
 30
0.0
 11
-37.948588
 21
-7.351549
 31
0.0
  0
LINE
  5
F1
100
AcDbEntity
  8
0
 62
     0
100
AcDbLine
 10
-39.26927
 20
-4.519337
 30
0.0
 11
-40.589952
 21
-1.687126
 31
0.0
  0
LINE
  5
F2
100
AcDbEntity
  8
0
 62
     0
100
AcDbLine
 10
-41.910634
 20
1.145086
 30
0.0
 11
-43.231316
 21
3.977298
 31
0.0
  0
LINE
  5
F3
100
AcDbEntity
  8
0
 62
     0
100
AcDbLine
 10
-44.551999
 20
6.80951
 30
0.0
 11
-45.872681
 21
9.641722
 31
0.0
  0
LINE
  5
F4
100
AcDbEntity
  8
0
 62
     0
100
AcDbLine
 10
-47.193363
 20
12.473934
 30
0.0
 11
-48.514045
 21
15.306145
 31
0.0
  0
LINE
  5
F5
100
AcDbEntity
  8
0
 62
     0
100
AcDbLine
 10
-49.834727
 20
18.138357
 30
0.0
 11
-51.155409
 21
20.970569
 31
0.0
  0
LINE
  5
F6
100
AcDbEntity
  8
0
 62
     0
100
AcDbLine
 10
-52.476091
 20
23.802781
 30
0.0
 11
-53.034363
 21
25.0
 31
0.0
  0
LINE
  5
F7
100
AcDbEntity
  8
0
 62
     0
100
AcDbLine
 10
-27.192284
 20
-23.024138
 30
0.0
 11
-28.512966
 21
-20.191926
 31
0.0
  0
LINE
  5
F8
100
AcDbEntity
  8
0
 62
     0
100
AcDbLine
 10
-29.833648
 20
-17.359715
 30
0.0
 11
-31.15433
 21
-14.527503
 31
0.0
  0
LINE
  5
F9
100
AcDbEntity
  8
0
 62
     0
100
AcDbLine
 10
-32.475012
 20
-11.695291
 30
0.0
 11
-33.795694
 21
-8.863079
 31
0.0
  0
LINE
  5
FA
100
AcDbEntity
  8
0
 62
     0
100
AcDbLine
 10
-35.116376
 20
-6.030867
 30
0.0
 11
-36.437058
 21
-3.198655
 31
0.0
  0
LINE
  5
FB
100
AcDbEntity
  8
0
 62
     0
100
AcDbLine
 10
-37.757741
 20
-0.366444
 30
0.0
 11
-39.078423
 21
2.465768
 31
0.0
  0
LINE
  5
FC
100
AcDbEntity
  8
0
 62
     0
100
AcDbLine
 10
-40.399105
 20
5.29798
 30
0.0
 11
-41.719787
 21
8.130192
 31
0.0
  0
LINE
  5
FD
100
AcDbEntity
  8
0
 62
     0
100
AcDbLine
 10
-43.040469
 20
10.962404
 30
0.0
 11
-44.361151
 21
13.794616
 31
0.0
  0
LINE
  5
FE
100
AcDbEntity
  8
0
 62
     0
100
AcDbLine
 10
-45.681833
 20
16.626827
 30
0.0
 11
-47.002515
 21
19.459039
 31
0.0
  0
LINE
  5
FF
100
AcDbEntity
  8
0
 62
     0
100
AcDbLine
 10
-48.323197
 20
22.291251
 30
0.0
 11
-49.586307
 21
25.0
 31
0.0
  0
LINE
  5
100
100
AcDbEntity
  8
0
 62
     0
100
AcDbLine
 10
-23.03939
 20
-24.535668
 30
0.0
 11
-24.360072
 21
-21.703456
 31
0.0
  0
LINE
  5
101
100
AcDbEntity
  8
0
 62
     0
100
AcDbLine
 10
-25.680754
 20
-18.871244
 30
0.0
 11
-27.001436
 21
-16.039033
 31
0.0
  0
LINE
  5
102
100
AcDbEntity
  8
0
 62
     0
100
AcDbLine
 10
-28.322118
 20
-13.206821
 30
0.0
 11
-29.6428
 21
-10.374609
 31
0.0
  0
LINE
  5
103
100
AcDbEntity
  8
0
 62
     0
100
AcDbLine
 10
-30.963482
 20
-7.542397
 30
0.0
 11
-32.284165
 21
-4.710185
 31
0.0
  0
LINE
  5
104
100
AcDbEntity
  8
0
 62
     0
100
AcDbLine
 10
-33.604847
 20
-1.877973
 30
0.0
 11
-34.925529
 21
0.954238
 31
0.0
  0
LINE
  5
105
100
AcDbEntity
  8
0
 62
     0
100
AcDbLine
 10
-36.246211
 20
3.78645
 30
0.0
 11
-37.566893
 21
6.618662
 31
0.0
  0
LINE
  5
106
100
AcDbEntity
  8
0
 62
     0
100
AcDbLine
 10
-38.887575
 20
9.450874
 30
0.0
 11
-40.208257
 21
12.283086
 31
0.0
  0
LINE
  5
107
100
AcDbEntity
  8
0
 62
     0
100
AcDbLine
 10
-41.528939
 20
15.115298
 30
0.0
 11
-42.849621
 21
17.947509
 31
0.0
  0
LINE
  5
108
100
AcDbEntity
  8
0
 62
     0
100
AcDbLine
 10
-44.170303
 20
20.779721
 30
0.0
 11
-45.490985
 21
23.611933
 31
0.0
  0
LINE
  5
109
100
AcDbEntity
  8
0
 62
     0
100
AcDbLine
 10
-20.0
 20
-23.659281
 30
0.0
 11
-20.207178
 21
-23.214986
 31
0.0
  0
LINE
  5
10A
100
AcDbEntity
  8
0
 62
     0
100
AcDbLine
 10
-21.52786
 20
-20.382774
 30
0.0
 11
-22.848542
 21
-17.550562
 31
0.0
  0
LINE
  5
10B
100
AcDbEntity
  8
0
 62
     0
100
AcDbLine
 10
-24.169224
 20
-14.71835
 30
0.0
 11
-25.489907
 21
-11.886139
 31
0.0
  0
LINE
  5
10C
100
AcDbEntity
  8
0
 62
     0
100
AcDbLine
 10
-26.810589
 20
-9.053927
 30
0.0
 11
-28.131271
 21
-6.221715
 31
0.0
  0
LINE
  5
10D
100
AcDbEntity
  8
0
 62
     0
100
AcDbLine
 10
-29.451953
 20
-3.389503
 30
0.0
 11
-30.772635
 21
-0.557291
 31
0.0
  0
LINE
  5
10E
100
AcDbEntity
  8
0
 62
     0
100
AcDbLine
 10
-32.093317
 20
2.274921
 30
0.0
 11
-33.413999
 21
5.107132
 31
0.0
  0
LINE
  5
10F
100
AcDbEntity
  8
0
 62
     0
100
AcDbLine
 10
-34.734681
 20
7.939344
 30
0.0
 11
-36.055363
 21
10.771556
 31
0.0
  0
LINE
  5
110
100
AcDbEntity
  8
0
 62
     0
100
AcDbLine
 10
-37.376045
 20
13.603768
 30
0.0
 11
-38.696727
 21
16.43598
 31
0.0
  0
LINE
  5
111
100
AcDbEntity
  8
0
 62
     0
100
AcDbLine
 10
-40.017409
 20
19.268192
 30
0.0
 11
-41.338091
 21
22.100403
 31
0.0
  0
LINE
  5
112
100
AcDbEntity
  8
0
 62
     0
100
AcDbLine
 10
-42.658773
 20
24.932615
 30
0.0
 11
-42.690195
 21
25.0
 31
0.0
  0
LINE
  5
113
100
AcDbEntity
  8
0
 62
     0
100
AcDbLine
 10
-20.016331
 20
-16.22988
 30
0.0
 11
-21.337013
 21
-13.397668
 31
0.0
  0
LINE
  5
114
100
AcDbEntity
  8
0
 62
     0
100
AcDbLine
 10
-22.657695
 20
-10.565457
 30
0.0
 11
-23.978377
 21
-7.733245
 31
0.0
  0
LINE
  5
115
100
AcDbEntity
  8
0
 62
     0
100
AcDbLine
 10
-25.299059
 20
-4.901033
 30
0.0
 11
-26.619741
 21
-2.068821
 31
0.0
  0
LINE
  5
116
100
AcDbEntity
  8
0
 62
     0
100
AcDbLine
 10
-27.940423
 20
0.763391
 30
0.0
 11
-29.261105
 21
3.595603
 31
0.0
  0
LINE
  5
117
100
AcDbEntity
  8
0
 62
     0
100
AcDbLine
 10
-30.581787
 20
6.427814
 30
0.0
 11
-31.902469
 21
9.260026
 31
0.0
  0
LINE
  5
118
100
AcDbEntity
  8
0
 62
     0
100
AcDbLine
 10
-33.223151
 20
12.092238
 30
0.0
 11
-34.543833
 21
14.92445
 31
0.0
  0
LINE
  5
119
100
AcDbEntity
  8
0
 62
     0
100
AcDbLine
 10
-35.864515
 20
17.756662
 30
0.0
 11
-37.185197
 21
20.588874
 31
0.0
  0
LINE
  5
11A
100
AcDbEntity
  8
0
 62
     0
100
AcDbLine
 10
-38.505879
 20
23.421085
 30
0.0
 11
-39.242139
 21
25.0
 31
0.0
  0
LINE
  5
11B
100
AcDbEntity
  8
0
 62
     0
100
AcDbLine
 10
-21.146165
 20
-6.412563
 30
0.0
 11
-22.466847
 21
-3.580351
 31
0.0
  0
LINE
  5
11C
100
AcDbEntity
  8
0
 62
     0
100
AcDbLine
 10
-23.787529
 20
-0.748139
 30
0.0
 11
-25.108211
 21
2.084073
 31
0.0
  0
LINE
  5
11D
100
AcDbEntity
  8
0
 62
     0
100
AcDbLine
 10
-26.428893
 20
4.916285
 30
0.0
 11
-27.749575
 21
7.748497
 31
0.0
  0
LINE
  5
11E
100
AcDbEntity
  8
0
 62
     0
100
AcDbLine
 10
-29.070257
 20
10.580708
 30
0.0
 11
-30.390939
 21
13.41292
 31
0.0
  0
LINE
  5
11F
100
AcDbEntity
  8
0
 62
     0
100
AcDbLine
 10
-31.711621
 20
16.245132
 30
0.0
 11
-33.032304
 21
19.077344
 31
0.0
  0
LINE
  5
120
100
AcDbEntity
  8
0
 62
     0
100
AcDbLine
 10
-34.352986
 20
21.909556
 30
0.0
 11
-35.673668
 21
24.741768
 31
0.0
  0
LINE
  5
121
100
AcDbEntity
  8
0
 62
     0
100
AcDbLine
 10
-20.0
 20
-1.476141
 30
0.0
 11
-20.955317
 21
0.572543
 31
0.0
  0
LINE
  5
122
100
AcDbEntity
  8
0
 62
     0
100
AcDbLine
 10
-22.275999
 20
3.404755
 30
0.0
 11
-23.596681
 21
6.236967
 31
0.0
  0
LINE
  5
123
100
AcDbEntity
  8
0
 62
     0
100
AcDbLine
 10
-24.917363
 20
9.069179
 30
0.0
 11
-26.238045
 21
11.90139
 31
0.0
  0
LINE
  5
124
100
AcDbEntity
  8
0
 62
     0
100
AcDbLine
 10
-27.558728
 20
14.733602
 30
0.0
 11
-28.87941
 21
17.565814
 31
0.0
  0
LINE
  5
125
100
AcDbEntity
  8
0
 62
     0
100
AcDbLine
 10
-30.200092
 20
20.398026
 30
0.0
 11
-31.520774
 21
23.230238
 31
0.0
  0
LINE
  5
126
100
AcDbEntity
  8
0
 62
     0
100
AcDbLine
 10
-20.76447
 20
7.557649
 30
0.0
 11
-22.085152
 21
10.389861
 31
0.0
  0
LINE
  5
127
100
AcDbEntity
  8
0
 62
     0
100
AcDbLine
 10
-23.405834
 20
13.222073
 30
0.0
 11
-24.726516
 21
16.054284
 31
0.0
  0
LINE
  5
128
100
AcDbEntity
  8
0
 62
     0
100
AcDbLine
 10
-26.047198
 20
18.886496
 30
0.0
 11
-27.36788
 21
21.718708
 31
0.0
  0
LINE
  5
129
100
AcDbEntity
  8
0
 62
     0
100
AcDbLine
 10
-28.688562
 20
24.55092
 30
0.0
 11
-28.897971
 21
25.0
 31
0.0
  0
LINE
  5
12A
100
AcDbEntity
  8
0
 62
     0
100
AcDbLine
 10
-20.0
 20
13.312619
 30
0.0
 11
-20.573622
 21
14.542755
 31
0.0
  0
LINE
  5
12B
100
AcDbEntity
  8
0
 62
     0
100
AcDbLine
 10
-21.894304
 20
17.374966
 30
0.0
 11
-23.214986
 21
20.207178
 31
0.0
  0
LINE
  5
12C
100
AcDbEntity
  8
0
 62
     0
100
AcDbLine
 10
-24.535668
 20
23.03939
 30
0.0
 11
-25.449915
 21
25.0
 31
0.0
  0
LINE
  5
12D
100
AcDbEntity
  8
0
 62
     0
100
AcDbLine
 10
-20.382774
 20
21.52786
 30
0.0
 11
-21.703456
 21
24.360072
 31
0.0
  0
ENDBLK
  5
12F
100
AcDbEntity
  8
0
100
AcDbBlockEnd
  0
BLOCK
  5
136
100
AcDbEntity
  8
0
100
AcDbBlockBegin
  2
SP79020
 70
     0
 10
0.0
 20
0.0
 30
0.0
  3
SP79020
  1

  0
INSERT
  5
A1
100
AcDbEntity
  8
GLAS_MED_FOGNING
100
AcDbBlockReference
  2
*X2
 10
0.0
 20
0.0
 30
0.0
1001
ACAD
1000
HATCH
1002
{
1070
    16
1000
DASH
1040
25.0
1040
2.007129
1002
}
  0
LWPOLYLINE
  5
130
100
AcDbEntity
  8
SPKONTUR
100
AcDbPolyline
 90
        8
 70
     1
 43
0.0
 10
-20.0
 20
23.2
 42
-0.414214
 10
-18.2
 20
25.0
 10
-1.8
 20
25.0
 42
-0.414214
 10
0.0
 20
23.2
 10
0.0
 20
-23.2
 42
-0.414214
 10
-1.8
 20
-25.0
 10
-18.2
 20
-25.0
 42
-0.414214
 10
-20.0
 20
-23.2
  0
LWPOLYLINE
  5
131
100
AcDbEntity
  8
STALPROFIL
100
AcDbPolyline
 90
        8
 70
     1
 43
1.8
 10
-19.1
 20
23.2
 42
-0.414214
 10
-18.2
 20
24.1
 10
-1.8
 20
24.1
 42
-0.414214
 10
-0.9
 20
23.2
 10
-0.9
 20
-23.2
 42
-0.414214
 10
-1.8
 20
-24.1
 10
-18.2
 20
-24.1
 42
-0.414214
 10
-19.1
 20
-23.2
  0
LWPOLYLINE
  5
132
100
AcDbEntity
  8
STALPROFIL
100
AcDbPolyline
 90
        8
 70
     1
 43
1.8
 10
-89.1
 20
23.2
 42
-0.414214
 10
-88.2
 20
24.1
 10
-71.8
 20
24.1
 42
-0.414214
 10
-70.9
 20
23.2
 10
-70.9
 20
-23.2
 42
-0.414214
 10
-71.8
 20
-24.1
 10
-88.2
 20
-24.1
 42
-0.414214
 10
-89.1
 20
-23.2
  0
LWPOLYLINE
  5
133
100
AcDbEntity
  8
SPKONTUR
100
AcDbPolyline
 90
        8
 70
     1
 43
0.0
 10
-90.0
 20
23.2
 42
-0.414214
 10
-88.2
 20
25.0
 10
-71.8
 20
25.0
 42
-0.414214
 10
-70.0
 20
23.2
 10
-70.0
 20
-23.2
 42
-0.414214
 10
-71.8
 20
-25.0
 10
-88.2
 20
-25.0
 42
-0.414214
 10
-90.0
 20
-23.2
  0
LWPOLYLINE
  5
134
100
AcDbEntity
  8
GLAS_MED_FOGNING
100
AcDbPolyline
 90
        4
 70
     0
 43
0.0
 10
-20.0
 20
-23.2
 10
-20.0
 20
-25.0
 10
-70.0
 20
-25.0
 10
-70.0
 20
-23.2
  0
LWPOLYLINE
  5
135
100
AcDbEntity
  8
GLAS_MED_FOGNING
100
AcDbPolyline
 90
        4
 70
     0
 43
0.0
 10
-20.0
 20
23.2
 10
-20.0
 20
25.0
 10
-70.0
 20
25.0
 10
-70.0
 20
23.2
  0
ENDBLK
  5
137
100
AcDbEntity
  8
0
100
AcDbBlockEnd
  0
BLOCK
  5
2D4
100
AcDbEntity
  8
0
100
AcDbBlockBegin
  2
SP79021
 70
     0
 10
0.0
 20
0.0
 30
0.0
  3
SP79021
  1

  0
LWPOLYLINE
  5
2CD
100
AcDbEntity
  8
SPKONTUR
100
AcDbPolyline
 90
        8
 70
     1
 43
0.0
 10
-20.0
 20
23.2
 42
-0.414214
 10
-18.2
 20
25.0
 10
-1.8
 20
25.0
 42
-0.414214
 10
0.0
 20
23.2
 10
0.0
 20
-23.2
 42
-0.414214
 10
-1.8
 20
-25.0
 10
-18.2
 20
-25.0
 42
-0.414214
 10
-20.0
 20
-23.2
  0
LWPOLYLINE
  5
2CE
100
AcDbEntity
  8
STALPROFIL
100
AcDbPolyline
 90
        8
 70
     1
 43
1.8
 10
-19.1
 20
23.2
 42
-0.414214
 10
-18.2
 20
24.1
 10
-1.8
 20
24.1
 42
-0.414214
 10
-0.9
 20
23.2
 10
-0.9
 20
-23.2
 42
-0.414214
 10
-1.8
 20
-24.1
 10
-18.2
 20
-24.1
 42
-0.414214
 10
-19.1
 20
-23.2
  0
INSERT
  5
2CF
100
AcDbEntity
  8
GLAS_MED_FOGNING
100
AcDbBlockReference
  2
*X2
 10
0.0
 20
0.0
 30
0.0
1001
ACAD
1000
HATCH
1002
{
1070
    16
1000
DASH
1040
25.0
1040
2.007129
1002
}
  0
LWPOLYLINE
  5
2D0
100
AcDbEntity
  8
SPKONTUR
100
AcDbPolyline
 90
       11
 70
     1
 43
0.0
 10
-86.4
 20
25.0
 10
-71.8
 20
25.0
 42
-0.414214
 10
-70.0
 20
23.2
 10
-70.0
 20
-23.2
 42
-0.414214
 10
-71.8
 20
-25.0
 10
-88.2
 20
-25.0
 42
-0.414214
 10
-90.0
 20
-23.2
 10
-90.0
 20
43.2
 42
-0.414214
 10
-88.2
 20
45.0
 10
-88.199
 20
45.0
 42
-0.414214
 10
-86.4
 20
43.201
  0
LWPOLYLINE
  5
2D1
100
AcDbEntity
  8
STALPROFIL
100
AcDbPolyline
 90
       11
 70
     1
 43
1.8
 10
-86.4
 20
24.1
 10
-71.8
 20
24.1
 42
-0.414214
 10
-70.9
 20
23.2
 10
-70.9
 20
-23.2
 42
-0.414214
 10
-71.8
 20
-24.1
 10
-88.2
 20
-24.1
 42
-0.414214
 10
-89.1
 20
-23.2
 10
-89.1
 20
43.2
 42
-0.414214
 10
-88.199
 20
44.1
 42
-0.414214
 10
-87.3
 20
43.201
 10
-87.3
 20
25.0
 42
0.414214
  0
LWPOLYLINE
  5
2D2
100
AcDbEntity
  8
GLAS_MED_FOGNING
100
AcDbPolyline
 90
        4
 70
     0
 43
0.0
 10
-20.0
 20
-23.2
 10
-20.0
 20
-25.0
 10
-70.0
 20
-25.0
 10
-70.0
 20
-23.2
  0
LWPOLYLINE
  5
2D3
100
AcDbEntity
  8
GLAS_MED_FOGNING
100
AcDbPolyline
 90
        4
 70
     0
 43
0.0
 10
-20.0
 20
23.2
 10
-20.0
 20
25.0
 10
-70.0
 20
25.0
 10
-70.0
 20
23.2
  0
ENDBLK
  5
2D5
100
AcDbEntity
  8
0
100
AcDbBlockEnd
  0
BLOCK
  5
35E
100
AcDbEntity
  8
0
100
AcDbBlockBegin
  2
SP44020
 70
     0
 10
0.0
 20
0.0
 30
0.0
  3
SP44020
  1

  0
LWPOLYLINE
  5
348
100
AcDbEntity
  8
SPKONTUR
100
AcDbPolyline
 90
       14
 70
     0
 43
0.0
 10
-8.196152
 20
30.0
 10
-9.0
 20
27.0
 42
0.414214
 10
-7.0
 20
25.0
 10
-2.0
 20
25.0
 42
0.414214
 10
0.0
 20
27.0
 10
0.0
 20
43.0
 42
0.414214
 10
-2.0
 20
45.0
 10
-38.0
 20
45.0
 42
0.414214
 10
-40.0
 20
43.0
 10
-40.0
 20
27.0
 42
0.414214
 10
-38.0
 20
25.0
 10
-19.0
 20
25.0
 42
0.414214
 10
-17.0
 20
27.0
 10
-17.803848
 20
30.0
  0
LWPOLYLINE
  5
349
100
AcDbEntity
  8
STALPROFIL
100
AcDbPolyline
 90
       14
 70
     0
 43
1.25
 10
-7.592449
 20
29.838238
 10
-8.372969
 20
26.925296
 42
0.398381
 10
-7.0
 20
25.625
 10
-2.0
 20
25.625
 42
0.414214
 10
-0.625
 20
27.0
 10
-0.625
 20
43.0
 42
0.414214
 10
-2.0
 20
44.375
 10
-38.0
 20
44.375
 42
0.414214
 10
-39.375
 20
43.0
 10
-39.375
 20
27.0
 42
0.414214
 10
-38.0
 20
25.625
 10
-19.0
 20
25.625
 42
0.398381
 10
-17.627031
 20
26.925296
 10
-18.407551
 20
29.838238
  0
INSERT
  5
34A
100
AcDbEntity
  8
GLAS_MED_FOGNING
100
AcDbBlockReference
  2
SP40020
 10
0.0
 20
0.0
 30
0.0
  0
ENDBLK
  5
35F
100
AcDbEntity
  8
0
100
AcDbBlockEnd
  0
BLOCK
  5
2F9
100
AcDbEntity
  8
0
100
AcDbBlockBegin
  2
*X6
 70
     1
 10
0.0
 20
0.0
 30
0.0
  3
*X6
  1

  0
LINE
  5
2F8
100
AcDbEntity
  8
0
 62
     0
100
AcDbLine
 10
-59.163263
 20
41.509483
 30
0.0
 11
-59.163263
 21
41.509483
 31
0.0
  0
ENDBLK
  5
2FA
100
AcDbEntity
  8
0
100
AcDbBlockEnd
  0
BLOCK
  5
30B
100
AcDbEntity
  8
0
100
AcDbBlockBegin
  2
*X7
 70
     1
 10
0.0
 20
0.0
 30
0.0
  3
*X7
  1

  0
LINE
  5
308
100
AcDbEntity
  8
0
 62
     0
100
AcDbLine
 10
-17.139002
 20
42.153269
 30
0.0
 11
-17.139002
 21
42.153269
 31
0.0
  0
LINE
  5
309
100
AcDbEntity
  8
0
 62
     0
100
AcDbLine
 10
-17.636947
 20
44.282762
 30
0.0
 11
-17.636947
 21
44.282762
 31
0.0
  0
LINE
  5
30A
100
AcDbEntity
  8
0
 62
     0
100
AcDbLine
 10
-17.294994
 20
42.652032
 30
0.0
 11
-17.294994
 21
42.652032
 31
0.0
  0
ENDBLK
  5
30C
100
AcDbEntity
  8
0
100
AcDbBlockEnd
  0
BLOCK
  5
2F2
100
AcDbEntity
  8
0
100
AcDbBlockBegin
  2
*X8
 70
     1
 10
0.0
 20
0.0
 30
0.0
  3
*X8
  1

  0
LINE
  5
2E9
100
AcDbEntity
  8
0
 62
     0
100
AcDbLine
 10
-58.659316
 20
26.094893
 30
0.0
 11
-58.659316
 21
26.094893
 31
0.0
  0
LINE
  5
2EA
100
AcDbEntity
  8
0
 62
     0
100
AcDbLine
 10
-61.482704
 20
27.878752
 30
0.0
 11
-61.482704
 21
27.878752
 31
0.0
  0
LINE
  5
2EB
100
AcDbEntity
  8
0
 62
     0
100
AcDbLine
 10
-58.785303
 20
29.948541
 30
0.0
 11
-58.785303
 21
29.948541
 31
0.0
  0
LINE
  5
2EC
100
AcDbEntity
  8
0
 62
     0
100
AcDbLine
 10
-61.359856
 20
28.169929
 30
0.0
 11
-61.359856
 21
28.169929
 31
0.0
  0
LINE
  5
2ED
100
AcDbEntity
  8
0
 62
     0
100
AcDbLine
 10
-59.733886
 20
28.383992
 30
0.0
 11
-59.733886
 21
28.383992
 31
0.0
  0
LINE
  5
2EE
100
AcDbEntity
  8
0
 62
     0
100
AcDbLine
 10
-61.97781
 20
29.958682
 30
0.0
 11
-61.97781
 21
29.958682
 31
0.0
  0
LINE
  5
2EF
100
AcDbEntity
  8
0
 62
     0
100
AcDbLine
 10
-61.134419
 20
29.421382
 30
0.0
 11
-61.134419
 21
29.421382
 31
0.0
  0
LINE
  5
2F0
100
AcDbEntity
  8
0
 62
     0
100
AcDbLine
 10
-58.098209
 20
27.487104
 30
0.0
 11
-58.098209
 21
27.487104
 31
0.0
  0
LINE
  5
2F1
100
AcDbEntity
  8
0
 62
     0
100
AcDbLine
 10
-59.380766
 20
30.364574
 30
0.0
 11
-59.380766
 21
30.364574
 31
0.0
  0
ENDBLK
  5
2F3
100
AcDbEntity
  8
0
100
AcDbBlockEnd
  0
BLOCK
  5
319
100
AcDbEntity
  8
0
100
AcDbBlockBegin
  2
*X9
 70
     1
 10
0.0
 20
0.0
 30
0.0
  3
*X9
  1

  0
LINE
  5
310
100
AcDbEntity
  8
0
 62
     0
100
AcDbLine
 10
-16.635055
 20
26.738679
 30
0.0
 11
-16.635055
 21
26.738679
 31
0.0
  0
LINE
  5
311
100
AcDbEntity
  8
0
 62
     0
100
AcDbLine
 10
-16.761042
 20
30.592326
 30
0.0
 11
-16.761042
 21
30.592326
 31
0.0
  0
LINE
  5
312
100
AcDbEntity
  8
0
 62
     0
100
AcDbLine
 10
-17.488516
 20
28.7674
 30
0.0
 11
-17.488516
 21
28.7674
 31
0.0
  0
LINE
  5
313
100
AcDbEntity
  8
0
 62
     0
100
AcDbLine
 10
-16.447499
 20
28.904452
 30
0.0
 11
-16.447499
 21
28.904452
 31
0.0
  0
LINE
  5
314
100
AcDbEntity
  8
0
 62
     0
100
AcDbLine
 10
-16.764567
 20
25.029704
 30
0.0
 11
-16.764567
 21
25.029704
 31
0.0
  0
LINE
  5
315
100
AcDbEntity
  8
0
 62
     0
100
AcDbLine
 10
-17.536433
 20
29.500609
 30
0.0
 11
-17.536433
 21
29.500609
 31
0.0
  0
LINE
  5
316
100
AcDbEntity
  8
0
 62
     0
100
AcDbLine
 10
-17.021714
 20
27.872485
 30
0.0
 11
-17.021714
 21
27.872485
 31
0.0
  0
LINE
  5
317
100
AcDbEntity
  8
0
 62
     0
100
AcDbLine
 10
-15.031066
 20
26.048392
 30
0.0
 11
-15.031066
 21
26.048392
 31
0.0
  0
LINE
  5
318
100
AcDbEntity
  8
0
 62
     0
100
AcDbLine
 10
-14.662427
 20
25.710596
 30
0.0
 11
-14.662427
 21
25.710596
 31
0.0
  0
ENDBLK
  5
31A
100
AcDbEntity
  8
0
100
AcDbBlockEnd
  0
BLOCK
  5
326
100
AcDbEntity
  8
0
100
AcDbBlockBegin
  2
GLAS40-4X3DK
 70
     0
 10
0.0
 20
0.0
 30
0.0
  3
GLAS40-4X3DK
  1

  0
LINE
  5
2E1
100
AcDbEntity
  8
GLAS_MED_FOGNING
100
AcDbLine
 10
-18.0
 20
30.0
 30
0.0
 11
-58.0
 21
25.0
 31
0.0
  0
LINE
  5
2E2
100
AcDbEntity
  8
GLAS_MED_FOGNING
100
AcDbLine
 10
-58.0
 20
30.0
 30
0.0
 11
-18.0
 21
25.0
 31
0.0
  0
LINE
  5
2E3
100
AcDbEntity
  8
GLAS_MED_FOGNING
100
AcDbLine
 10
-18.0
 20
30.0
 30
0.0
 11
-58.0
 21
30.0
 31
0.0
  0
LINE
  5
2E4
100
AcDbEntity
  8
GLAS_MED_FOGNING
100
AcDbLine
 10
-58.0
 20
49.0
 30
0.0
 11
-58.0
 21
30.0
 31
0.0
  0
ARC
  5
2E5
100
AcDbEntity
  8
GLAS_MED_FOGNING
100
AcDbCircle
 10
-62.0
 20
47.0
 30
0.0
 40
4.0
100
AcDbArc
 50
270.0
 51
0.0
  0
LINE
  5
2E6
100
AcDbEntity
  8
GLAS_MED_FOGNING
100
AcDbLine
 10
-58.0
 20
30.0
 30
0.0
 11
-58.0
 21
25.0
 31
0.0
  0
INSERT
  5
2E7
100
AcDbEntity
  8
GLAS_MED_FOGNING
100
AcDbBlockReference
  2
*X8
 10
0.0
 20
0.0
 30
0.0
1001
ACAD
1000
HATCH
1002
{
1070
    16
1000
AR-SAND
1040
2.0
1040
0.0
1002
}
  0
LINE
  5
2F4
100
AcDbEntity
  8
GLAS_MED_FOGNING
100
AcDbLine
 10
-58.0
 20
31.0
 30
0.0
 11
-62.0
 21
31.0
 31
0.0
  0
LINE
  5
2F5
100
AcDbEntity
  8
GLAS_MED_FOGNING
100
AcDbLine
 10
-58.0
 20
41.0
 30
0.0
 11
-62.0
 21
41.0
 31
0.0
  0
INSERT
  5
2F6
100
AcDbEntity
  8
GLAS_MED_FOGNING
100
AcDbBlockReference
  2
*X6
 10
0.0
 20
0.0
 30
0.0
1001
ACAD
1000
HATCH
1002
{
1070
    16
1000
AR-SAND
1040
2.0
1040
0.0
1002
}
  0
LINE
  5
2FB
100
AcDbEntity
  8
GLAS_MED_FOGNING
100
AcDbLine
 10
-58.0
 20
39.0
 30
0.0
 11
-62.0
 21
39.0
 31
0.0
  0
LINE
  5
2FC
100
AcDbEntity
  8
GLAS_MED_FOGNING
100
AcDbLine
 10
-58.0
 20
40.0
 30
0.0
 11
-62.0
 21
40.0
 31
0.0
  0
LINE
  5
2FD
100
AcDbEntity
  8
GLAS_MED_FOGNING
100
AcDbLine
 10
-58.0
 20
37.0
 30
0.0
 11
-62.0
 21
37.0
 31
0.0
  0
LINE
  5
2FE
100
AcDbEntity
  8
GLAS_MED_FOGNING
100
AcDbLine
 10
-58.0
 20
38.0
 30
0.0
 11
-62.0
 21
38.0
 31
0.0
  0
LINE
  5
2FF
100
AcDbEntity
  8
GLAS_MED_FOGNING
100
AcDbLine
 10
-58.0
 20
36.0
 30
0.0
 11
-62.0
 21
36.0
 31
0.0
  0
LINE
  5
300
100
AcDbEntity
  8
GLAS_MED_FOGNING
100
AcDbLine
 10
-58.0
 20
35.0
 30
0.0
 11
-62.0
 21
35.0
 31
0.0
  0
LINE
  5
301
100
AcDbEntity
  8
GLAS_MED_FOGNING
100
AcDbLine
 10
-58.0
 20
33.0
 30
0.0
 11
-62.0
 21
33.0
 31
0.0
  0
LINE
  5
302
100
AcDbEntity
  8
GLAS_MED_FOGNING
100
AcDbLine
 10
-58.0
 20
34.0
 30
0.0
 11
-62.0
 21
34.0
 31
0.0
  0
LINE
  5
303
100
AcDbEntity
  8
GLAS_MED_FOGNING
100
AcDbLine
 10
-58.0
 20
32.0
 30
0.0
 11
-62.0
 21
32.0
 31
0.0
  0
LINE
  5
304
100
AcDbEntity
  8
GLAS_MED_FOGNING
100
AcDbLine
 10
-18.0
 20
49.0
 30
0.0
 11
-18.0
 21
30.0
 31
0.0
  0
ARC
  5
305
100
AcDbEntity
  8
GLAS_MED_FOGNING
100
AcDbCircle
 10
-15.0
 20
46.0
 30
0.0
 40
3.0
100
AcDbArc
 50
180.0
 51
270.0
  0
INSERT
  5
306
100
AcDbEntity
  8
GLAS_MED_FOGNING
100
AcDbBlockReference
  2
*X7
 10
0.0
 20
0.0
 30
0.0
1001
ACAD
1000
HATCH
1002
{
1070
    16
1000
AR-SAND
1040
2.0
1040
0.0
1002
}
  0
LINE
  5
30D
100
AcDbEntity
  8
GLAS_MED_FOGNING
100
AcDbLine
 10
-18.0
 20
30.0
 30
0.0
 11
-18.0
 21
25.0
 31
0.0
  0
INSERT
  5
30E
100
AcDbEntity
  8
GLAS_MED_FOGNING
100
AcDbBlockReference
  2
*X9
 10
0.0
 20
0.0
 30
0.0
1001
ACAD
1000
HATCH
1002
{
1070
    16
1000
AR-SAND
1040
2.0
1040
0.0
1002
}
  0
LINE
  5
31B
100
AcDbEntity
  8
GLAS_MED_FOGNING
100
AcDbLine
 10
-15.0
 20
31.0
 30
0.0
 11
-18.0
 21
31.0
 31
0.0
  0
LINE
  5
31C
100
AcDbEntity
  8
GLAS_MED_FOGNING
100
AcDbLine
 10
-15.0
 20
41.0
 30
0.0
 11
-18.0
 21
41.0
 31
0.0
  0
LINE
  5
31D
100
AcDbEntity
  8
GLAS_MED_FOGNING
100
AcDbLine
 10
-15.0
 20
40.0
 30
0.0
 11
-18.0
 21
40.0
 31
0.0
  0
LINE
  5
31E
100
AcDbEntity
  8
GLAS_MED_FOGNING
100
AcDbLine
 10
-15.0
 20
39.0
 30
0.0
 11
-18.0
 21
39.0
 31
0.0
  0
LINE
  5
31F
100
AcDbEntity
  8
GLAS_MED_FOGNING
100
AcDbLine
 10
-15.0
 20
38.0
 30
0.0
 11
-18.0
 21
38.0
 31
0.0
  0
LINE
  5
320
100
AcDbEntity
  8
GLAS_MED_FOGNING
100
AcDbLine
 10
-15.0
 20
37.0
 30
0.0
 11
-18.0
 21
37.0
 31
0.0
  0
LINE
  5
321
100
AcDbEntity
  8
GLAS_MED_FOGNING
100
AcDbLine
 10
-15.0
 20
36.0
 30
0.0
 11
-18.0
 21
36.0
 31
0.0
  0
LINE
  5
322
100
AcDbEntity
  8
GLAS_MED_FOGNING
100
AcDbLine
 10
-15.0
 20
35.0
 30
0.0
 11
-18.0
 21
35.0
 31
0.0
  0
LINE
  5
323
100
AcDbEntity
  8
GLAS_MED_FOGNING
100
AcDbLine
 10
-15.0
 20
34.0
 30
0.0
 11
-18.0
 21
34.0
 31
0.0
  0
LINE
  5
324
100
AcDbEntity
  8
GLAS_MED_FOGNING
100
AcDbLine
 10
-15.0
 20
33.0
 30
0.0
 11
-18.0
 21
33.0
 31
0.0
  0
LINE
  5
325
100
AcDbEntity
  8
GLAS_MED_FOGNING
100
AcDbLine
 10
-15.0
 20
32.0
 30
0.0
 11
-18.0
 21
32.0
 31
0.0
  0
ENDBLK
  5
327
100
AcDbEntity
  8
0
100
AcDbBlockEnd
  0
BLOCK
  5
178
100
AcDbEntity
  8
0
100
AcDbBlockBegin
  2
*X11
 70
     1
 10
0.0
 20
0.0
 30
0.0
  3
*X11
  1

  0
LINE
  5
150
100
AcDbEntity
  8
0
 62
     0
100
AcDbLine
 10
-70.0
 20
-70.0
 30
0.0
 11
-40.4
 21
-40.4
 31
0.0
  0
LINE
  5
151
100
AcDbEntity
  8
0
 62
     0
100
AcDbLine
 10
-75.303301
 20
-70.0
 30
0.0
 11
-45.703301
 21
-40.4
 31
0.0
  0
LINE
  5
152
100
AcDbEntity
  8
0
 62
     0
100
AcDbLine
 10
-80.606602
 20
-70.0
 30
0.0
 11
-51.006602
 21
-40.4
 31
0.0
  0
LINE
  5
153
100
AcDbEntity
  8
0
 62
     0
100
AcDbLine
 10
-85.909903
 20
-70.0
 30
0.0
 11
-56.309903
 21
-40.4
 31
0.0
  0
LINE
  5
154
100
AcDbEntity
  8
0
 62
     0
100
AcDbLine
 10
-91.213203
 20
-70.0
 30
0.0
 11
-61.613203
 21
-40.4
 31
0.0
  0
LINE
  5
155
100
AcDbEntity
  8
0
 62
     0
100
AcDbLine
 10
-96.516504
 20
-70.0
 30
0.0
 11
-66.916504
 21
-40.4
 31
0.0
  0
LINE
  5
156
100
AcDbEntity
  8
0
 62
     0
100
AcDbLine
 10
-101.819805
 20
-70.0
 30
0.0
 11
-72.219805
 21
-40.4
 31
0.0
  0
LINE
  5
157
100
AcDbEntity
  8
0
 62
     0
100
AcDbLine
 10
-107.123106
 20
-70.0
 30
0.0
 11
-77.523106
 21
-40.4
 31
0.0
  0
LINE
  5
158
100
AcDbEntity
  8
0
 62
     0
100
AcDbLine
 10
-112.426407
 20
-70.0
 30
0.0
 11
-103.670472
 21
-61.244065
 31
0.0
  0
LINE
  5
159
100
AcDbEntity
  8
0
 62
     0
100
AcDbLine
 10
-101.0
 20
-58.573593
 30
0.0
 11
-82.826407
 21
-40.4
 31
0.0
  0
LINE
  5
15A
100
AcDbEntity
  8
0
 62
     0
100
AcDbLine
 10
-117.729708
 20
-70.0
 30
0.0
 11
-107.981293
 21
-60.251585
 31
0.0
  0
LINE
  5
15B
100
AcDbEntity
  8
0
 62
     0
100
AcDbLine
 10
-101.0
 20
-53.270292
 30
0.0
 11
-88.129708
 21
-40.4
 31
0.0
  0
LINE
  5
15C
100
AcDbEntity
  8
0
 62
     0
100
AcDbLine
 10
-123.033009
 20
-70.0
 30
0.0
 11
-109.0
 21
-55.966991
 31
0.0
  0
LINE
  5
15D
100
AcDbEntity
  8
0
 62
     0
100
AcDbLine
 10
-101.0
 20
-47.966991
 30
0.0
 11
-93.433009
 21
-40.4
 31
0.0
  0
LINE
  5
15E
100
AcDbEntity
  8
0
 62
     0
100
AcDbLine
 10
-127.0
 20
-68.663691
 30
0.0
 11
-109.0
 21
-50.663691
 31
0.0
  0
LINE
  5
15F
100
AcDbEntity
  8
0
 62
     0
100
AcDbLine
 10
-101.0
 20
-42.663691
 30
0.0
 11
-98.736309
 21
-40.4
 31
0.0
  0
LINE
  5
160
100
AcDbEntity
  8
0
 62
     0
100
AcDbLine
 10
-127.0
 20
-63.36039
 30
0.0
 11
-109.0
 21
-45.36039
 31
0.0
  0
LINE
  5
161
100
AcDbEntity
  8
0
 62
     0
100
AcDbLine
 10
-127.0
 20
-58.057089
 30
0.0
 11
-109.342911
 21
-40.4
 31
0.0
  0
LINE
  5
162
100
AcDbEntity
  8
0
 62
     0
100
AcDbLine
 10
-127.0
 20
-52.753788
 30
0.0
 11
-114.646212
 21
-40.4
 31
0.0
  0
LINE
  5
163
100
AcDbEntity
  8
0
 62
     0
100
AcDbLine
 10
-127.0
 20
-47.450487
 30
0.0
 11
-119.949513
 21
-40.4
 31
0.0
  0
LINE
  5
164
100
AcDbEntity
  8
0
 62
     0
100
AcDbLine
 10
-127.0
 20
-42.147186
 30
0.0
 11
-125.252814
 21
-40.4
 31
0.0
  0
LINE
  5
165
100
AcDbEntity
  8
0
 62
     0
100
AcDbLine
 10
-64.696699
 20
-70.0
 30
0.0
 11
-35.096699
 21
-40.4
 31
0.0
  0
LINE
  5
166
100
AcDbEntity
  8
0
 62
     0
100
AcDbLine
 10
-59.393398
 20
-70.0
 30
0.0
 11
-29.793398
 21
-40.4
 31
0.0
  0
LINE
  5
167
100
AcDbEntity
  8
0
 62
     0
100
AcDbLine
 10
-54.090097
 20
-70.0
 30
0.0
 11
-24.490097
 21
-40.4
 31
0.0
  0
LINE
  5
168
100
AcDbEntity
  8
0
 62
     0
100
AcDbLine
 10
-48.786797
 20
-70.0
 30
0.0
 11
-19.186797
 21
-40.4
 31
0.0
  0
LINE
  5
169
100
AcDbEntity
  8
0
 62
     0
100
AcDbLine
 10
-43.483496
 20
-70.0
 30
0.0
 11
-17.0
 21
-43.516504
 31
0.0
  0
LINE
  5
16A
100
AcDbEntity
  8
0
 62
     0
100
AcDbLine
 10
-38.180195
 20
-70.0
 30
0.0
 11
-17.0
 21
-48.819805
 31
0.0
  0
LINE
  5
16B
100
AcDbEntity
  8
0
 62
     0
100
AcDbLine
 10
-9.0
 20
-40.819805
 30
0.0
 11
-8.580195
 21
-40.4
 31
0.0
  0
LINE
  5
16C
100
AcDbEntity
  8
0
 62
     0
100
AcDbLine
 10
-32.876894
 20
-70.0
 30
0.0
 11
-17.0
 21
-54.123106
 31
0.0
  0
LINE
  5
16D
100
AcDbEntity
  8
0
 62
     0
100
AcDbLine
 10
-9.0
 20
-46.123106
 30
0.0
 11
-3.276894
 21
-40.4
 31
0.0
  0
LINE
  5
16E
100
AcDbEntity
  8
0
 62
     0
100
AcDbLine
 10
-27.573593
 20
-70.0
 30
0.0
 11
-16.786797
 21
-59.213203
 31
0.0
  0
LINE
  5
16F
100
AcDbEntity
  8
0
 62
     0
100
AcDbLine
 10
-9.0
 20
-51.426407
 30
0.0
 11
2.026407
 21
-40.4
 31
0.0
  0
LINE
  5
170
100
AcDbEntity
  8
0
 62
     0
100
AcDbLine
 10
-22.270292
 20
-70.0
 30
0.0
 11
-13.82032
 21
-61.550028
 31
0.0
  0
LINE
  5
171
100
AcDbEntity
  8
0
 62
     0
100
AcDbLine
 10
-9.0
 20
-56.729708
 30
0.0
 11
7.329708
 21
-40.4
 31
0.0
  0
LINE
  5
172
100
AcDbEntity
  8
0
 62
     0
100
AcDbLine
 10
-16.966991
 20
-70.0
 30
0.0
 11
12.0
 21
-41.033009
 31
0.0
  0
LINE
  5
173
100
AcDbEntity
  8
0
 62
     0
100
AcDbLine
 10
-11.663691
 20
-70.0
 30
0.0
 11
12.0
 21
-46.336309
 31
0.0
  0
LINE
  5
174
100
AcDbEntity
  8
0
 62
     0
100
AcDbLine
 10
-6.36039
 20
-70.0
 30
0.0
 11
12.0
 21
-51.63961
 31
0.0
  0
LINE
  5
175
100
AcDbEntity
  8
0
 62
     0
100
AcDbLine
 10
-1.057089
 20
-70.0
 30
0.0
 11
12.0
 21
-56.942911
 31
0.0
  0
LINE
  5
176
100
AcDbEntity
  8
0
 62
     0
100
AcDbLine
 10
4.246212
 20
-70.0
 30
0.0
 11
12.0
 21
-62.246212
 31
0.0
  0
LINE
  5
177
100
AcDbEntity
  8
0
 62
     0
100
AcDbLine
 10
9.549513
 20
-70.0
 30
0.0
 11
12.0
 21
-67.549513
 31
0.0
  0
ENDBLK
  5
179
100
AcDbEntity
  8
0
100
AcDbBlockEnd
  0
BLOCK
  5
2BE
100
AcDbEntity
  8
0
100
AcDbBlockBegin
  2
*X12
 70
     1
 10
0.0
 20
0.0
 30
0.0
  3
*X12
  1

  0
LINE
  5
287
100
AcDbEntity
  8
0
 62
     0
100
AcDbLine
 10
-64.709083
 20
-29.901423
 30
0.0
 11
-64.709083
 21
-29.901423
 31
0.0
  0
LINE
  5
288
100
AcDbEntity
  8
0
 62
     0
100
AcDbLine
 10
-62.130685
 20
-27.922948
 30
0.0
 11
-62.130685
 21
-27.922948
 31
0.0
  0
LINE
  5
289
100
AcDbEntity
  8
0
 62
     0
100
AcDbLine
 10
-59.71889
 20
-26.072314
 30
0.0
 11
-59.71889
 21
-26.072314
 31
0.0
  0
LINE
  5
28A
100
AcDbEntity
  8
0
 62
     0
100
AcDbLine
 10
-64.83507
 20
-26.047775
 30
0.0
 11
-64.83507
 21
-26.047775
 31
0.0
  0
LINE
  5
28B
100
AcDbEntity
  8
0
 62
     0
100
AcDbLine
 10
-72.27069
 20
-39.653969
 30
0.0
 11
-72.27069
 21
-39.653969
 31
0.0
  0
LINE
  5
28C
100
AcDbEntity
  8
0
 62
     0
100
AcDbLine
 10
-69.692292
 20
-37.675494
 30
0.0
 11
-69.692292
 21
-37.675494
 31
0.0
  0
LINE
  5
28D
100
AcDbEntity
  8
0
 62
     0
100
AcDbLine
 10
-67.280498
 20
-35.824859
 30
0.0
 11
-67.280498
 21
-35.824859
 31
0.0
  0
LINE
  5
28E
100
AcDbEntity
  8
0
 62
     0
100
AcDbLine
 10
-64.583096
 20
-33.75507
 30
0.0
 11
-64.583096
 21
-33.75507
 31
0.0
  0
LINE
  5
28F
100
AcDbEntity
  8
0
 62
     0
100
AcDbLine
 10
-62.004698
 20
-31.776596
 30
0.0
 11
-62.004698
 21
-31.776596
 31
0.0
  0
LINE
  5
290
100
AcDbEntity
  8
0
 62
     0
100
AcDbLine
 10
-59.592904
 20
-29.925961
 30
0.0
 11
-59.592904
 21
-29.925961
 31
0.0
  0
LINE
  5
291
100
AcDbEntity
  8
0
 62
     0
100
AcDbLine
 10
-67.154511
 20
-39.678507
 30
0.0
 11
-67.154511
 21
-39.678507
 31
0.0
  0
LINE
  5
292
100
AcDbEntity
  8
0
 62
     0
100
AcDbLine
 10
-64.457109
 20
-37.608718
 30
0.0
 11
-64.457109
 21
-37.608718
 31
0.0
  0
LINE
  5
293
100
AcDbEntity
  8
0
 62
     0
100
AcDbLine
 10
-61.878711
 20
-35.630243
 30
0.0
 11
-61.878711
 21
-35.630243
 31
0.0
  0
LINE
  5
294
100
AcDbEntity
  8
0
 62
     0
100
AcDbLine
 10
-59.466917
 20
-33.779609
 30
0.0
 11
-59.466917
 21
-33.779609
 31
0.0
  0
LINE
  5
295
100
AcDbEntity
  8
0
 62
     0
100
AcDbLine
 10
-59.34093
 20
-37.633256
 30
0.0
 11
-59.34093
 21
-37.633256
 31
0.0
  0
LINE
  5
296
100
AcDbEntity
  8
0
 62
     0
100
AcDbLine
 10
-63.651141
 20
-29.093036
 30
0.0
 11
-63.651141
 21
-29.093036
 31
0.0
  0
LINE
  5
297
100
AcDbEntity
  8
0
 62
     0
100
AcDbLine
 10
-62.610124
 20
-28.955984
 30
0.0
 11
-62.610124
 21
-28.955984
 31
0.0
  0
LINE
  5
298
100
AcDbEntity
  8
0
 62
     0
100
AcDbLine
 10
-60.984154
 20
-28.741921
 30
0.0
 11
-60.984154
 21
-28.741921
 31
0.0
  0
LINE
  5
299
100
AcDbEntity
  8
0
 62
     0
100
AcDbLine
 10
-58.267596
 20
-28.384279
 30
0.0
 11
-58.267596
 21
-28.384279
 31
0.0
  0
LINE
  5
29A
100
AcDbEntity
  8
0
 62
     0
100
AcDbLine
 10
-67.190695
 20
-34.737328
 30
0.0
 11
-67.190695
 21
-34.737328
 31
0.0
  0
LINE
  5
29B
100
AcDbEntity
  8
0
 62
     0
100
AcDbLine
 10
-66.149677
 20
-34.600276
 30
0.0
 11
-66.149677
 21
-34.600276
 31
0.0
  0
LINE
  5
29C
100
AcDbEntity
  8
0
 62
     0
100
AcDbLine
 10
-64.523708
 20
-34.386213
 30
0.0
 11
-64.523708
 21
-34.386213
 31
0.0
  0
LINE
  5
29D
100
AcDbEntity
  8
0
 62
     0
100
AcDbLine
 10
-61.807149
 20
-34.028571
 30
0.0
 11
-61.807149
 21
-34.028571
 31
0.0
  0
LINE
  5
29E
100
AcDbEntity
  8
0
 62
     0
100
AcDbLine
 10
-60.766132
 20
-33.891518
 30
0.0
 11
-60.766132
 21
-33.891518
 31
0.0
  0
LINE
  5
29F
100
AcDbEntity
  8
0
 62
     0
100
AcDbLine
 10
-59.140162
 20
-33.677455
 30
0.0
 11
-59.140162
 21
-33.677455
 31
0.0
  0
LINE
  5
2A0
100
AcDbEntity
  8
0
 62
     0
100
AcDbLine
 10
-65.346702
 20
-39.672863
 30
0.0
 11
-65.346702
 21
-39.672863
 31
0.0
  0
LINE
  5
2A1
100
AcDbEntity
  8
0
 62
     0
100
AcDbLine
 10
-66.664473
 20
-30.722344
 30
0.0
 11
-66.664473
 21
-30.722344
 31
0.0
  0
LINE
  5
2A2
100
AcDbEntity
  8
0
 62
     0
100
AcDbLine
 10
-63.628264
 20
-32.656622
 30
0.0
 11
-63.628264
 21
-32.656622
 31
0.0
  0
LINE
  5
2A3
100
AcDbEntity
  8
0
 62
     0
100
AcDbLine
 10
-59.664324
 20
-35.18193
 30
0.0
 11
-59.664324
 21
-35.18193
 31
0.0
  0
LINE
  5
2A4
100
AcDbEntity
  8
0
 62
     0
100
AcDbLine
 10
-58.820932
 20
-35.71923
 30
0.0
 11
-58.820932
 21
-35.71923
 31
0.0
  0
LINE
  5
2A5
100
AcDbEntity
  8
0
 62
     0
100
AcDbLine
 10
-65.24352
 20
-27.648418
 30
0.0
 11
-65.24352
 21
-27.648418
 31
0.0
  0
LINE
  5
2A6
100
AcDbEntity
  8
0
 62
     0
100
AcDbLine
 10
-61.279581
 20
-30.173726
 30
0.0
 11
-61.279581
 21
-30.173726
 31
0.0
  0
LINE
  5
2A7
100
AcDbEntity
  8
0
 62
     0
100
AcDbLine
 10
-60.436189
 20
-30.711026
 30
0.0
 11
-60.436189
 21
-30.711026
 31
0.0
  0
LINE
  5
2A8
100
AcDbEntity
  8
0
 62
     0
100
AcDbLine
 10
-62.894837
 20
-25.165522
 30
0.0
 11
-62.894837
 21
-25.165522
 31
0.0
  0
LINE
  5
2A9
100
AcDbEntity
  8
0
 62
     0
100
AcDbLine
 10
-62.051446
 20
-25.702821
 30
0.0
 11
-62.051446
 21
-25.702821
 31
0.0
  0
LINE
  5
2AA
100
AcDbEntity
  8
0
 62
     0
100
AcDbLine
 10
-59.015237
 20
-27.6371
 30
0.0
 11
-59.015237
 21
-27.6371
 31
0.0
  0
LINE
  5
2AB
100
AcDbEntity
  8
0
 62
     0
100
AcDbLine
 10
-65.892608
 20
-35.193249
 30
0.0
 11
-65.892608
 21
-35.193249
 31
0.0
  0
LINE
  5
2AC
100
AcDbEntity
  8
0
 62
     0
100
AcDbLine
 10
-65.049216
 20
-35.730548
 30
0.0
 11
-65.049216
 21
-35.730548
 31
0.0
  0
LINE
  5
2AD
100
AcDbEntity
  8
0
 62
     0
100
AcDbLine
 10
-62.013007
 20
-37.664827
 30
0.0
 11
-62.013007
 21
-37.664827
 31
0.0
  0
LINE
  5
2AE
100
AcDbEntity
  8
0
 62
     0
100
AcDbLine
 10
-68.241291
 20
-37.676145
 30
0.0
 11
-68.241291
 21
-37.676145
 31
0.0
  0
LINE
  5
2AF
100
AcDbEntity
  8
0
 62
     0
100
AcDbLine
 10
-64.299901
 20
-30.508965
 30
0.0
 11
-64.299901
 21
-30.508965
 31
0.0
  0
LINE
  5
2B0
100
AcDbEntity
  8
0
 62
     0
100
AcDbLine
 10
-62.309253
 20
-32.333058
 30
0.0
 11
-62.309253
 21
-32.333058
 31
0.0
  0
LINE
  5
2B1
100
AcDbEntity
  8
0
 62
     0
100
AcDbLine
 10
-61.940614
 20
-32.670853
 30
0.0
 11
-61.940614
 21
-32.670853
 31
0.0
  0
LINE
  5
2B2
100
AcDbEntity
  8
0
 62
     0
100
AcDbLine
 10
-60.200639
 20
-34.265246
 30
0.0
 11
-60.200639
 21
-34.265246
 31
0.0
  0
LINE
  5
2B3
100
AcDbEntity
  8
0
 62
     0
100
AcDbLine
 10
-58.209991
 20
-36.08934
 30
0.0
 11
-58.209991
 21
-36.08934
 31
0.0
  0
LINE
  5
2B4
100
AcDbEntity
  8
0
 62
     0
100
AcDbLine
 10
-60.396261
 20
-26.821426
 30
0.0
 11
-60.396261
 21
-26.821426
 31
0.0
  0
LINE
  5
2B5
100
AcDbEntity
  8
0
 62
     0
100
AcDbLine
 10
-60.027623
 20
-27.159221
 30
0.0
 11
-60.027623
 21
-27.159221
 31
0.0
  0
LINE
  5
2B6
100
AcDbEntity
  8
0
 62
     0
100
AcDbLine
 10
-58.287648
 20
-28.753614
 30
0.0
 11
-58.287648
 21
-28.753614
 31
0.0
  0
LINE
  5
2B7
100
AcDbEntity
  8
0
 62
     0
100
AcDbLine
 10
-68.321506
 20
-34.088409
 30
0.0
 11
-68.321506
 21
-34.088409
 31
0.0
  0
LINE
  5
2B8
100
AcDbEntity
  8
0
 62
     0
100
AcDbLine
 10
-67.952867
 20
-34.426204
 30
0.0
 11
-67.952867
 21
-34.426204
 31
0.0
  0
LINE
  5
2B9
100
AcDbEntity
  8
0
 62
     0
100
AcDbLine
 10
-66.212893
 20
-36.020597
 30
0.0
 11
-66.212893
 21
-36.020597
 31
0.0
  0
LINE
  5
2BA
100
AcDbEntity
  8
0
 62
     0
100
AcDbLine
 10
-64.222244
 20
-37.844691
 30
0.0
 11
-64.222244
 21
-37.844691
 31
0.0
  0
LINE
  5
2BB
100
AcDbEntity
  8
0
 62
     0
100
AcDbLine
 10
-72.225146
 20
-37.775948
 30
0.0
 11
-72.225146
 21
-37.775948
 31
0.0
  0
LINE
  5
2BC
100
AcDbEntity
  8
0
 62
     0
100
AcDbLine
 10
-70.234497
 20
-39.600042
 30
0.0
 11
-70.234497
 21
-39.600042
 31
0.0
  0
LINE
  5
2BD
100
AcDbEntity
  8
0
 62
     0
100
AcDbLine
 10
-69.865858
 20
-39.937837
 30
0.0
 11
-69.865858
 21
-39.937837
 31
0.0
  0
ENDBLK
  5
2BF
100
AcDbEntity
  8
0
100
AcDbBlockEnd
  0
BLOCK
  5
269
100
AcDbEntity
  8
0
100
AcDbBlockBegin
  2
*X13
 70
     1
 10
0.0
 20
0.0
 30
0.0
  3
*X13
  1

  0
LINE
  5
235
100
AcDbEntity
  8
0
 62
     0
100
AcDbLine
 10
-4.267906
 20
-34.877444
 30
0.0
 11
-4.267906
 21
-34.877444
 31
0.0
  0
LINE
  5
236
100
AcDbEntity
  8
0
 62
     0
100
AcDbLine
 10
-1.570505
 20
-32.807655
 30
0.0
 11
-1.570505
 21
-32.807655
 31
0.0
  0
LINE
  5
237
100
AcDbEntity
  8
0
 62
     0
100
AcDbLine
 10
1.007894
 20
-30.82918
 30
0.0
 11
1.007894
 21
-30.82918
 31
0.0
  0
LINE
  5
238
100
AcDbEntity
  8
0
 62
     0
100
AcDbLine
 10
-4.393893
 20
-31.023796
 30
0.0
 11
-4.393893
 21
-31.023796
 31
0.0
  0
LINE
  5
239
100
AcDbEntity
  8
0
 62
     0
100
AcDbLine
 10
-1.696491
 20
-28.954007
 30
0.0
 11
-1.696491
 21
-28.954007
 31
0.0
  0
LINE
  5
23A
100
AcDbEntity
  8
0
 62
     0
100
AcDbLine
 10
-4.519879
 20
-27.170149
 30
0.0
 11
-4.519879
 21
-27.170149
 31
0.0
  0
LINE
  5
23B
100
AcDbEntity
  8
0
 62
     0
100
AcDbLine
 10
-1.822478
 20
-25.10036
 30
0.0
 11
-1.822478
 21
-25.10036
 31
0.0
  0
LINE
  5
23C
100
AcDbEntity
  8
0
 62
     0
100
AcDbLine
 10
-1.444518
 20
-36.661302
 30
0.0
 11
-1.444518
 21
-36.661302
 31
0.0
  0
LINE
  5
23D
100
AcDbEntity
  8
0
 62
     0
100
AcDbLine
 10
1.13388
 20
-34.682828
 30
0.0
 11
1.13388
 21
-34.682828
 31
0.0
  0
LINE
  5
23E
100
AcDbEntity
  8
0
 62
     0
100
AcDbLine
 10
1.259867
 20
-38.536475
 30
0.0
 11
1.259867
 21
-38.536475
 31
0.0
  0
LINE
  5
23F
100
AcDbEntity
  8
0
 62
     0
100
AcDbLine
 10
3.671661
 20
-36.685841
 30
0.0
 11
3.671661
 21
-36.685841
 31
0.0
  0
LINE
  5
240
100
AcDbEntity
  8
0
 62
     0
100
AcDbLine
 10
6.495049
 20
-38.469699
 30
0.0
 11
6.495049
 21
-38.469699
 31
0.0
  0
LINE
  5
241
100
AcDbEntity
  8
0
 62
     0
100
AcDbLine
 10
-3.460714
 20
-31.525418
 30
0.0
 11
-3.460714
 21
-31.525418
 31
0.0
  0
LINE
  5
242
100
AcDbEntity
  8
0
 62
     0
100
AcDbLine
 10
-0.744155
 20
-31.167776
 30
0.0
 11
-0.744155
 21
-31.167776
 31
0.0
  0
LINE
  5
243
100
AcDbEntity
  8
0
 62
     0
100
AcDbLine
 10
0.296862
 20
-31.030724
 30
0.0
 11
0.296862
 21
-31.030724
 31
0.0
  0
LINE
  5
244
100
AcDbEntity
  8
0
 62
     0
100
AcDbLine
 10
-2.588147
 20
-26.232241
 30
0.0
 11
-2.588147
 21
-26.232241
 31
0.0
  0
LINE
  5
245
100
AcDbEntity
  8
0
 62
     0
100
AcDbLine
 10
-1.54713
 20
-26.095189
 30
0.0
 11
-1.54713
 21
-26.095189
 31
0.0
  0
LINE
  5
246
100
AcDbEntity
  8
0
 62
     0
100
AcDbLine
 10
0.078839
 20
-25.881126
 30
0.0
 11
0.078839
 21
-25.881126
 31
0.0
  0
LINE
  5
247
100
AcDbEntity
  8
0
 62
     0
100
AcDbLine
 10
-4.283709
 20
-36.812069
 30
0.0
 11
-4.283709
 21
-36.812069
 31
0.0
  0
LINE
  5
248
100
AcDbEntity
  8
0
 62
     0
100
AcDbLine
 10
-3.242691
 20
-36.675016
 30
0.0
 11
-3.242691
 21
-36.675016
 31
0.0
  0
LINE
  5
249
100
AcDbEntity
  8
0
 62
     0
100
AcDbLine
 10
-1.616722
 20
-36.460953
 30
0.0
 11
-1.616722
 21
-36.460953
 31
0.0
  0
LINE
  5
24A
100
AcDbEntity
  8
0
 62
     0
100
AcDbLine
 10
1.099837
 20
-36.103311
 30
0.0
 11
1.099837
 21
-36.103311
 31
0.0
  0
LINE
  5
24B
100
AcDbEntity
  8
0
 62
     0
100
AcDbLine
 10
2.140854
 20
-35.966259
 30
0.0
 11
2.140854
 21
-35.966259
 31
0.0
  0
LINE
  5
24C
100
AcDbEntity
  8
0
 62
     0
100
AcDbLine
 10
3.766824
 20
-35.752196
 30
0.0
 11
3.766824
 21
-35.752196
 31
0.0
  0
LINE
  5
24D
100
AcDbEntity
  8
0
 62
     0
100
AcDbLine
 10
10.994361
 20
-39.978974
 30
0.0
 11
10.994361
 21
-39.978974
 31
0.0
  0
LINE
  5
24E
100
AcDbEntity
  8
0
 62
     0
100
AcDbLine
 10
-0.612
 20
-25.05234
 30
0.0
 11
-0.612
 21
-25.05234
 31
0.0
  0
LINE
  5
24F
100
AcDbEntity
  8
0
 62
     0
100
AcDbLine
 10
-2.960683
 20
-27.535237
 30
0.0
 11
-2.960683
 21
-27.535237
 31
0.0
  0
LINE
  5
250
100
AcDbEntity
  8
0
 62
     0
100
AcDbLine
 10
1.003257
 20
-30.060545
 30
0.0
 11
1.003257
 21
-30.060545
 31
0.0
  0
LINE
  5
251
100
AcDbEntity
  8
0
 62
     0
100
AcDbLine
 10
-4.381636
 20
-30.609163
 30
0.0
 11
-4.381636
 21
-30.609163
 31
0.0
  0
LINE
  5
252
100
AcDbEntity
  8
0
 62
     0
100
AcDbLine
 10
-1.345426
 20
-32.543441
 30
0.0
 11
-1.345426
 21
-32.543441
 31
0.0
  0
LINE
  5
253
100
AcDbEntity
  8
0
 62
     0
100
AcDbLine
 10
2.618513
 20
-35.068749
 30
0.0
 11
2.618513
 21
-35.068749
 31
0.0
  0
LINE
  5
254
100
AcDbEntity
  8
0
 62
     0
100
AcDbLine
 10
3.461905
 20
-35.606049
 30
0.0
 11
3.461905
 21
-35.606049
 31
0.0
  0
LINE
  5
255
100
AcDbEntity
  8
0
 62
     0
100
AcDbLine
 10
6.498114
 20
-37.540328
 30
0.0
 11
6.498114
 21
-37.540328
 31
0.0
  0
LINE
  5
256
100
AcDbEntity
  8
0
 62
     0
100
AcDbLine
 10
-3.60977
 20
-35.080067
 30
0.0
 11
-3.60977
 21
-35.080067
 31
0.0
  0
LINE
  5
257
100
AcDbEntity
  8
0
 62
     0
100
AcDbLine
 10
-2.766379
 20
-35.617367
 30
0.0
 11
-2.766379
 21
-35.617367
 31
0.0
  0
LINE
  5
258
100
AcDbEntity
  8
0
 62
     0
100
AcDbLine
 10
0.26983
 20
-37.551646
 30
0.0
 11
0.26983
 21
-37.551646
 31
0.0
  0
LINE
  5
259
100
AcDbEntity
  8
0
 62
     0
100
AcDbLine
 10
-0.00045
 20
-24.047461
 30
0.0
 11
-0.00045
 21
-24.047461
 31
0.0
  0
LINE
  5
25A
100
AcDbEntity
  8
0
 62
     0
100
AcDbLine
 10
-3.90409
 20
-27.735
 30
0.0
 11
-3.90409
 21
-27.735
 31
0.0
  0
LINE
  5
25B
100
AcDbEntity
  8
0
 62
     0
100
AcDbLine
 10
-1.913441
 20
-29.559094
 30
0.0
 11
-1.913441
 21
-29.559094
 31
0.0
  0
LINE
  5
25C
100
AcDbEntity
  8
0
 62
     0
100
AcDbLine
 10
-1.544802
 20
-29.896889
 30
0.0
 11
-1.544802
 21
-29.896889
 31
0.0
  0
LINE
  5
25D
100
AcDbEntity
  8
0
 62
     0
100
AcDbLine
 10
0.195172
 20
-31.491282
 30
0.0
 11
0.195172
 21
-31.491282
 31
0.0
  0
LINE
  5
25E
100
AcDbEntity
  8
0
 62
     0
100
AcDbLine
 10
2.185821
 20
-33.315375
 30
0.0
 11
2.185821
 21
-33.315375
 31
0.0
  0
LINE
  5
25F
100
AcDbEntity
  8
0
 62
     0
100
AcDbLine
 10
2.55446
 20
-33.653171
 30
0.0
 11
2.55446
 21
-33.653171
 31
0.0
  0
LINE
  5
260
100
AcDbEntity
  8
0
 62
     0
100
AcDbLine
 10
4.294434
 20
-35.247563
 30
0.0
 11
4.294434
 21
-35.247563
 31
0.0
  0
LINE
  5
261
100
AcDbEntity
  8
0
 62
     0
100
AcDbLine
 10
6.285083
 20
-37.071657
 30
0.0
 11
6.285083
 21
-37.071657
 31
0.0
  0
LINE
  5
262
100
AcDbEntity
  8
0
 62
     0
100
AcDbLine
 10
6.653722
 20
-37.409452
 30
0.0
 11
6.653722
 21
-37.409452
 31
0.0
  0
LINE
  5
263
100
AcDbEntity
  8
0
 62
     0
100
AcDbLine
 10
8.393696
 20
-39.003845
 30
0.0
 11
8.393696
 21
-39.003845
 31
0.0
  0
LINE
  5
264
100
AcDbEntity
  8
0
 62
     0
100
AcDbLine
 10
-3.826432
 20
-35.070727
 30
0.0
 11
-3.826432
 21
-35.070727
 31
0.0
  0
LINE
  5
265
100
AcDbEntity
  8
0
 62
     0
100
AcDbLine
 10
-3.457793
 20
-35.408522
 30
0.0
 11
-3.457793
 21
-35.408522
 31
0.0
  0
LINE
  5
266
100
AcDbEntity
  8
0
 62
     0
100
AcDbLine
 10
-1.717819
 20
-37.002915
 30
0.0
 11
-1.717819
 21
-37.002915
 31
0.0
  0
LINE
  5
267
100
AcDbEntity
  8
0
 62
     0
100
AcDbLine
 10
0.27283
 20
-38.827008
 30
0.0
 11
0.27283
 21
-38.827008
 31
0.0
  0
LINE
  5
268
100
AcDbEntity
  8
0
 62
     0
100
AcDbLine
 10
0.641469
 20
-39.164803
 30
0.0
 11
0.641469
 21
-39.164803
 31
0.0
  0
ENDBLK
  5
26A
100
AcDbEntity
  8
0
100
AcDbBlockEnd
  0
BLOCK
  5
21E
100
AcDbEntity
  8
0
100
AcDbBlockBegin
  2
*X14
 70
     1
 10
0.0
 20
0.0
 30
0.0
  3
*X14
  1

  0
LINE
  5
202
100
AcDbEntity
  8
0
 62
     0
100
AcDbLine
 10
-55.0
 20
-55.0
 30
0.0
 11
-40.4
 21
-40.4
 31
0.0
  0
LINE
  5
203
100
AcDbEntity
  8
0
 62
     0
100
AcDbLine
 10
-60.303301
 20
-55.0
 30
0.0
 11
-45.703301
 21
-40.4
 31
0.0
  0
LINE
  5
204
100
AcDbEntity
  8
0
 62
     0
100
AcDbLine
 10
-65.606602
 20
-55.0
 30
0.0
 11
-51.006602
 21
-40.4
 31
0.0
  0
LINE
  5
205
100
AcDbEntity
  8
0
 62
     0
100
AcDbLine
 10
-70.909903
 20
-55.0
 30
0.0
 11
-56.309903
 21
-40.4
 31
0.0
  0
LINE
  5
206
100
AcDbEntity
  8
0
 62
     0
100
AcDbLine
 10
-76.213203
 20
-55.0
 30
0.0
 11
-61.613203
 21
-40.4
 31
0.0
  0
LINE
  5
207
100
AcDbEntity
  8
0
 62
     0
100
AcDbLine
 10
-81.516504
 20
-55.0
 30
0.0
 11
-66.916504
 21
-40.4
 31
0.0
  0
LINE
  5
208
100
AcDbEntity
  8
0
 62
     0
100
AcDbLine
 10
-86.819805
 20
-55.0
 30
0.0
 11
-72.219805
 21
-40.4
 31
0.0
  0
LINE
  5
209
100
AcDbEntity
  8
0
 62
     0
100
AcDbLine
 10
-92.123106
 20
-55.0
 30
0.0
 11
-77.523106
 21
-40.4
 31
0.0
  0
LINE
  5
20A
100
AcDbEntity
  8
0
 62
     0
100
AcDbLine
 10
-97.426407
 20
-55.0
 30
0.0
 11
-82.826407
 21
-40.4
 31
0.0
  0
LINE
  5
20B
100
AcDbEntity
  8
0
 62
     0
100
AcDbLine
 10
-102.729708
 20
-55.0
 30
0.0
 11
-88.129708
 21
-40.4
 31
0.0
  0
LINE
  5
20C
100
AcDbEntity
  8
0
 62
     0
100
AcDbLine
 10
-108.033009
 20
-55.0
 30
0.0
 11
-93.433009
 21
-40.4
 31
0.0
  0
LINE
  5
20D
100
AcDbEntity
  8
0
 62
     0
100
AcDbLine
 10
-113.336309
 20
-55.0
 30
0.0
 11
-98.736309
 21
-40.4
 31
0.0
  0
LINE
  5
20E
100
AcDbEntity
  8
0
 62
     0
100
AcDbLine
 10
-114.0
 20
-50.36039
 30
0.0
 11
-104.03961
 21
-40.4
 31
0.0
  0
LINE
  5
20F
100
AcDbEntity
  8
0
 62
     0
100
AcDbLine
 10
-114.0
 20
-45.057089
 30
0.0
 11
-109.342911
 21
-40.4
 31
0.0
  0
LINE
  5
210
100
AcDbEntity
  8
0
 62
     0
100
AcDbLine
 10
-49.696699
 20
-55.0
 30
0.0
 11
-35.096699
 21
-40.4
 31
0.0
  0
LINE
  5
211
100
AcDbEntity
  8
0
 62
     0
100
AcDbLine
 10
-44.393398
 20
-55.0
 30
0.0
 11
-29.793398
 21
-40.4
 31
0.0
  0
LINE
  5
212
100
AcDbEntity
  8
0
 62
     0
100
AcDbLine
 10
-39.090097
 20
-55.0
 30
0.0
 11
-24.490097
 21
-40.4
 31
0.0
  0
LINE
  5
213
100
AcDbEntity
  8
0
 62
     0
100
AcDbLine
 10
-33.786797
 20
-55.0
 30
0.0
 11
-19.186797
 21
-40.4
 31
0.0
  0
LINE
  5
214
100
AcDbEntity
  8
0
 62
     0
100
AcDbLine
 10
-28.483496
 20
-55.0
 30
0.0
 11
-13.883496
 21
-40.4
 31
0.0
  0
LINE
  5
215
100
AcDbEntity
  8
0
 62
     0
100
AcDbLine
 10
-23.180195
 20
-55.0
 30
0.0
 11
-8.580195
 21
-40.4
 31
0.0
  0
LINE
  5
216
100
AcDbEntity
  8
0
 62
     0
100
AcDbLine
 10
-17.876894
 20
-55.0
 30
0.0
 11
-3.276894
 21
-40.4
 31
0.0
  0
LINE
  5
217
100
AcDbEntity
  8
0
 62
     0
100
AcDbLine
 10
-12.573593
 20
-55.0
 30
0.0
 11
2.026407
 21
-40.4
 31
0.0
  0
LINE
  5
218
100
AcDbEntity
  8
0
 62
     0
100
AcDbLine
 10
-7.270292
 20
-55.0
 30
0.0
 11
7.329708
 21
-40.4
 31
0.0
  0
LINE
  5
219
100
AcDbEntity
  8
0
 62
     0
100
AcDbLine
 10
-1.966991
 20
-55.0
 30
0.0
 11
12.633009
 21
-40.4
 31
0.0
  0
LINE
  5
21A
100
AcDbEntity
  8
0
 62
     0
100
AcDbLine
 10
3.336309
 20
-55.0
 30
0.0
 11
17.936309
 21
-40.4
 31
0.0
  0
LINE
  5
21B
100
AcDbEntity
  8
0
 62
     0
100
AcDbLine
 10
8.63961
 20
-55.0
 30
0.0
 11
23.23961
 21
-40.4
 31
0.0
  0
LINE
  5
21C
100
AcDbEntity
  8
0
 62
     0
100
AcDbLine
 10
13.942911
 20
-55.0
 30
0.0
 11
24.0
 21
-44.942911
 31
0.0
  0
LINE
  5
21D
100
AcDbEntity
  8
0
 62
     0
100
AcDbLine
 10
19.246212
 20
-55.0
 30
0.0
 11
24.0
 21
-50.246212
 31
0.0
  0
ENDBLK
  5
21F
100
AcDbEntity
  8
0
100
AcDbBlockEnd
  0
BLOCK
  5
279
100
AcDbEntity
  8
0
100
AcDbBlockBegin
  2
*X15
 70
     1
 10
0.0
 20
0.0
 30
0.0
  3
*X15
  1

  0
LINE
  5
270
100
AcDbEntity
  8
0
 62
     0
100
AcDbLine
 10
311.010661
 20
1290.0
 30
0.0
 11
313.005331
 21
1291.994669
 31
0.0
  0
LINE
  5
271
100
AcDbEntity
  8
0
 62
     0
100
AcDbLine
 10
310.0
 20
1290.049999
 30
0.0
 11
312.475001
 21
1292.524999
 31
0.0
  0
LINE
  5
272
100
AcDbEntity
  8
0
 62
     0
100
AcDbLine
 10
310.0
 20
1291.110659
 30
0.0
 11
311.944671
 21
1293.055329
 31
0.0
  0
LINE
  5
273
100
AcDbEntity
  8
0
 62
     0
100
AcDbLine
 10
310.0
 20
1292.171319
 30
0.0
 11
311.41434
 21
1293.58566
 31
0.0
  0
LINE
  5
274
100
AcDbEntity
  8
0
 62
     0
100
AcDbLine
 10
310.0
 20
1293.231979
 30
0.0
 11
310.88401
 21
1294.11599
 31
0.0
  0
LINE
  5
275
100
AcDbEntity
  8
0
 62
     0
100
AcDbLine
 10
310.0
 20
1294.292639
 30
0.0
 11
310.35368
 21
1294.64632
 31
0.0
  0
LINE
  5
276
100
AcDbEntity
  8
0
 62
     0
100
AcDbLine
 10
312.071322
 20
1290.0
 30
0.0
 11
313.535661
 21
1291.464339
 31
0.0
  0
LINE
  5
277
100
AcDbEntity
  8
0
 62
     0
100
AcDbLine
 10
313.131982
 20
1290.0
 30
0.0
 11
314.065991
 21
1290.934009
 31
0.0
  0
LINE
  5
278
100
AcDbEntity
  8
0
 62
     0
100
AcDbLine
 10
314.192642
 20
1290.0
 30
0.0
 11
314.596321
 21
1290.403679
 31
0.0
  0
ENDBLK
  5
27A
100
AcDbEntity
  8
0
100
AcDbBlockEnd
  0
BLOCK
  5
143
100
AcDbEntity
  8
0
100
AcDbBlockBegin
  2
*D16
 70
     1
 10
0.0
 20
0.0
 30
0.0
  3
*D16
  1

  0
LINE
  5
13A
100
AcDbEntity
  8
0
  6
BYBLOCK
 62
     0
100
AcDbLine
 10
-2396.3
 20
-760.0
 30
0.0
 11
-2427.6
 21
-760.0
 31
0.0
  0
LINE
  5
13B
100
AcDbEntity
  8
0
  6
BYBLOCK
 62
     0
100
AcDbLine
 10
-2381.3
 20
-740.0
 30
0.0
 11
-2427.6
 21
-740.0
 31
0.0
  0
LINE
  5
13C
100
AcDbEntity
  8
0
  6
BYBLOCK
 62
     0
100
AcDbLine
 10
-2425.0
 20
-756.1
 30
0.0
 11
-2425.0
 21
-743.9
 31
0.0
  0
MTEXT
  5
13D
100
AcDbEntity
  8
0
  6
BYBLOCK
 62
     6
100
AcDbMText
 10
-2430.096223
 20
-751.764395
 30
0.0
 40
4.55
 41
0.0
 71
     5
 72
     1
  1
\A1;20±
 11
0.0
 21
1.0
 31
0.0
  0
SOLID
  5
13E
100
AcDbEntity
  8
0
  6
BYBLOCK
 62
     0
100
AcDbTrace
 10
-2425.65
 20
-756.1
 30
0.0
 11
-2424.35
 21
-756.1
 31
0.0
 12
-2425.0
 22
-760.0
 32
0.0
 13
-2425.0
 23
-760.0
 33
0.0
  0
SOLID
  5
13F
100
AcDbEntity
  8
0
  6
BYBLOCK
 62
     0
100
AcDbTrace
 10
-2425.65
 20
-743.9
 30
0.0
 11
-2424.35
 21
-743.9
 31
0.0
 12
-2425.0
 22
-740.0
 32
0.0
 13
-2425.0
 23
-740.0
 33
0.0
  0
POINT
  5
140
100
AcDbEntity
  8
DEFPOINTS
  6
BYBLOCK
 62
     0
100
AcDbPoint
 10
-2395.0
 20
-760.0
 30
0.0
  0
POINT
  5
141
100
AcDbEntity
  8
DEFPOINTS
  6
BYBLOCK
 62
     0
100
AcDbPoint
 10
-2380.0
 20
-740.0
 30
0.0
  0
POINT
  5
142
100
AcDbEntity
  8
DEFPOINTS
  6
BYBLOCK
 62
     0
100
AcDbPoint
 10
-2425.0
 20
-740.0
 30
0.0
  0
ENDBLK
  5
144
100
AcDbEntity
  8
0
100
AcDbBlockEnd
  0
BLOCK
  5
93
100
AcDbEntity
  8
0
100
AcDbBlockBegin
  2
*D17
 70
     1
 10
0.0
 20
0.0
 30
0.0
  3
*D17
  1

  0
LINE
  5
89
100
AcDbEntity
  8
0
  6
BYBLOCK
 62
     0
100
AcDbLine
 10
-2260.853041
 20
-720.0
 30
0.0
 11
-2247.4
 21
-720.0
 31
0.0
  0
LINE
  5
8A
100
AcDbEntity
  8
0
  6
BYBLOCK
 62
     0
100
AcDbLine
 10
-2293.7
 20
-740.0
 30
0.0
 11
-2247.4
 21
-740.0
 31
0.0
  0
LINE
  5
8B
100
AcDbEntity
  8
0
  6
BYBLOCK
 62
     0
100
AcDbLine
 10
-2250.0
 20
-723.9
 30
0.0
 11
-2250.0
 21
-736.1
 31
0.0
  0
MTEXT
  5
8C
100
AcDbEntity
  8
0
  6
BYBLOCK
 62
     6
100
AcDbMText
 10
-2253.5
 20
-731.266129
 30
0.0
 40
4.55
 41
0.0
 71
     5
 72
     1
  1
\A1;20±
 11
0.0
 21
1.0
 31
0.0
  0
SOLID
  5
8D
100
AcDbEntity
  8
0
  6
BYBLOCK
 62
     0
100
AcDbTrace
 10
-2250.65
 20
-723.9
 30
0.0
 11
-2249.35
 21
-723.9
 31
0.0
 12
-2250.0
 22
-720.0
 32
0.0
 13
-2250.0
 23
-720.0
 33
0.0
  0
SOLID
  5
8E
100
AcDbEntity
  8
0
  6
BYBLOCK
 62
     0
100
AcDbTrace
 10
-2250.65
 20
-736.1
 30
0.0
 11
-2249.35
 21
-736.1
 31
0.0
 12
-2250.0
 22
-740.0
 32
0.0
 13
-2250.0
 23
-740.0
 33
0.0
  0
POINT
  5
8F
100
AcDbEntity
  8
DEFPOINTS
  6
BYBLOCK
 62
     0
100
AcDbPoint
 10
-2262.153041
 20
-720.0
 30
0.0
  0
POINT
  5
91
100
AcDbEntity
  8
DEFPOINTS
  6
BYBLOCK
 62
     0
100
AcDbPoint
 10
-2295.0
 20
-740.0
 30
0.0
  0
POINT
  5
92
100
AcDbEntity
  8
DEFPOINTS
  6
BYBLOCK
 62
     0
100
AcDbPoint
 10
-2250.0
 20
-740.0
 30
0.0
  0
ENDBLK
  5
94
100
AcDbEntity
  8
0
100
AcDbBlockEnd
  0
BLOCK
  5
22E
100
AcDbEntity
  8
0
100
AcDbBlockBegin
  2
*D18
 70
     1
 10
0.0
 20
0.0
 30
0.0
  3
*D18
  1

  0
LINE
  5
225
100
AcDbEntity
  8
0
  6
BYBLOCK
 62
     0
100
AcDbLine
 10
-2395.625
 20
-565.0
 30
0.0
 11
-2421.25
 21
-565.0
 31
0.0
  0
LINE
  5
226
100
AcDbEntity
  8
0
  6
BYBLOCK
 62
     0
100
AcDbLine
 10
-2370.086538
 20
-530.0
 30
0.0
 11
-2421.25
 21
-530.0
 31
0.0
  0
LINE
  5
227
100
AcDbEntity
  8
0
  6
BYBLOCK
 62
     0
100
AcDbLine
 10
-2420.0
 20
-562.5
 30
0.0
 11
-2420.0
 21
-532.5
 31
0.0
  0
SOLID
  5
228
100
AcDbEntity
  8
0
  6
BYBLOCK
 62
     0
100
AcDbTrace
 10
-2420.416667
 20
-562.5
 30
0.0
 11
-2419.583333
 21
-562.5
 31
0.0
 12
-2420.0
 22
-565.0
 32
0.0
 13
-2420.0
 23
-565.0
 33
0.0
  0
SOLID
  5
229
100
AcDbEntity
  8
0
  6
BYBLOCK
 62
     0
100
AcDbTrace
 10
-2420.416667
 20
-532.5
 30
0.0
 11
-2419.583333
 21
-532.5
 31
0.0
 12
-2420.0
 22
-530.0
 32
0.0
 13
-2420.0
 23
-530.0
 33
0.0
  0
MTEXT
  5
22A
100
AcDbEntity
  8
0
  6
BYBLOCK
 62
     6
100
AcDbMText
 10
-2424.0
 20
-547.5
 30
0.0
 40
4.0
 41
0.0
 71
     5
 72
     1
  1
\A1;35
  7
ROMANS
 11
0.0
 21
1.0
 31
0.0
  0
POINT
  5
22B
100
AcDbEntity
  8
DEFPOINTS
  6
BYBLOCK
 62
     0
100
AcDbPoint
 10
-2395.0
 20
-565.0
 30
0.0
  0
POINT
  5
22C
100
AcDbEntity
  8
DEFPOINTS
  6
BYBLOCK
 62
     0
100
AcDbPoint
 10
-2369.461538
 20
-530.0
 30
0.0
  0
POINT
  5
22D
100
AcDbEntity
  8
DEFPOINTS
  6
BYBLOCK
 62
     0
100
AcDbPoint
 10
-2420.0
 20
-530.0
 30
0.0
  0
ENDBLK
  5
22F
100
AcDbEntity
  8
0
100
AcDbBlockEnd
  0
BLOCK
  5
1DE
100
AcDbEntity
  8
0
100
AcDbBlockBegin
  2
*D19
 70
     1
 10
0.0
 20
0.0
 30
0.0
  3
*D19
  1

  0
LINE
  5
1D5
100
AcDbEntity
  8
0
  6
BYBLOCK
 62
     0
100
AcDbLine
 10
-2278.7
 20
-530.0
 30
0.0
 11
-2247.4
 21
-530.0
 31
0.0
  0
LINE
  5
1D6
100
AcDbEntity
  8
0
  6
BYBLOCK
 62
     0
100
AcDbLine
 10
-2293.7
 20
-545.0
 30
0.0
 11
-2247.4
 21
-545.0
 31
0.0
  0
LINE
  5
1D7
100
AcDbEntity
  8
0
  6
BYBLOCK
 62
     0
100
AcDbLine
 10
-2250.0
 20
-533.9
 30
0.0
 11
-2250.0
 21
-541.1
 31
0.0
  0
MTEXT
  5
1D8
100
AcDbEntity
  8
0
  6
BYBLOCK
 62
     6
100
AcDbMText
 10
-2253.5
 20
-539.627741
 30
0.0
 40
4.55
 41
0.0
 71
     5
 72
     1
  1
\A1;15±
 11
0.0
 21
1.0
 31
0.0
  0
SOLID
  5
1D9
100
AcDbEntity
  8
0
  6
BYBLOCK
 62
     0
100
AcDbTrace
 10
-2250.65
 20
-533.9
 30
0.0
 11
-2249.35
 21
-533.9
 31
0.0
 12
-2250.0
 22
-530.0
 32
0.0
 13
-2250.0
 23
-530.0
 33
0.0
  0
SOLID
  5
1DA
100
AcDbEntity
  8
0
  6
BYBLOCK
 62
     0
100
AcDbTrace
 10
-2250.65
 20
-541.1
 30
0.0
 11
-2249.35
 21
-541.1
 31
0.0
 12
-2250.0
 22
-545.0
 32
0.0
 13
-2250.0
 23
-545.0
 33
0.0
  0
POINT
  5
1DB
100
AcDbEntity
  8
DEFPOINTS
  6
BYBLOCK
 62
     0
100
AcDbPoint
 10
-2280.0
 20
-530.0
 30
0.0
  0
POINT
  5
1DC
100
AcDbEntity
  8
DEFPOINTS
  6
BYBLOCK
 62
     0
100
AcDbPoint
 10
-2295.0
 20
-545.0
 30
0.0
  0
POINT
  5
1DD
100
AcDbEntity
  8
DEFPOINTS
  6
BYBLOCK
 62
     0
100
AcDbPoint
 10
-2250.0
 20
-545.0
 30
0.0
  0
ENDBLK
  5
1DF
100
AcDbEntity
  8
0
100
AcDbBlockEnd
  0
BLOCK
  5
1EF
100
AcDbEntity
  8
0
100
AcDbBlockBegin
  2
*D20
 70
     1
 10
0.0
 20
0.0
 30
0.0
  3
*D20
  1

  0
LINE
  5
1E6
100
AcDbEntity
  8
0
  6
BYBLOCK
 62
     0
100
AcDbLine
 10
-2380.004048
 20
-566.008063
 30
0.0
 11
-2380.004048
 21
-575.77672
 31
0.0
  0
LINE
  5
1E7
100
AcDbEntity
  8
0
  6
BYBLOCK
 62
     0
100
AcDbLine
 10
-2370.006741
 20
-566.233872
 30
0.0
 11
-2370.006741
 21
-575.77672
 31
0.0
  0
LINE
  5
1E8
100
AcDbEntity
  8
0
  6
BYBLOCK
 62
     0
100
AcDbLine
 10
-2377.504048
 20
-574.52672
 30
0.0
 11
-2372.506741
 21
-574.52672
 31
0.0
  0
SOLID
  5
1E9
100
AcDbEntity
  8
0
  6
BYBLOCK
 62
     0
100
AcDbTrace
 10
-2377.504048
 20
-574.110054
 30
0.0
 11
-2377.504048
 21
-574.943387
 31
0.0
 12
-2380.004048
 22
-574.52672
 32
0.0
 13
-2380.004048
 23
-574.52672
 33
0.0
  0
SOLID
  5
1EA
100
AcDbEntity
  8
0
  6
BYBLOCK
 62
     0
100
AcDbTrace
 10
-2372.506741
 20
-574.110054
 30
0.0
 11
-2372.506741
 21
-574.943387
 31
0.0
 12
-2370.006741
 22
-574.52672
 32
0.0
 13
-2370.006741
 23
-574.52672
 33
0.0
  0
MTEXT
  5
1EB
100
AcDbEntity
  8
0
  6
BYBLOCK
 62
     6
100
AcDbMText
 10
-2375.005395
 20
-570.52672
 30
0.0
 40
4.0
 41
0.0
 71
     5
 72
     1
  1
\A1;10
  7
ROMANS
  0
POINT
  5
1EC
100
AcDbEntity
  8
DEFPOINTS
  6
BYBLOCK
 62
     0
100
AcDbPoint
 10
-2380.004048
 20
-565.383063
 30
0.0
  0
POINT
  5
1ED
100
AcDbEntity
  8
DEFPOINTS
  6
BYBLOCK
 62
     0
100
AcDbPoint
 10
-2370.006741
 20
-565.608872
 30
0.0
  0
POINT
  5
1EE
100
AcDbEntity
  8
DEFPOINTS
  6
BYBLOCK
 62
     0
100
AcDbPoint
 10
-2370.006741
 20
-574.52672
 30
0.0
  0
ENDBLK
  5
1F0
100
AcDbEntity
  8
0
100
AcDbBlockEnd
  0
ENDSEC
  0
SECTION
  2
ENTITIES
  0
INSERT
  5
1F
100
AcDbEntity
  8
RAM
100
AcDbBlockReference
 66
     1
  2
RAMA4
 10
-2560.203201
 20
-857.430295
 30
0.0
 41
1.125
 42
1.125
 43
1.125
  0
ATTRIB
  5
20
100
AcDbEntity
  8
RAMTEXT
 62
     6
100
AcDbText
 10
-2548.863648
 20
-841.936592
 30
0.0
 40
7.0875
  1

  7
ISO
100
AcDbAttribute
  2
LG_DESC_1
 70
     0
  0
ATTRIB
  5
23
100
AcDbEntity
  8
RAMTEXT
 62
     6
100
AcDbText
 10
-2535.337492
 20
-806.179681
 30
0.0
 40
5.0625
  1
 
  7
ISO
 72
     1
 11
-2533.047314
 21
-806.179681
 31
0.0
100
AcDbAttribute
  2
DOC_DESIGNER
 70
     0
  0
ATTRIB
  5
24
100
AcDbEntity
  8
RAMTEXT
 62
     6
100
AcDbText
 10
-2502.676438
 20
-815.348583
 30
0.0
 40
5.0625
  1
R.O
 41
0.8
  7
ROMANS
 72
     1
 11
-2497.469295
 21
-815.348583
 31
0.0
100
AcDbAttribute
  2
DOC_DESIGNER
 70
     0
  0
ATTRIB
  5
25
100
AcDbEntity
  8
RAMTEXT
 62
     6
100
AcDbText
 10
-2456.587492
 20
-806.179681
 30
0.0
 40
5.0625
  1
 
  7
ISO
 72
     1
 11
-2454.297314
 21
-806.179681
 31
0.0
100
AcDbAttribute
  2
COPIED
 70
     0
  0
ATTRIB
  5
26
100
AcDbEntity
  8
RAMTEXT
 62
     6
100
AcDbText
 10
-2437.557339
 20
-837.235329
 30
0.0
 40
6.8
  1
SP 79000 FIXINGS
 41
0.8
  7
ROMANS
100
AcDbAttribute
  2
DOC_DESC1
 70
     0
  0
ATTRIB
  5
27
100
AcDbEntity
  8
RAMTEXT
 62
     6
100
AcDbText
 10
-2438.201568
 20
-850.109878
 30
0.0
 40
6.8
  1
FIRE CLASS EI 60 
 41
0.8
  7
ROMANS
100
AcDbAttribute
  2
DOC_DESC2
 70
     0
  0
ATTRIB
  5
28
100
AcDbEntity
  8
RAMTEXT
 62
     6
100
AcDbText
 10
-2418.337492
 20
-806.179681
 30
0.0
 40
5.0625
  1
 
  7
ISO
 72
     1
 11
-2416.047314
 21
-806.179681
 31
0.0
100
AcDbAttribute
  2
CHECK
 70
     0
  0
ATTRIB
  5
29
100
AcDbEntity
  8
RAMTEXT
 62
     6
100
AcDbText
 10
-2377.837492
 20
-806.179681
 30
0.0
 40
5.0625
  1
 
  7
ISO
 72
     1
 11
-2375.547314
 21
-806.179681
 31
0.0
100
AcDbAttribute
  2
STAND
 70
     0
  0
ATTRIB
  5
2A
100
AcDbEntity
  8
RAMTEXT
 62
     6
100
AcDbText
 10
-2193.58585
 20
-830.798047
 30
0.0
 40
6.0
  1
970212
 41
0.8
  7
ROMANS
 72
     1
 11
-2179.871565
 21
-830.798047
 31
0.0
100
AcDbAttribute
  2
DOC_LASTEDIT_DATE
 70
     0
  0
ATTRIB
  5
2B
100
AcDbEntity
  8
RAMTEXT
 62
     6
100
AcDbText
 10
-2339.587492
 20
-806.179681
 30
0.0
 40
5.0625
  1
 
  7
ISO
 72
     1
 11
-2337.297314
 21
-806.179681
 31
0.0
100
AcDbAttribute
  2
GODK
 70
     0
  0
ATTRIB
  5
2C
100
AcDbEntity
  8
RAMTEXT
 62
     6
100
AcDbText
 10
-2294.547314
 20
-806.179681
 30
0.0
 40
5.0625
  1

  7
ISO
 72
     1
 11
-2294.547314
 21
-806.179681
 31
0.0
100
AcDbAttribute
  2
SCALE
 70
     0
  0
ATTRIB
  5
2D
100
AcDbEntity
  8
RAMTEXT
 62
     6
100
AcDbText
 10
-2245.980227
 20
-850.753611
 30
0.0
 40
8.0
  1
4-2358 - A
 41
0.8
  7
ROMANS
 72
     1
 11
-2213.370703
 21
-850.753611
 31
0.0
100
AcDbAttribute
  2
DOC_FILE_NAME
 70
     0
  0
ATTRIB
  5
2E
100
AcDbEntity
  8
RAMTEXT
 62
     6
100
AcDbText
 10
-2247.297314
 20
-823.312708
 30
0.0
 40
5.0625
  1

  7
ISO
 72
     1
 11
-2247.297314
 21
-823.312708
 31
0.0
100
AcDbAttribute
  2
REG
 70
     0
  0
ATTRIB
  5
2F
100
AcDbEntity
  8
RAMTEXT
 62
     6
100
AcDbText
 10
-2249.587492
 20
-806.179681
 30
0.0
 40
5.0625
  1
 
  7
ISO
 72
     1
 11
-2247.297314
 21
-806.179681
 31
0.0
100
AcDbAttribute
  2
REPL
 70
     0
  0
ATTRIB
  5
30
100
AcDbEntity
  8
RAMTEXT
 62
     6
100
AcDbText
 10
-2197.837492
 20
-806.179681
 30
0.0
 40
5.0625
  1
 
  7
ISO
 72
     1
 11
-2195.547314
 21
-806.179681
 31
0.0
100
AcDbAttribute
  2
REPL_BY
 70
     0
  0
SEQEND
  5
72
100
AcDbEntity
  8
RAM
  0
ARC
  5
73
100
AcDbEntity
  8
GLAS_MED_FOGNING
100
AcDbCircle
 10
-535.0
 20
-1827.355552
 30
-1526.620573
 40
3.0
210
0.6427876096865394
220
0.0
230
-0.7660444431189779
100
AcDbArc
 50
0.0
 51
90.0
  0
ARC
  5
75
100
AcDbEntity
  8
GLAS_MED_FOGNING
100
AcDbCircle
 10
-535.0
 20
1811.355552
 30
-1526.620573
 40
3.0
210
0.6427876096865393
220
0.0
230
0.766044443118978
100
AcDbArc
 50
0.0
 51
90.0
  0
ARC
  5
76
100
AcDbEntity
  8
GLAS_MED_FOGNING
100
AcDbCircle
 10
-535.0
 20
-1195.5
 30
-2056.810334
 40
3.0
210
0.8660254037844387
220
0.0
230
-0.5
100
AcDbArc
 50
0.0
 51
90.0
  0
ARC
  5
77
100
AcDbEntity
  8
GLAS_MED_FOGNING
100
AcDbCircle
 10
-535.0
 20
1179.5
 30
-2056.810334
 40
3.0
210
0.8660254037844385
220
0.0
230
0.5000000000000002
100
AcDbArc
 50
0.0
 51
90.0
  0
ARC
  5
78
100
AcDbEntity
  8
GLAS_MED_FOGNING
100
AcDbCircle
 10
-535.0
 20
-420.414422
 30
-2338.918413
 40
3.0
210
0.9848077530122081
220
0.0
230
-0.1736481776669302
100
AcDbArc
 50
0.0
 51
90.0
  0
ARC
  5
79
100
AcDbEntity
  8
GLAS_MED_FOGNING
100
AcDbCircle
 10
-535.0
 20
404.414422
 30
-2338.918413
 40
3.0
210
0.9848077530122079
220
0.0
230
0.1736481776669302
100
AcDbArc
 50
0.0
 51
90.0
  0
TEXT
  5
7A
100
AcDbEntity
  8
TEXT
100
AcDbText
 10
-2292.712297
 20
-673.637779
 30
0.0
 40
5.0
  1
Bolt type expander
 41
0.8
  7
ROMANS
 72
     1
 11
-2262.998011
 21
-673.637779
 31
0.0
100
AcDbText
  0
TEXT
  5
7B
100
AcDbEntity
  8
TEXT
100
AcDbText
 10
-2295.873877
 20
-681.019913
 30
0.0
 40
5.0
  1
M8 X 50 C/C 600
 41
0.8
  7
ROMANS
 72
     1
 11
-2266.064353
 21
-681.019913
 31
0.0
100
AcDbText
  0
LINE
  5
7C
100
AcDbEntity
  8
DIMENSION
100
AcDbLine
 10
-2231.319241
 20
-666.236927
 30
0.0
 11
-2301.172312
 21
-666.236927
 31
0.0
  0
LINE
  5
7E
100
AcDbEntity
  8
DIMENSION
100
AcDbLine
 10
-2301.172312
 20
-683.129424
 30
0.0
 11
-2241.694948
 21
-683.129424
 31
0.0
  0
TEXT
  5
7F
100
AcDbEntity
  8
0
  6
BYBLOCK
 62
     6
100
AcDbText
 10
-2253.54249
 20
-724.833633
 30
0.0
 40
2.1
  1
5
 50
90.0
 41
0.8
  7
ROMANS
 72
     1
 11
-2254.59249
 21
-724.033633
 31
0.0
100
AcDbText
 73
     2
  0
LINE
  5
80
100
AcDbEntity
  8
DIMENSION
100
AcDbLine
 10
-2278.294849
 20
-770.788879
 30
0.0
 11
-2231.115456
 21
-770.788879
 31
0.0
  0
TEXT
  5
81
100
AcDbEntity
  8
TEXT
100
AcDbText
 10
-2273.57329
 20
-769.966591
 30
0.0
 40
5.0
  1
25 X 40 X 2
 41
0.8
  7
ROMANS
 72
     1
 11
-2252.239956
 21
-769.966591
 31
0.0
100
AcDbText
  0
LINE
  5
82
100
AcDbEntity
  8
DIMENSION
100
AcDbLine
 10
-2274.902041
 20
-755.645453
 30
0.0
 11
-2231.115456
 21
-755.645453
 31
0.0
  0
LINE
  5
83
100
AcDbEntity
  8
DIMENSION
100
AcDbLine
 10
-2274.902041
 20
-762.821631
 30
0.0
 11
-2231.115456
 21
-762.821631
 31
0.0
  0
TEXT
  5
84
100
AcDbEntity
  8
TEXT
100
AcDbText
 10
-2273.002896
 20
-753.461528
 30
0.0
 40
5.0
  1
Longitudinal
 41
0.8
  7
ROMANS
 72
     1
 11
-2255.288611
 21
-753.461528
 31
0.0
100
AcDbText
  0
TEXT
  5
85
100
AcDbEntity
  8
TEXT
100
AcDbText
 10
-2273.445096
 20
-761.603806
 30
0.0
 40
5.0
  1
Steelprofile
 41
0.8
  7
ROMANS
 72
     1
 11
-2256.968905
 21
-761.603806
 31
0.0
100
AcDbText
  0
DIMENSION
  5
86
100
AcDbEntity
  8
DIMENSION
100
AcDbDimension
  2
*D17
 10
-2250.0
 20
-740.0
 30
0.0
 11
-2253.5
 21
-731.266129
 31
0.0
 70
   128
  1
20%%P
  3
ROMANS
100
AcDbAlignedDimension
 13
-2262.153041
 23
-720.0
 33
0.0
 14
-2295.0
 24
-740.0
 34
0.0
 50
90.0
100
AcDbRotatedDimension
  0
LINE
  5
95
100
AcDbEntity
  8
DIMENSION
100
AcDbLine
 10
-2278.640581
 20
-706.448357
 30
0.0
 11
-2251.411061
 21
-683.097058
 31
0.0
  0
LWPOLYLINE
  5
96
100
AcDbEntity
  8
STALPROFIL
100
AcDbPolyline
 90
        2
 70
     0
 43
2.0
 10
-2294.0
 20
-760.0
 10
-2294.0
 20
-720.0
  0
LWPOLYLINE
  5
98
100
AcDbEntity
  8
SPKONTUR
100
AcDbPolyline
 90
        3
 70
     0
 43
0.0
 10
-2295.0
 20
-760.0
 10
-2295.0
 20
-720.0
 10
-2284.5
 20
-720.0
  0
LINE
  5
9A
100
AcDbEntity
  8
DIMENSION
100
AcDbLine
 10
-2292.389826
 20
-748.631721
 30
0.0
 11
-2278.294849
 21
-770.788879
 31
0.0
  0
LWPOLYLINE
  5
9B
100
AcDbEntity
  8
DIMENSION
100
AcDbPolyline
 90
        2
 70
     0
 43
0.0
 10
-2292.489945
 20
-748.626042
 10
-2291.21858
 20
-751.628096
  0
LINE
  5
9C
100
AcDbEntity
  8
DIMENSION
100
AcDbLine
 10
-2292.97549
 20
-748.225209
 30
0.0
 11
-2291.59338
 21
-751.815371
 31
0.0
  0
LWPOLYLINE
  5
9D
100
AcDbEntity
  8
STALPROFIL
100
AcDbPolyline
 90
        2
 70
     0
 43
2.0
 10
-2386.0
 20
-760.0
 10
-2386.0
 20
-720.0
  0
LWPOLYLINE
  5
9E
100
AcDbEntity
  8
SPKONTUR
100
AcDbPolyline
 90
        3
 70
     0
 43
0.0
 10
-2387.0
 20
-760.0
 10
-2387.0
 20
-720.0
 10
-2376.5
 20
-720.0
  0
INSERT
  5
9F
100
AcDbEntity
  8
0
100
AcDbBlockReference
  2
SP79020
 10
-2295.0
 20
-765.0
 30
0.0
  0
DIMENSION
  5
138
100
AcDbEntity
  8
DIMENSION
100
AcDbDimension
  2
*D16
 10
-2425.0
 20
-740.0
 30
0.0
 11
-2430.096223
 21
-751.764395
 31
0.0
 70
   128
  1
20%%P
  3
ROMANS
100
AcDbAlignedDimension
 13
-2395.0
 23
-760.0
 33
0.0
 14
-2380.0
 24
-740.0
 34
0.0
 50
270.0
100
AcDbRotatedDimension
  0
TEXT
  5
145
100
AcDbEntity
  8
TEXT
100
AcDbText
 10
-2373.0
 20
-784.842857
 30
0.0
 40
5.0
  1
%%USP 79020
 50
90.0
 41
0.8
  7
ROMANS
 72
     1
 11
-2373.0
 21
-770.0
 31
0.0
100
AcDbText
  0
LINE
  5
146
100
AcDbEntity
  8
GLAS_MED_FOGNING
100
AcDbLine
 10
-2364.494447
 20
-722.0
 30
0.0
 11
-2379.505553
 21
-722.0
 31
0.0
  0
LINE
  5
147
100
AcDbEntity
  8
GLAS_MED_FOGNING
100
AcDbLine
 10
-2364.494447
 20
-728.0
 30
0.0
 11
-2379.505553
 21
-728.0
 31
0.0
  0
LINE
  5
148
100
AcDbEntity
  8
GLAS_MED_FOGNING
100
AcDbLine
 10
-2368.6
 20
-700.0
 30
0.0
 11
-2372.0
 21
-697.957074
 31
0.0
  0
LINE
  5
149
100
AcDbEntity
  8
GLAS_MED_FOGNING
100
AcDbLine
 10
-2368.0
 20
-702.6
 30
0.0
 11
-2376.0
 21
-702.6
 31
0.0
  0
LINE
  5
14A
100
AcDbEntity
  8
GLAS_MED_FOGNING
100
AcDbLine
 10
-2368.6
 20
-702.0
 30
0.0
 11
-2375.4
 21
-702.0
 31
0.0
  0
LWPOLYLINE
  5
14B
100
AcDbEntity
  8
ISOLERING
100
AcDbPolyline
 90
       74
 70
     0
 43
0.0
 10
-2295.0
 20
-720.5
 42
0.459935
 10
-2296.976471
 20
-722.805882
 10
-2295.523529
 20
-737.194118
 42
-1.166667
 10
-2299.476471
 20
-737.194118
 10
-2298.023529
 20
-722.805882
 42
1.166667
 10
-2301.976471
 20
-722.805882
 10
-2300.523529
 20
-737.194118
 42
-1.166667
 10
-2304.476471
 20
-737.194118
 10
-2303.023529
 20
-722.805882
 42
1.166667
 10
-2306.976471
 20
-722.805882
 10
-2305.523529
 20
-737.194118
 42
-1.166667
 10
-2309.476471
 20
-737.194118
 10
-2308.023529
 20
-722.805882
 42
1.166667
 10
-2311.976471
 20
-722.805882
 10
-2310.523529
 20
-737.194118
 42
-1.166667
 10
-2314.476471
 20
-737.194118
 10
-2313.023529
 20
-722.805882
 42
1.166667
 10
-2316.976471
 20
-722.805882
 10
-2315.523529
 20
-737.194118
 42
-1.166667
 10
-2319.476471
 20
-737.194118
 10
-2318.023529
 20
-722.805882
 42
1.166667
 10
-2321.976471
 20
-722.805882
 10
-2320.523529
 20
-737.194118
 42
-1.166667
 10
-2324.476471
 20
-737.194118
 10
-2323.023529
 20
-722.805882
 42
1.166667
 10
-2326.976471
 20
-722.805882
 10
-2325.523529
 20
-737.194118
 42
-1.166667
 10
-2329.476471
 20
-737.194118
 10
-2328.023529
 20
-722.805882
 42
1.166667
 10
-2331.976471
 20
-722.805882
 10
-2330.523529
 20
-737.194118
 42
-1.166667
 10
-2334.476471
 20
-737.194118
 10
-2333.023529
 20
-722.805882
 42
1.166667
 10
-2336.976471
 20
-722.805882
 10
-2335.523529
 20
-737.194118
 42
-1.166667
 10
-2339.476471
 20
-737.194118
 10
-2338.023529
 20
-722.805882
 42
1.166667
 10
-2341.976471
 20
-722.805882
 10
-2340.523529
 20
-737.194118
 42
-1.166667
 10
-2344.476471
 20
-737.194118
 10
-2343.023529
 20
-722.805882
 42
1.166667
 10
-2346.976471
 20
-722.805882
 10
-2345.523529
 20
-737.194118
 42
-1.166667
 10
-2349.476471
 20
-737.194118
 10
-2348.023529
 20
-722.805882
 42
1.166667
 10
-2351.976471
 20
-722.805882
 10
-2350.523529
 20
-737.194118
 42
-1.166667
 10
-2354.476471
 20
-737.194118
 10
-2353.023529
 20
-722.805882
 42
1.166667
 10
-2356.976471
 20
-722.805882
 10
-2355.523529
 20
-737.194118
 42
-1.166667
 10
-2359.476471
 20
-737.194118
 10
-2358.023529
 20
-722.805882
 42
1.166667
 10
-2361.976471
 20
-722.805882
 10
-2360.523529
 20
-737.194118
 42
-1.216051
 10
-2364.444935
 20
-737.033922
 10
-2364.041299
 20
-730.349559
 42
1.23341
 10
-2366.97541
 20
-730.270492
 10
-2366.52459
 20
-737.729508
 42
-1.2
 10
-2369.47541
 20
-737.729508
 10
-2369.02459
 20
-730.270492
 42
1.2
 10
-2371.97541
 20
-730.270492
 10
-2371.52459
 20
-737.729508
 42
-1.2
 10
-2374.47541
 20
-737.729508
 10
-2374.02459
 20
-730.270492
 42
1.2
 10
-2376.97541
 20
-730.270492
 10
-2376.52459
 20
-737.729508
 42
-1.2
 10
-2379.47541
 20
-737.729508
 10
-2379.02459
 20
-730.270492
 42
1.2
 10
-2381.97541
 20
-730.270492
 10
-2381.52459
 20
-737.729508
 42
-1.2
 10
-2384.47541
 20
-737.729508
 10
-2384.02459
 20
-730.270492
 42
0.368511
 10
-2385.0
 20
-728.585786
  0
INSERT
  5
14D
100
AcDbEntity
  8
FOGNINGB
100
AcDbBlockReference
  2
*X11
 10
-2385.0
 20
-760.0
 30
0.0
 50
180.0
1001
ACAD
1000
HATCH
1002
{
1070
    16
1000
ANSI31
1040
30.0
1040
0.0
1002
}
  0
LINE
  5
17A
100
AcDbEntity
  8
GLAS_MED_FOGNING
100
AcDbLine
 10
-2375.4
 20
-720.4
 30
0.0
 11
-2375.4
 21
-700.0
 31
0.0
  0
LINE
  5
17B
100
AcDbEntity
  8
GLAS_MED_FOGNING
100
AcDbLine
 10
-2376.0
 20
-722.0
 30
0.0
 11
-2376.0
 21
-701.0
 31
0.0
  0
LINE
  5
17C
100
AcDbEntity
  8
CENTRUM
100
AcDbLine
 10
-2372.0
 20
-738.0
 30
0.0
 11
-2372.0
 21
-694.0
 31
0.0
  0
TEXT
  5
17F
100
AcDbEntity
  8
TEXT
100
AcDbText
 10
-2432.983217
 20
-716.700235
 30
0.0
 40
3.99996
  1
packed
 41
0.8
  7
ROMANS
 72
     1
 11
-2424.602348
 21
-716.700235
 31
0.0
100
AcDbText
  0
LWPOLYLINE
  5
180
100
AcDbEntity
  8
GLAS_MED_FOGNING
100
AcDbPolyline
 90
        2
 70
     0
 43
0.0
 10
-2424.231876
 20
-719.335619
 10
-2434.231876
 20
-719.335619
  0
TEXT
  5
181
100
AcDbEntity
  8
TEXT
100
AcDbText
 10
-2433.286399
 20
-732.315659
 30
0.0
 40
3.99996
  1
Sealing band
 41
0.8
  7
ROMANS
 72
     1
 11
-2417.515128
 21
-732.315659
 31
0.0
100
AcDbText
  0
TEXT
  5
182
100
AcDbEntity
  8
TEXT
100
AcDbText
 10
-2432.543613
 20
-726.228566
 30
0.0
 40
3.99996
  1
Alt. Ceramic
 41
0.8
  7
ROMANS
 72
     1
 11
-2417.762808
 21
-726.228566
 31
0.0
100
AcDbText
  0
LINE
  5
183
100
AcDbEntity
  8
DIMENSION
100
AcDbLine
 10
-2400.411735
 20
-719.335619
 30
0.0
 11
-2434.231876
 21
-719.335619
 31
0.0
  0
TEXT
  5
184
100
AcDbEntity
  8
TEXT
100
AcDbText
 10
-2437.135021
 20
-710.613143
 30
0.0
 40
3.99996
  1
Rockwool well
 41
0.8
  7
ROMANS
 72
     1
 11
-2420.373284
 21
-710.613143
 31
0.0
100
AcDbText
  0
TEXT
  5
185
100
AcDbEntity
  8
0
  6
BYBLOCK
 62
     6
100
AcDbText
 10
-2432.788049
 20
-742.803381
 30
0.0
 40
2.52
  1
0
 50
270.0
 41
0.8
  7
ROMANS
 72
     4
 11
-2431.528049
 21
-743.763381
 31
0.0
100
AcDbText
  0
LINE
  5
186
100
AcDbEntity
  8
DIMENSION
100
AcDbLine
 10
-2379.862415
 20
-730.608448
 30
0.0
 11
-2400.411735
 21
-719.335619
 31
0.0
  0
LINE
  5
187
100
AcDbEntity
  8
DIMENSION
100
AcDbLine
 10
-2380.339385
 20
-730.347886
 30
0.0
 11
-2382.422734
 21
-727.843949
 31
0.0
  0
TEXT
  5
188
100
AcDbEntity
  8
0
  6
BYBLOCK
 62
     6
100
AcDbText
 10
-2426.758988
 20
-744.723381
 30
0.0
 40
2.52
  1
5
 50
90.0
 41
0.8
  7
ROMANS
 72
     1
 11
-2428.018988
 21
-743.763381
 31
0.0
100
AcDbText
 73
     2
  0
LWPOLYLINE
  5
189
100
AcDbEntity
  8
DIMENSION
100
AcDbPolyline
 90
        2
 70
     0
 43
0.0
 10
-2380.414963
 20
-730.306599
 10
-2383.594688
 20
-729.738705
  0
LINE
  5
18A
100
AcDbEntity
  8
DIMENSION
100
AcDbLine
 10
-2379.862415
 20
-730.608448
 30
0.0
 11
-2383.629851
 21
-729.935589
 31
0.0
  0
LINE
  5
18B
100
AcDbEntity
  8
SPKONTUR
100
AcDbLine
 10
-2376.0
 20
-720.0
 30
0.0
 11
-2397.0
 21
-720.0
 31
0.0
  0
LWPOLYLINE
  5
18C
100
AcDbEntity
  8
FOGNINGB
100
AcDbPolyline
 90
        2
 70
     0
 43
0.8
 10
-2376.0
 20
-719.6
 10
-2397.0
 20
-719.6
  0
LWPOLYLINE
  5
18D
100
AcDbEntity
  8
STALPROFIL
100
AcDbPolyline
 90
        2
 70
     0
 43
2.0
 10
-2386.0
 20
-721.0
 10
-2376.5
 20
-721.0
  0
LINE
  5
18E
100
AcDbEntity
  8
FOGNINGB
100
AcDbLine
 10
-2376.0
 20
-720.0
 30
0.0
 11
-2375.4
 21
-719.4
 31
0.0
  0
LINE
  5
18F
100
AcDbEntity
  8
GLAS_MED_FOGNING
100
AcDbLine
 10
-2375.752777
 20
-722.0
 30
0.0
 11
-2375.752777
 21
-728.0
 31
0.0
  0
LINE
  5
190
100
AcDbEntity
  8
GLAS_MED_FOGNING
100
AcDbLine
 10
-2379.505553
 20
-722.0
 30
0.0
 11
-2379.505553
 21
-728.0
 31
0.0
  0
LINE
  5
191
100
AcDbEntity
  8
GLAS_MED_FOGNING
100
AcDbLine
 10
-2376.0
 20
-721.0
 30
0.0
 11
-2375.4
 21
-720.4
 31
0.0
  0
LINE
  5
192
100
AcDbEntity
  8
GLAS_MED_FOGNING
100
AcDbLine
 10
-2376.0
 20
-702.6
 30
0.0
 11
-2375.4
 21
-702.0
 31
0.0
  0
LINE
  5
193
100
AcDbEntity
  8
GLAS_MED_FOGNING
100
AcDbLine
 10
-2376.0
 20
-701.0
 30
0.0
 11
-2375.4
 21
-700.4
 31
0.0
  0
LINE
  5
194
100
AcDbEntity
  8
GLAS_MED_FOGNING
100
AcDbLine
 10
-2375.4
 20
-700.0
 30
0.0
 11
-2372.0
 21
-697.957074
 31
0.0
  0
LINE
  5
195
100
AcDbEntity
  8
GLAS_MED_FOGNING
100
AcDbLine
 10
-2283.4
 20
-720.4
 30
0.0
 11
-2283.4
 21
-700.0
 31
0.0
  0
LINE
  5
196
100
AcDbEntity
  8
GLAS_MED_FOGNING
100
AcDbLine
 10
-2276.6
 20
-720.4
 30
0.0
 11
-2276.6
 21
-700.0
 31
0.0
  0
LINE
  5
197
100
AcDbEntity
  8
GLAS_MED_FOGNING
100
AcDbLine
 10
-2276.0
 20
-722.0
 30
0.0
 11
-2276.0
 21
-701.0
 31
0.0
  0
LINE
  5
198
100
AcDbEntity
  8
GLAS_MED_FOGNING
100
AcDbLine
 10
-2284.0
 20
-722.0
 30
0.0
 11
-2284.0
 21
-701.0
 31
0.0
  0
LINE
  5
199
100
AcDbEntity
  8
DIMENSION
100
AcDbLine
 10
-2278.640581
 20
-706.448357
 30
0.0
 11
-2276.616053
 21
-703.200651
 31
0.0
  0
LINE
  5
19A
100
AcDbEntity
  8
GLAS_MED_FOGNING
100
AcDbLine
 10
-2368.6
 20
-720.4
 30
0.0
 11
-2368.6
 21
-700.0
 31
0.0
  0
LINE
  5
19B
100
AcDbEntity
  8
GLAS_MED_FOGNING
100
AcDbLine
 10
-2368.0
 20
-722.0
 30
0.0
 11
-2368.0
 21
-701.0
 31
0.0
  0
LINE
  5
19C
100
AcDbEntity
  8
CENTRUM
100
AcDbLine
 10
-2280.0
 20
-738.0
 30
0.0
 11
-2280.0
 21
-694.0
 31
0.0
  0
LINE
  5
19D
100
AcDbEntity
  8
SPKONTUR
100
AcDbLine
 10
-2284.0
 20
-720.0
 30
0.0
 11
-2368.0
 21
-720.0
 31
0.0
  0
LWPOLYLINE
  5
19E
100
AcDbEntity
  8
FOGNINGB
100
AcDbPolyline
 90
        2
 70
     0
 43
0.8
 10
-2284.0
 20
-719.6
 10
-2368.0
 20
-719.6
  0
LWPOLYLINE
  5
19F
100
AcDbEntity
  8
SPKONTUR
100
AcDbPolyline
 90
        2
 70
     0
 43
0.0
 10
-2367.5
 20
-720.0
 10
-2362.0
 20
-720.0
  0
LINE
  5
1A0
100
AcDbEntity
  8
FOGNINGB
100
AcDbLine
 10
-2368.0
 20
-720.0
 30
0.0
 11
-2368.6
 21
-719.4
 31
0.0
  0
LINE
  5
1A1
100
AcDbEntity
  8
GLAS_MED_FOGNING
100
AcDbLine
 10
-2368.247223
 20
-722.0
 30
0.0
 11
-2368.247223
 21
-728.0
 31
0.0
  0
LINE
  5
1A2
100
AcDbEntity
  8
GLAS_MED_FOGNING
100
AcDbLine
 10
-2364.494447
 20
-722.0
 30
0.0
 11
-2364.494447
 21
-728.0
 31
0.0
  0
LWPOLYLINE
  5
1A3
100
AcDbEntity
  8
STALPROFIL
100
AcDbPolyline
 90
        2
 70
     0
 43
2.0
 10
-2367.5
 20
-721.0
 10
-2362.0
 20
-721.0
  0
LINE
  5
1A4
100
AcDbEntity
  8
GLAS_MED_FOGNING
100
AcDbLine
 10
-2368.0
 20
-721.0
 30
0.0
 11
-2368.6
 21
-720.4
 31
0.0
  0
LINE
  5
1A5
100
AcDbEntity
  8
DIMENSION
100
AcDbLine
 10
-2292.556358
 20
-748.571216
 30
0.0
 11
-2289.64911
 21
-750.246955
 31
0.0
  0
LINE
  5
1A6
100
AcDbEntity
  8
DIMENSION
100
AcDbLine
 10
-2292.97549
 20
-748.225209
 30
0.0
 11
-2289.41486
 21
-749.895816
 31
0.0
  0
LINE
  5
1A7
100
AcDbEntity
  8
FOGNINGB
100
AcDbLine
 10
-2284.0
 20
-720.0
 30
0.0
 11
-2283.4
 21
-719.4
 31
0.0
  0
LINE
  5
1A8
100
AcDbEntity
  8
GLAS_MED_FOGNING
100
AcDbLine
 10
-2272.494447
 20
-722.0
 30
0.0
 11
-2287.505553
 21
-722.0
 31
0.0
  0
LINE
  5
1A9
100
AcDbEntity
  8
GLAS_MED_FOGNING
100
AcDbLine
 10
-2272.494447
 20
-728.0
 30
0.0
 11
-2287.505553
 21
-728.0
 31
0.0
  0
LINE
  5
1AA
100
AcDbEntity
  8
GLAS_MED_FOGNING
100
AcDbLine
 10
-2284.0
 20
-721.0
 30
0.0
 11
-2283.4
 21
-720.4
 31
0.0
  0
LWPOLYLINE
  5
1AB
100
AcDbEntity
  8
STALPROFIL
100
AcDbPolyline
 90
        2
 70
     0
 43
2.0
 10
-2294.0
 20
-721.0
 10
-2284.5
 20
-721.0
  0
LINE
  5
1AC
100
AcDbEntity
  8
GLAS_MED_FOGNING
100
AcDbLine
 10
-2283.752777
 20
-722.0
 30
0.0
 11
-2283.752777
 21
-728.0
 31
0.0
  0
LINE
  5
1AD
100
AcDbEntity
  8
GLAS_MED_FOGNING
100
AcDbLine
 10
-2287.505553
 20
-722.0
 30
0.0
 11
-2287.505553
 21
-728.0
 31
0.0
  0
LINE
  5
1AE
100
AcDbEntity
  8
SPKONTUR
100
AcDbLine
 10
-2258.0
 20
-720.0
 30
0.0
 11
-2276.0
 21
-720.0
 31
0.0
  0
LWPOLYLINE
  5
1AF
100
AcDbEntity
  8
FOGNINGB
100
AcDbPolyline
 90
        2
 70
     0
 43
0.8
 10
-2258.0
 20
-719.6
 10
-2276.0
 20
-719.6
  0
LWPOLYLINE
  5
1B0
100
AcDbEntity
  8
SPKONTUR
100
AcDbPolyline
 90
        2
 70
     0
 43
0.0
 10
-2275.5
 20
-720.0
 10
-2270.0
 20
-720.0
  0
LINE
  5
1B1
100
AcDbEntity
  8
FOGNINGB
100
AcDbLine
 10
-2276.0
 20
-720.0
 30
0.0
 11
-2276.6
 21
-719.4
 31
0.0
  0
LINE
  5
1B2
100
AcDbEntity
  8
GLAS_MED_FOGNING
100
AcDbLine
 10
-2272.494447
 20
-722.0
 30
0.0
 11
-2272.494447
 21
-728.0
 31
0.0
  0
LINE
  5
1B3
100
AcDbEntity
  8
GLAS_MED_FOGNING
100
AcDbLine
 10
-2276.247223
 20
-722.0
 30
0.0
 11
-2276.247223
 21
-728.0
 31
0.0
  0
LINE
  5
1B4
100
AcDbEntity
  8
GLAS_MED_FOGNING
100
AcDbLine
 10
-2276.0
 20
-721.0
 30
0.0
 11
-2276.6
 21
-720.4
 31
0.0
  0
LWPOLYLINE
  5
1B5
100
AcDbEntity
  8
STALPROFIL
100
AcDbPolyline
 90
        2
 70
     0
 43
2.0
 10
-2275.5
 20
-721.0
 10
-2270.0
 20
-721.0
  0
LINE
  5
1B6
100
AcDbEntity
  8
GLAS_MED_FOGNING
100
AcDbLine
 10
-2278.0
 20
-706.0
 30
0.0
 11
-2278.6
 21
-705.4
 31
0.0
  0
LINE
  5
1B7
100
AcDbEntity
  8
GLAS_MED_FOGNING
100
AcDbLine
 10
-2278.0
 20
-707.6
 30
0.0
 11
-2278.6
 21
-707.0
 31
0.0
  0
LINE
  5
1B8
100
AcDbEntity
  8
DIMENSION
100
AcDbLine
 10
-2278.640581
 20
-706.448357
 30
0.0
 11
-2275.061043
 21
-705.28879
 31
0.0
  0
LINE
  5
1B9
100
AcDbEntity
  8
GLAS_MED_FOGNING
100
AcDbLine
 10
-2368.0
 20
-702.6
 30
0.0
 11
-2368.6
 21
-702.0
 31
0.0
  0
LINE
  5
1BA
100
AcDbEntity
  8
GLAS_MED_FOGNING
100
AcDbLine
 10
-2368.0
 20
-701.0
 30
0.0
 11
-2368.6
 21
-700.4
 31
0.0
  0
LINE
  5
1BB
100
AcDbEntity
  8
DIMENSION
100
AcDbLine
 10
-2301.172312
 20
-666.236927
 30
0.0
 11
-2301.172312
 21
-683.129424
 31
0.0
  0
LINE
  5
1BC
100
AcDbEntity
  8
GLAS_MED_FOGNING
100
AcDbLine
 10
-2276.0
 20
-702.6
 30
0.0
 11
-2284.0
 21
-702.6
 31
0.0
  0
LINE
  5
1BD
100
AcDbEntity
  8
GLAS_MED_FOGNING
100
AcDbLine
 10
-2284.0
 20
-702.6
 30
0.0
 11
-2283.4
 21
-702.0
 31
0.0
  0
LINE
  5
1BE
100
AcDbEntity
  8
GLAS_MED_FOGNING
100
AcDbLine
 10
-2284.0
 20
-701.0
 30
0.0
 11
-2283.4
 21
-700.4
 31
0.0
  0
LINE
  5
1BF
100
AcDbEntity
  8
GLAS_MED_FOGNING
100
AcDbLine
 10
-2276.6
 20
-700.0
 30
0.0
 11
-2280.0
 21
-697.957074
 31
0.0
  0
LINE
  5
1C0
100
AcDbEntity
  8
GLAS_MED_FOGNING
100
AcDbLine
 10
-2276.6
 20
-702.0
 30
0.0
 11
-2283.4
 21
-702.0
 31
0.0
  0
LINE
  5
1C1
100
AcDbEntity
  8
GLAS_MED_FOGNING
100
AcDbLine
 10
-2283.4
 20
-700.0
 30
0.0
 11
-2280.0
 21
-697.957074
 31
0.0
  0
LINE
  5
1C2
100
AcDbEntity
  8
GLAS_MED_FOGNING
100
AcDbLine
 10
-2276.0
 20
-702.6
 30
0.0
 11
-2276.6
 21
-702.0
 31
0.0
  0
LINE
  5
1C3
100
AcDbEntity
  8
GLAS_MED_FOGNING
100
AcDbLine
 10
-2276.0
 20
-701.0
 30
0.0
 11
-2276.6
 21
-700.4
 31
0.0
  0
TEXT
  5
1C7
100
AcDbEntity
  8
0
  6
BYBLOCK
 62
     6
100
AcDbText
 10
-2250.357085
 20
-724.898359
 30
0.0
 40
2.52
  1
0
 50
90.0
 41
0.8
  7
ROMANS
 72
     4
 11
-2251.617085
 21
-723.938359
 31
0.0
100
AcDbText
  0
LINE
  5
1C8
100
AcDbEntity
  8
DIMENSION
100
AcDbLine
 10
-2231.319241
 20
-683.129424
 30
0.0
 11
-2231.319241
 21
-666.236927
 31
0.0
  0
LINE
  5
1C9
100
AcDbEntity
  8
DIMENSION
100
AcDbLine
 10
-2241.694948
 20
-683.129424
 30
0.0
 11
-2231.319241
 21
-683.129424
 31
0.0
  0
ARC
  5
1CA
100
AcDbEntity
  8
GLAS_MED_FOGNING
100
AcDbCircle
 10
-535.0
 20
-2239.769974
 30
-812.29784
 40
3.0
210
0.3420201433256688
220
0.0
230
-0.9396926207859085
100
AcDbArc
 50
0.0
 51
90.0
  0
ARC
  5
1CB
100
AcDbEntity
  8
GLAS_MED_FOGNING
100
AcDbCircle
 10
-535.0
 20
2223.769974
 30
-812.29784
 40
3.0
210
0.3420201433256687
220
0.0
230
0.9396926207859085
100
AcDbArc
 50
0.0
 51
90.0
  0
TEXT
  5
1CC
100
AcDbEntity
  8
TEXT
100
AcDbText
 10
-2490.846453
 20
-373.033754
 30
0.0
 40
5.0
  1
Alt. Intumex (expanding)
 41
0.8
  7
ROMANS
 72
     1
 11
-2453.227405
 21
-373.033754
 31
0.0
100
AcDbText
  0
TEXT
  5
1CD
100
AcDbEntity
  8
TEXT
100
AcDbText
 10
-2480.489996
 20
-393.728477
 30
0.0
 40
5.0
  1
Bottom seal Pyrosil B
 41
0.8
  7
ROMANS
 72
     1
 11
-2446.013806
 21
-393.728477
 31
0.0
100
AcDbText
  0
TEXT
  5
1CE
100
AcDbEntity
  8
TEXT
100
AcDbText
 10
-2479.447605
 20
-363.531098
 30
0.0
 40
5.0
  1
Sealing band Fiberfrax
 41
0.8
  7
ROMANS
 72
     1
 11
-2444.590462
 21
-363.531098
 31
0.0
100
AcDbText
  0
LINE
  5
1CF
100
AcDbEntity
  8
GLAS_MED_FOGNING
100
AcDbLine
 10
-2401.404393
 20
-397.362088
 30
0.0
 11
-2493.700903
 21
-397.362088
 31
0.0
  0
LINE
  5
1D0
100
AcDbEntity
  8
GLAS_MED_FOGNING
100
AcDbLine
 10
-2398.935327
 20
-376.128171
 30
0.0
 11
-2491.601118
 21
-376.128171
 31
0.0
  0
TEXT
  5
1D1
100
AcDbEntity
  8
TEXT
100
AcDbText
 10
-2524.343681
 20
-407.115481
 30
0.0
 40
5.0
  1
Distance block promatec, oak or equal
 41
0.8
  7
ROMANS
 72
     1
 11
-2462.819871
 21
-407.115481
 31
0.0
100
AcDbText
  0
LINE
  5
1D2
100
AcDbEntity
  8
GLAS_MED_FOGNING
100
AcDbLine
 10
-2399.554997
 20
-411.743568
 30
0.0
 11
-2527.206009
 21
-411.743568
 31
0.0
  0
DIMENSION
  5
1D3
100
AcDbEntity
  8
DIMENSION
100
AcDbDimension
  2
*D19
 10
-2250.0
 20
-545.0
 30
0.0
 11
-2253.5
 21
-539.627741
 31
0.0
 70
   128
  1
15%%P
  3
ROMANS
100
AcDbAlignedDimension
 13
-2280.0
 23
-530.0
 33
0.0
 14
-2295.0
 24
-545.0
 34
0.0
 50
90.0
100
AcDbRotatedDimension
  0
LINE
  5
1E0
100
AcDbEntity
  8
DIMENSION
100
AcDbLine
 10
-2286.331769
 20
-566.018519
 30
0.0
 11
-2240.37498
 21
-566.018519
 31
0.0
  0
TEXT
  5
1E1
100
AcDbEntity
  8
TEXT
100
AcDbText
 10
-2275.29709
 20
-562.9321
 30
0.0
 40
5.0
  1
Rockwool
 41
0.8
  7
ROMANS
 72
     1
 11
-2261.678043
 21
-562.9321
 31
0.0
100
AcDbText
  0
TEXT
  5
1E2
100
AcDbEntity
  8
TEXT
100
AcDbText
 10
-2276.810686
 20
-572.075671
 30
0.0
 40
3.99996
  1
Alt. Ceramic
 41
0.8
  7
ROMANS
 72
     1
 11
-2262.029881
 21
-572.075671
 31
0.0
100
AcDbText
  0
TEXT
  5
1E3
100
AcDbEntity
  8
0
  6
BYBLOCK
 62
     6
100
AcDbText
 10
-2254.078646
 20
-534.112036
 30
0.0
 40
2.52
  1
5
 50
90.0
 41
0.8
  7
ROMANS
 72
     1
 11
-2255.338646
 21
-533.152036
 31
0.0
100
AcDbText
 73
     2
  0
DIMENSION
  5
1E4
100
AcDbEntity
  8
DIMENSION
100
AcDbDimension
  2
*D20
 10
-2370.006741
 20
-574.52672
 30
0.0
 11
-2375.005395
 21
-570.52672
 31
0.0
  1
10
  3
STANDARD
100
AcDbAlignedDimension
 13
-2380.004048
 23
-565.383063
 33
0.0
 14
-2370.006741
 24
-565.608872
 34
0.0
100
AcDbRotatedDimension
1001
ACAD
1000
DSTYLE
1002
{
1070
    78
1070
     8
1070
   270
1070
     8
1070
   140
1040
4.0
1070
   340
1005
1C
1070
    74
1070
     0
1070
   172
1070
     1
1070
    73
1070
     0
1070
    77
1070
     1
1070
   147
1040
2.0
1070
    42
1040
0.625
1070
    44
1040
1.25
1070
    43
1040
3.75
1070
   178
1070
     6
1070
   141
1040
2.5
1070
    41
1040
2.5
1070
   273
1070
     8
1070
   274
1070
     4
1070
   143
1040
0.0394
1070
   171
1070
     4
1002
}
  0
INSERT
  5
1F1
100
AcDbEntity
  8
0
100
AcDbBlockReference
  2
SP79020
 10
-2295.0
 20
-570.0
 30
0.0
  0
LINE
  5
1F2
100
AcDbEntity
  8
DIMENSION
100
AcDbLine
 10
-2397.571209
 20
-586.958826
 30
0.0
 11
-2386.064319
 21
-540.422036
 31
0.0
  0
TEXT
  5
1F3
100
AcDbEntity
  8
TEXT
100
AcDbText
 10
-2303.0
 20
-589.842857
 30
0.0
 40
5.0
  1
%%USP 79020
 50
90.0
 41
0.8
  7
ROMANS
 72
     1
 11
-2303.0
 21
-575.0
 31
0.0
100
AcDbText
  0
TEXT
  5
1F4
100
AcDbEntity
  8
TEXT
100
AcDbText
 10
-2381.614278
 20
-639.854436
 30
0.0
 40
5.0
  1
Movable fixing for the upper edge of 
 41
0.8
  7
ROMANS
 72
     1
 11
-2320.757135
 21
-639.854436
 31
0.0
100
AcDbText
  0
LINE
  5
1F5
100
AcDbEntity
  8
DIMENSION
100
AcDbLine
 10
-2381.439724
 20
-655.092449
 30
0.0
 11
-2260.487076
 21
-655.092449
 31
0.0
  0
LINE
  5
1F6
100
AcDbEntity
  8
DIMENSION
100
AcDbLine
 10
-2381.439724
 20
-642.065471
 30
0.0
 11
-2260.487076
 21
-642.065471
 31
0.0
  0
TEXT
  5
1F7
100
AcDbEntity
  8
TEXT
100
AcDbText
 10
-2378.736101
 20
-651.73367
 30
0.0
 40
5.0
  1
the section with a longitudinal profile
 41
0.8
  7
ROMANS
 72
     1
 11
-2319.878958
 21
-651.73367
 31
0.0
100
AcDbText
  0
TEXT
  5
1F8
100
AcDbEntity
  8
TEXT
100
AcDbText
 10
-2445.395653
 20
-574.68709
 30
0.0
 40
5.0
  1
Sealing mass
 41
0.8
  7
ROMANS
 72
     1
 11
-2424.919462
 21
-574.68709
 31
0.0
100
AcDbText
  0
LINE
  5
1F9
100
AcDbEntity
  8
DIMENSION
100
AcDbLine
 10
-2444.177541
 20
-577.384762
 30
0.0
 11
-2409.340367
 21
-577.384762
 31
0.0
  0
TEXT
  5
1FA
100
AcDbEntity
  8
TEXT
100
AcDbText
 10
-2440.1899
 20
-584.411724
 30
0.0
 40
5.0
  1
Pyrosil B
 41
0.8
  7
ROMANS
 72
     1
 11
-2426.380376
 21
-584.411724
 31
0.0
100
AcDbText
  0
LINE
  5
1FB
100
AcDbEntity
  8
DIMENSION
100
AcDbLine
 10
-2397.571209
 20
-586.958826
 30
0.0
 11
-2443.527998
 21
-586.958826
 31
0.0
  0
TEXT
  5
1FC
100
AcDbEntity
  8
TEXT
100
AcDbText
 10
-2277.757652
 20
-578.162763
 30
0.0
 40
3.99996
  1
sealing band
 41
0.8
  7
ROMANS
 72
     1
 11
-2262.214951
 21
-578.162763
 31
0.0
100
AcDbText
  0
LWPOLYLINE
  5
1FD
100
AcDbEntity
  8
GLAS_MED_FOGNING
100
AcDbPolyline
 90
        6
 70
     1
 43
0.0
 10
-2370.0
 20
-564.0
 10
-2370.0
 20
-535.0
 10
-2380.0
 20
-535.0
 10
-2380.0
 20
-564.0
 10
-2379.0
 20
-565.0
 10
-2371.0
 20
-565.0
  0
LINE
  5
1FE
100
AcDbEntity
  8
GLAS_MED_FOGNING
100
AcDbLine
 10
-2370.0
 20
-564.0
 30
0.0
 11
-2380.0
 21
-564.0
 31
0.0
  0
LINE
  5
1FF
100
AcDbEntity
  8
SPKONTUR
100
AcDbLine
 10
-2409.0
 20
-530.0
 30
0.0
 11
-2271.0
 21
-530.0
 31
0.0
  0
INSERT
  5
200
100
AcDbEntity
  8
FOGNINGB
100
AcDbBlockReference
  2
*X14
 10
-2385.0
 20
-570.0
 30
0.0
 50
180.0
1001
ACAD
1000
HATCH
1002
{
1070
    16
1000
ANSI31
1040
30.0
1040
0.0
1002
}
  0
LWPOLYLINE
  5
220
100
AcDbEntity
  8
FOGNINGB
100
AcDbPolyline
 90
        2
 70
     0
 43
0.8
 10
-2409.0
 20
-529.6
 10
-2271.0
 20
-529.6
  0
LWPOLYLINE
  5
221
100
AcDbEntity
  8
STALPROFIL
100
AcDbPolyline
 90
        2
 70
     0
 43
2.0
 10
-2385.0
 20
-531.0
 10
-2295.0
 20
-531.0
  0
LINE
  5
222
100
AcDbEntity
  8
SPKONTUR
100
AcDbLine
 10
-2385.0
 20
-530.0
 30
0.0
 11
-2295.0
 21
-530.0
 31
0.0
  0
DIMENSION
  5
223
100
AcDbEntity
  8
DIMENSION
100
AcDbDimension
  2
*D18
 10
-2420.0
 20
-530.0
 30
0.0
 11
-2424.0
 21
-547.5
 31
0.0
  1
35
  3
STANDARD
100
AcDbAlignedDimension
 13
-2395.0
 23
-565.0
 33
0.0
 14
-2369.461538
 24
-530.0
 34
0.0
 50
90.0
100
AcDbRotatedDimension
1001
ACAD
1000
DSTYLE
1002
{
1070
    78
1070
     8
1070
   270
1070
     8
1070
   140
1040
4.0
1070
   340
1005
1C
1070
    74
1070
     0
1070
   172
1070
     1
1070
    73
1070
     0
1070
    77
1070
     1
1070
   147
1040
2.0
1070
    42
1040
0.625
1070
    44
1040
1.25
1070
    43
1040
3.75
1070
   178
1070
     6
1070
   141
1040
2.5
1070
    41
1040
2.5
1070
   273
1070
     8
1070
   274
1070
     4
1070
   143
1040
0.0394
1070
   171
1070
     4
1002
}
  0
LINE
  5
230
100
AcDbEntity
  8
GLAS_MED_FOGNING
100
AcDbLine
 10
-2378.687379
 20
-533.479021
 30
0.0
 11
-2406.900865
 21
-505.89369
 31
0.0
  0
LINE
  5
231
100
AcDbEntity
  8
CENTRUM
100
AcDbLine
 10
-2375.0
 20
-565.0
 30
0.0
 11
-2375.0
 21
-525.0
 31
0.0
  0
ARC
  5
232
100
AcDbEntity
  8
GLAS_MED_FOGNING
100
AcDbCircle
 10
-2402.609845
 20
-546.864175
 30
0.0
 40
17.62132
100
AcDbArc
 50
357.932165
 51
73.14319
  0
INSERT
  5
233
100
AcDbEntity
  8
GLAS_MED_FOGNING
100
AcDbBlockReference
  2
*X13
 10
-2385.0
 20
-570.0
 30
0.0
 50
180.0
1001
ACAD
1000
HATCH
1002
{
1070
    16
1000
AR-SAND
1040
2.0
1040
0.0
1002
}
  0
ARC
  5
26B
100
AcDbEntity
  8
GLAS_MED_FOGNING
100
AcDbCircle
 10
-2383.0
 20
-535.0
 30
0.0
 40
3.0
100
AcDbArc
 50
0.0
 51
90.0
  0
TEXT
  5
26C
100
AcDbEntity
  8
TEXT
100
AcDbText
 10
-2431.491429
 20
-504.308097
 30
0.0
 40
5.0
  1
4 mm
 41
0.8
  7
ROMANS
 72
     1
 11
-2421.967619
 21
-504.308097
 31
0.0
100
AcDbText
  0
LINE
  5
26D
100
AcDbEntity
  8
GLAS_MED_FOGNING
100
AcDbLine
 10
-2406.900865
 20
-505.89369
 30
0.0
 11
-2445.541083
 21
-505.89369
 31
0.0
  0
INSERT
  5
26E
100
AcDbEntity
  8
ISOLERING
100
AcDbBlockReference
  2
*X15
 10
-2750.0
 20
-1795.0
 30
0.0
1001
ACAD
1000
HATCH
1002
{
1070
    16
1000
ANSI31
1040
6.0
1040
0.0
1002
}
  0
LINE
  5
27B
100
AcDbEntity
  8
GLAS_MED_FOGNING
100
AcDbLine
 10
-2440.0
 20
-500.0
 30
0.0
 11
-2440.0
 21
-505.0
 31
0.0
  0
LINE
  5
27C
100
AcDbEntity
  8
GLAS_MED_FOGNING
100
AcDbLine
 10
-2435.0
 20
-505.0
 30
0.0
 11
-2440.0
 21
-500.0
 31
0.0
  0
LINE
  5
27D
100
AcDbEntity
  8
GLAS_MED_FOGNING
100
AcDbLine
 10
-2440.0
 20
-505.0
 30
0.0
 11
-2435.0
 21
-505.0
 31
0.0
  0
LINE
  5
27E
100
AcDbEntity
  8
DIMENSION
100
AcDbLine
 10
-2343.640581
 20
-531.448357
 30
0.0
 11
-2316.411061
 21
-508.097058
 31
0.0
  0
LWPOLYLINE
  5
27F
100
AcDbEntity
  8
ISOLERING
100
AcDbPolyline
 90
       56
 70
     0
 43
0.0
 10
-2302.0
 20
-532.563508
 42
0.538866
 10
-2304.476471
 20
-534.805882
 10
-2303.023529
 20
-542.194118
 42
-1.166667
 10
-2306.976471
 20
-542.194118
 10
-2305.523529
 20
-534.805882
 42
1.166667
 10
-2309.476471
 20
-534.805882
 10
-2308.023529
 20
-542.194118
 42
-1.166667
 10
-2311.976471
 20
-542.194118
 10
-2310.523529
 20
-534.805882
 42
1.166667
 10
-2314.476471
 20
-534.805882
 10
-2313.023529
 20
-542.194118
 42
-1.166667
 10
-2316.976471
 20
-542.194118
 10
-2315.523529
 20
-534.805882
 42
1.166667
 10
-2319.476471
 20
-534.805882
 10
-2318.023529
 20
-542.194118
 42
-1.166667
 10
-2321.976471
 20
-542.194118
 10
-2320.523529
 20
-534.805882
 42
1.166667
 10
-2324.476471
 20
-534.805882
 10
-2323.023529
 20
-542.194118
 42
-1.166667
 10
-2326.976471
 20
-542.194118
 10
-2325.523529
 20
-534.805882
 42
1.166667
 10
-2329.476471
 20
-534.805882
 10
-2328.023529
 20
-542.194118
 42
-1.166667
 10
-2331.976471
 20
-542.194118
 10
-2330.523529
 20
-534.805882
 42
1.166667
 10
-2334.476471
 20
-534.805882
 10
-2333.023529
 20
-542.194118
 42
-1.166667
 10
-2336.976471
 20
-542.194118
 10
-2335.523529
 20
-534.805882
 42
1.166667
 10
-2339.476471
 20
-534.805882
 10
-2338.023529
 20
-542.194118
 42
-1.166667
 10
-2341.976471
 20
-542.194118
 10
-2340.523529
 20
-534.805882
 42
1.166667
 10
-2344.476471
 20
-534.805882
 10
-2343.023529
 20
-542.194118
 42
-1.166667
 10
-2346.976471
 20
-542.194118
 10
-2345.523529
 20
-534.805882
 42
1.166667
 10
-2349.476471
 20
-534.805882
 10
-2348.023529
 20
-542.194118
 42
-1.166667
 10
-2351.976471
 20
-542.194118
 10
-2350.523529
 20
-534.805882
 42
1.166667
 10
-2354.476471
 20
-534.805882
 10
-2353.023529
 20
-542.194118
 42
-1.166667
 10
-2356.976471
 20
-542.194118
 10
-2355.523529
 20
-534.805882
 42
1.166667
 10
-2359.476471
 20
-534.805882
 10
-2358.023529
 20
-542.194118
 42
-1.166667
 10
-2361.976471
 20
-542.194118
 10
-2360.523529
 20
-534.805882
 42
1.166667
 10
-2364.476471
 20
-534.805882
 10
-2363.023529
 20
-542.194118
 42
-1.166667
 10
-2366.976471
 20
-542.194118
 10
-2365.523529
 20
-534.805882
 42
1.166667
 10
-2369.476471
 20
-534.805882
 10
-2368.023529
 20
-542.194118
 42
-0.459935
 10
-2370.0
 20
-544.5
  0
ARC
  5
280
100
AcDbEntity
  8
GLAS_MED_FOGNING
100
AcDbCircle
 10
-2367.0
 20
-535.0
 30
0.0
 40
3.0
100
AcDbArc
 50
90.0
 51
180.0
  0
TEXT
  5
281
100
AcDbEntity
  8
0
  6
BYBLOCK
 62
     6
100
AcDbText
 10
-2350.429404
 20
-534.112036
 30
0.0
 40
2.52
  1
0
 50
90.0
 41
0.8
  7
ROMANS
 72
     4
 11
-2351.689404
 21
-533.152036
 31
0.0
100
AcDbText
  0
LINE
  5
282
100
AcDbEntity
  8
DIMENSION
100
AcDbLine
 10
-2286.331769
 20
-566.018519
 30
0.0
 11
-2310.571562
 21
-538.463949
 31
0.0
  0
ARC
  5
283
100
AcDbEntity
  8
GLAS_MED_FOGNING
100
AcDbCircle
 10
-2277.390155
 20
-546.864175
 30
0.0
 40
17.62132
100
AcDbArc
 50
106.85681
 51
182.067835
  0
LINE
  5
284
100
AcDbEntity
  8
GLAS_MED_FOGNING
100
AcDbLine
 10
-2302.0
 20
-545.0
 30
0.0
 11
-2302.0
 21
-530.0
 31
0.0
  0
INSERT
  5
285
100
AcDbEntity
  8
GLAS_MED_FOGNING
100
AcDbBlockReference
  2
*X12
 10
-2360.0
 20
-570.0
 30
0.0
 50
180.0
1001
ACAD
1000
HATCH
1002
{
1070
    16
1000
AR-SAND
1040
2.0
1040
0.0
1002
}
  0
TEXT
  5
2C0
100
AcDbEntity
  8
TEXT
100
AcDbText
 10
-2334.196452
 20
-498.637779
 30
0.0
 40
5.0
  1
Flat steel 40 X 90 X 3
 41
0.8
  7
ROMANS
 72
     1
 11
-2296.386928
 21
-498.637779
 31
0.0
100
AcDbText
  0
LINE
  5
2C1
100
AcDbEntity
  8
DIMENSION
100
AcDbLine
 10
-2335.618669
 20
-508.129424
 30
0.0
 11
-2271.694948
 21
-508.129424
 31
0.0
  0
TEXT
  5
2C2
100
AcDbEntity
  8
TEXT
100
AcDbText
 10
-2324.826258
 20
-506.019913
 30
0.0
 40
5.0
  1
welded or screwed
 41
0.8
  7
ROMANS
 72
     1
 11
-2296.064353
 21
-506.019913
 31
0.0
100
AcDbText
  0
LINE
  5
2C3
100
AcDbEntity
  8
DIMENSION
100
AcDbLine
 10
-2271.694948
 20
-508.129424
 30
0.0
 11
-2255.979121
 21
-508.129424
 31
0.0
  0
LINE
  5
2C4
100
AcDbEntity
  8
GLAS_MED_FOGNING
100
AcDbLine
 10
-2271.806511
 20
-397.289458
 30
0.0
 11
-2225.371702
 21
-397.289458
 31
0.0
  0
TEXT
  5
2C5
100
AcDbEntity
  8
TEXT
100
AcDbText
 10
-2270.291708
 20
-393.577076
 30
0.0
 40
5.0
  1
Fixing screw
 41
0.8
  7
ROMANS
 72
     1
 11
-2251.339327
 21
-393.577076
 31
0.0
100
AcDbText
  0
TEXT
  5
2C6
100
AcDbEntity
  8
TEXT
100
AcDbText
 10
-2263.869236
 20
-371.952525
 30
0.0
 40
5.0
  1
Glass bead
 41
0.8
  7
ROMANS
 72
     1
 11
-2247.012093
 21
-371.952525
 31
0.0
100
AcDbText
  0
LINE
  5
2C7
100
AcDbEntity
  8
GLAS_MED_FOGNING
100
AcDbLine
 10
-2271.806511
 20
-376.128171
 30
0.0
 11
-2225.371702
 21
-376.128171
 31
0.0
  0
LINE
  5
2C8
100
AcDbEntity
  8
DIMENSION
100
AcDbLine
 10
-2301.219994
 20
-380.545404
 30
0.0
 11
-2271.806511
 21
-397.289458
 31
0.0
  0
LINE
  5
2C9
100
AcDbEntity
  8
DIMENSION
100
AcDbLine
 10
-2379.224414
 20
-373.760227
 30
0.0
 11
-2401.404393
 21
-397.362088
 31
0.0
  0
LINE
  5
2CA
100
AcDbEntity
  8
DIMENSION
100
AcDbLine
 10
-2373.342411
 20
-379.580253
 30
0.0
 11
-2399.554997
 21
-411.743568
 31
0.0
  0
INSERT
  5
2CB
100
AcDbEntity
  8
0
100
AcDbBlockReference
  2
SP79021
 10
-2295.0
 20
-400.0
 30
0.0
  0
LINE
  5
2D6
100
AcDbEntity
  8
DIMENSION
100
AcDbLine
 10
-2433.965739
 20
-474.70601
 30
0.0
 11
-2282.500172
 21
-474.70601
 31
0.0
  0
TEXT
  5
2D7
100
AcDbEntity
  8
TEXT
100
AcDbText
 10
-2421.955267
 20
-471.689208
 30
0.0
 40
5.0
  1
for the upper edge of section C/C 600 mm
 41
0.8
  7
ROMANS
 72
     1
 11
-2350.81241
 21
-471.689208
 31
0.0
100
AcDbText
  0
LINE
  5
2D8
100
AcDbEntity
  8
DIMENSION
100
AcDbLine
 10
-2421.679704
 20
-462.021009
 30
0.0
 11
-2283.936376
 21
-462.021009
 31
0.0
  0
TEXT
  5
2D9
100
AcDbEntity
  8
TEXT
100
AcDbText
 10
-2412.508813
 20
-459.809974
 30
0.0
 40
5.0
  1
Movable fixing with welded steel pivot
 41
0.8
  7
ROMANS
 72
     1
 11
-2352.985003
 21
-459.809974
 31
0.0
100
AcDbText
  0
TEXT
  5
2DB
100
AcDbEntity
  8
TEXT
100
AcDbText
 10
-2303.0
 20
-414.857143
 30
0.0
 40
5.0
  1
SP 79021
 50
90.0
 41
0.8
  7
ROMANS
 72
     1
 11
-2303.0
 21
-400.0
 31
0.0
100
AcDbText
  0
LINE
  5
2DC
100
AcDbEntity
  8
TEXT
100
AcDbLine
 10
-2302.0
 20
-416.0
 30
0.0
 11
-2302.0
 21
-384.0
 31
0.0
  0
LWPOLYLINE
  5
2DD
100
AcDbEntity
  8
CENTRUM
100
AcDbPolyline
 90
        4
 70
     0
 43
0.0
 10
-2325.0
 20
-342.5
 10
-2343.0
 20
-342.5
 10
-2383.0
 20
-342.5
 10
-2390.0
 20
-342.5
  0
LWPOLYLINE
  5
2DE
100
AcDbEntity
  8
CENTRUM
100
AcDbPolyline
 90
        4
 70
     0
 43
0.0
 10
-2320.0
 20
-342.5
 10
-2338.0
 20
-342.5
 10
-2378.0
 20
-342.5
 10
-2385.0
 20
-342.5
  0
INSERT
  5
2DF
100
AcDbEntity
  8
0
100
AcDbBlockReference
  2
GLAS40-4X3DK
 10
-2320.0
 20
-400.0
 30
0.0
  0
TEXT
  5
328
100
AcDbEntity
  8
TEXT
100
AcDbText
 10
-2477.380624
 20
-335.911609
 30
0.0
 40
5.0
  1
glass mounting
 41
0.8
  7
ROMANS
 72
     1
 11
-2454.047291
 21
-335.911609
 31
0.0
100
AcDbText
  0
LINE
  5
329
100
AcDbEntity
  8
GLAS_MED_FOGNING
100
AcDbLine
 10
-2408.935327
 20
-339.28553
 30
0.0
 11
-2487.29285
 21
-339.28553
 31
0.0
  0
LINE
  5
32A
100
AcDbEntity
  8
DIMENSION
100
AcDbLine
 10
-2385.242304
 20
-364.803476
 30
0.0
 11
-2398.935327
 21
-376.128171
 31
0.0
  0
LINE
  5
32B
100
AcDbEntity
  8
DIMENSION
100
AcDbLine
 10
-2379.224414
 20
-373.760227
 30
0.0
 11
-2382.131728
 21
-375.258637
 31
0.0
  0
LWPOLYLINE
  5
32C
100
AcDbEntity
  8
DIMENSION
100
AcDbPolyline
 90
        2
 70
     0
 43
0.0
 10
-2379.224414
 20
-373.760227
 10
-2380.622526
 20
-376.70539
  0
LINE
  5
32D
100
AcDbEntity
  8
DIMENSION
100
AcDbLine
 10
-2378.722232
 20
-373.380444
 30
0.0
 11
-2380.256045
 21
-376.908463
 31
0.0
  0
LINE
  5
32E
100
AcDbEntity
  8
DIMENSION
100
AcDbLine
 10
-2378.722232
 20
-373.380444
 30
0.0
 11
-2382.350805
 21
-374.897836
 31
0.0
  0
LINE
  5
32F
100
AcDbEntity
  8
DIMENSION
100
AcDbLine
 10
-2372.875334
 20
-379.158045
 30
0.0
 11
-2376.357447
 21
-380.986679
 31
0.0
  0
LINE
  5
330
100
AcDbEntity
  8
DIMENSION
100
AcDbLine
 10
-2372.875334
 20
-379.158045
 30
0.0
 11
-2374.09502
 21
-382.806587
 31
0.0
  0
LWPOLYLINE
  5
331
100
AcDbEntity
  8
DIMENSION
100
AcDbPolyline
 90
        2
 70
     0
 43
0.0
 10
-2373.342411
 20
-379.580253
 10
-2374.477843
 20
-382.636312
  0
LINE
  5
332
100
AcDbEntity
  8
DIMENSION
100
AcDbLine
 10
-2373.342411
 20
-379.580253
 30
0.0
 11
-2376.107683
 21
-381.326958
 31
0.0
  0
LINE
  5
333
100
AcDbEntity
  8
GLAS_MED_FOGNING
100
AcDbLine
 10
-2376.357447
 20
-380.986679
 30
0.0
 11
-2376.107683
 21
-381.326958
 31
0.0
  0
LINE
  5
334
100
AcDbEntity
  8
GLAS_MED_FOGNING
100
AcDbLine
 10
-2374.477843
 20
-382.636312
 30
0.0
 11
-2374.09502
 21
-382.806587
 31
0.0
  0
LINE
  5
335
100
AcDbEntity
  8
GLAS_MED_FOGNING
100
AcDbLine
 10
-2378.153459
 20
-376.70539
 30
0.0
 11
-2377.786978
 21
-376.908463
 31
0.0
  0
LINE
  5
336
100
AcDbEntity
  8
GLAS_MED_FOGNING
100
AcDbLine
 10
-2379.881738
 20
-374.897836
 30
0.0
 11
-2379.662661
 21
-375.258637
 31
0.0
  0
LINE
  5
337
100
AcDbEntity
  8
DIMENSION
100
AcDbLine
 10
-2384.710946
 20
-364.465718
 30
0.0
 11
-2388.450734
 21
-365.683505
 31
0.0
  0
LINE
  5
338
100
AcDbEntity
  8
DIMENSION
100
AcDbLine
 10
-2384.710946
 20
-364.465718
 30
0.0
 11
-2386.526127
 21
-367.857563
 31
0.0
  0
LWPOLYLINE
  5
339
100
AcDbEntity
  8
DIMENSION
100
AcDbPolyline
 90
        2
 70
     0
 43
0.0
 10
-2385.242304
 20
-364.803476
 10
-2386.874911
 20
-367.625407
  0
LINE
  5
33A
100
AcDbEntity
  8
DIMENSION
100
AcDbLine
 10
-2385.242304
 20
-364.803476
 30
0.0
 11
-2388.261672
 21
-366.060901
 31
0.0
  0
LINE
  5
33B
100
AcDbEntity
  8
GLAS_MED_FOGNING
100
AcDbLine
 10
-2388.450734
 20
-365.683505
 30
0.0
 11
-2388.261672
 21
-366.060901
 31
0.0
  0
LINE
  5
33C
100
AcDbEntity
  8
GLAS_MED_FOGNING
100
AcDbLine
 10
-2386.874911
 20
-367.625407
 30
0.0
 11
-2386.526127
 21
-367.857563
 31
0.0
  0
LINE
  5
33D
100
AcDbEntity
  8
DIMENSION
100
AcDbLine
 10
-2385.242304
 20
-350.610225
 30
0.0
 11
-2408.935327
 21
-339.28553
 31
0.0
  0
LINE
  5
33E
100
AcDbEntity
  8
GLAS_MED_FOGNING
100
AcDbLine
 10
-2387.664296
 20
-348.427874
 30
0.0
 11
-2387.40391
 21
-348.099626
 31
0.0
  0
LINE
  5
33F
100
AcDbEntity
  8
GLAS_MED_FOGNING
100
AcDbLine
 10
-2388.565837
 20
-350.76056
 30
0.0
 11
-2388.502127
 21
-350.343291
 31
0.0
  0
LINE
  5
340
100
AcDbEntity
  8
DIMENSION
100
AcDbLine
 10
-2385.242304
 20
-350.610225
 30
0.0
 11
-2388.502127
 21
-350.343291
 31
0.0
  0
LWPOLYLINE
  5
341
100
AcDbEntity
  8
DIMENSION
100
AcDbPolyline
 90
        2
 70
     0
 43
0.0
 10
-2385.242304
 20
-350.610225
 10
-2387.664296
 20
-348.427874
  0
LINE
  5
342
100
AcDbEntity
  8
DIMENSION
100
AcDbLine
 10
-2384.632777
 20
-350.768018
 30
0.0
 11
-2387.40391
 21
-348.099626
 31
0.0
  0
LINE
  5
343
100
AcDbEntity
  8
DIMENSION
100
AcDbLine
 10
-2384.632777
 20
-350.768018
 30
0.0
 11
-2388.565837
 21
-350.76056
 31
0.0
  0
LINE
  5
344
100
AcDbEntity
  8
GLAS_MED_FOGNING
100
AcDbLine
 10
-2378.0
 20
-342.5
 30
0.0
 11
-2378.0
 21
-351.0
 31
0.0
  0
TEXT
  5
345
100
AcDbEntity
  8
TEXT
100
AcDbText
 10
-2472.167735
 20
-329.424247
 30
0.0
 40
5.0
  1
Toppsealing see
 41
0.8
  7
ROMANS
 72
     1
 11
-2448.072496
 21
-329.424247
 31
0.0
100
AcDbText
  0
INSERT
  5
346
100
AcDbEntity
  8
0
100
AcDbBlockReference
  2
SP44020
 10
-2295.0
 20
-400.0
 30
0.0
  0
LINE
  5
360
100
AcDbEntity
  8
GLAS_MED_FOGNING
100
AcDbLine
 10
-2338.0
 20
-342.5
 30
0.0
 11
-2338.0
 21
-351.0
 31
0.0
  0
LINE
  5
361
100
AcDbEntity
  8
DIMENSION
100
AcDbLine
 10
-2289.600844
 20
-364.803476
 30
0.0
 11
-2271.806511
 21
-376.128171
 31
0.0
  0
LINE
  5
362
100
AcDbEntity
  8
DIMENSION
100
AcDbLine
 10
-2301.796678
 20
-380.292705
 30
0.0
 11
-2297.914837
 21
-380.925418
 31
0.0
  0
LINE
  5
363
100
AcDbEntity
  8
GLAS_MED_FOGNING
100
AcDbLine
 10
-2287.650952
 20
-367.416256
 30
0.0
 11
-2287.970352
 21
-367.687422
 31
0.0
  0
LINE
  5
364
100
AcDbEntity
  8
GLAS_MED_FOGNING
100
AcDbLine
 10
-2286.311806
 20
-365.304175
 30
0.0
 11
-2286.455667
 21
-365.701007
 31
0.0
  0
LINE
  5
365
100
AcDbEntity
  8
DIMENSION
100
AcDbLine
 10
-2290.167895
 20
-364.529844
 30
0.0
 11
-2286.311806
 21
-365.304175
 31
0.0
  0
LINE
  5
366
100
AcDbEntity
  8
DIMENSION
100
AcDbLine
 10
-2290.167895
 20
-364.529844
 30
0.0
 11
-2287.970352
 21
-367.687422
 31
0.0
  0
LWPOLYLINE
  5
367
100
AcDbEntity
  8
DIMENSION
100
AcDbPolyline
 90
        2
 70
     0
 43
0.0
 10
-2289.600844
 20
-364.803476
 10
-2287.650952
 20
-367.416256
  0
LINE
  5
368
100
AcDbEntity
  8
DIMENSION
100
AcDbLine
 10
-2289.600844
 20
-364.803476
 30
0.0
 11
-2286.455667
 21
-365.701007
 31
0.0
  0
LINE
  5
369
100
AcDbEntity
  8
GLAS_MED_FOGNING
100
AcDbLine
 10
-2299.175803
 20
-383.085086
 30
0.0
 11
-2299.485067
 21
-383.367757
 31
0.0
  0
LINE
  5
36A
100
AcDbEntity
  8
GLAS_MED_FOGNING
100
AcDbLine
 10
-2297.914837
 20
-380.925418
 30
0.0
 11
-2298.044081
 21
-381.327249
 31
0.0
  0
LINE
  5
36B
100
AcDbEntity
  8
DIMENSION
100
AcDbLine
 10
-2301.219994
 20
-380.545404
 30
0.0
 11
-2298.044081
 21
-381.327249
 31
0.0
  0
LWPOLYLINE
  5
36C
100
AcDbEntity
  8
DIMENSION
100
AcDbPolyline
 90
        2
 70
     0
 43
0.0
 10
-2301.219994
 20
-380.545404
 10
-2299.175803
 20
-383.085086
  0
TEXT
  5
36D
100
AcDbEntity
  8
TEXT
 62
     1
100
AcDbText
 10
-2448.153146
 20
-285.914793
 30
0.0
 40
10.8
  1
FIXINGS SP 79000 EI 60
 41
0.8
  7
ROMANT
100
AcDbText
  0
TEXT
  5
36F
100
AcDbEntity
  8
TEXT
 62
     1
100
AcDbText
 10
-2393.14891
 20
-249.842831
 30
0.0
 40
13.5
  1
STALPROFIL AB
 41
0.8
  7
ROMANT
100
AcDbText
  0
LWPOLYLINE
  5
370
100
AcDbEntity
  8
TEXT
 62
     1
100
AcDbPolyline
 90
       12
 70
     1
 43
1.95
 10
-2406.042631
 20
-247.054112
 42
1.0
 10
-2404.663772
 20
-245.675254
 10
-2407.577198
 20
-242.761829
 42
-0.414214
 10
-2407.577198
 20
-238.625254
 10
-2404.323339
 20
-235.371396
 42
-0.198912
 10
-2402.255052
 20
-234.514683
 10
-2399.428201
 20
-234.514683
 42
1.0
 10
-2399.428201
 20
-232.564683
 10
-2403.870485
 20
-232.564683
 42
0.198912
 10
-2404.559914
 20
-232.850254
 10
-2411.713772
 20
-240.004112
 42
0.414214
 10
-2411.713772
 20
-241.382971
  0
LWPOLYLINE
  5
371
100
AcDbEntity
  8
TEXT
 62
     1
100
AcDbPolyline
 90
       12
 70
     1
 43
1.2
 10
-2404.553023
 20
-240.401079
 42
1.000001
 10
-2404.659089
 20
-240.507145
 10
-2401.745664
 20
-243.420571
 42
-0.414214
 10
-2401.745664
 20
-248.829938
 10
-2404.999522
 20
-252.083796
 42
-0.198912
 10
-2407.704205
 20
-253.204112
 10
-2410.531056
 20
-253.204112
 42
1.0
 10
-2410.531056
 20
-253.354112
 10
-2406.088772
 20
-253.354112
 42
0.198912
 10
-2406.035739
 20
-253.332145
 10
-2398.881881
 20
-246.178287
 42
0.414214
 10
-2398.881881
 20
-246.072221
  0
LWPOLYLINE
  5
372
100
AcDbEntity
  8
TEXT
 62
     1
100
AcDbPolyline
 90
       12
 70
     1
 43
1.2
 10
-2405.406234
 20
-246.417716
 42
1.000001
 10
-2405.300168
 20
-246.31165
 10
-2408.213594
 20
-243.398225
 42
-0.414214
 10
-2408.213594
 20
-237.988858
 10
-2404.959736
 20
-234.735
 42
-0.198912
 10
-2402.255052
 20
-233.614683
 10
-2399.428201
 20
-233.614683
 42
1.0
 10
-2399.428201
 20
-233.464683
 10
-2403.870485
 20
-233.464683
 42
0.198912
 10
-2403.923518
 20
-233.48665
 10
-2411.077376
 20
-240.640509
 42
0.414214
 10
-2411.077376
 20
-240.746575
  0
LWPOLYLINE
  5
373
100
AcDbEntity
  8
TEXT
 62
     1
100
AcDbPolyline
 90
       12
 70
     1
 43
1.95
 10
-2403.916627
 20
-239.764683
 42
1.0
 10
-2405.295485
 20
-241.143542
 10
-2402.38206
 20
-244.056967
 42
-0.414214
 10
-2402.38206
 20
-248.193542
 10
-2405.635918
 20
-251.4474
 42
-0.198912
 10
-2407.704205
 20
-252.304112
 10
-2410.531056
 20
-252.304112
 42
1.0
 10
-2410.531056
 20
-254.254112
 10
-2406.088772
 20
-254.254112
 42
0.198912
 10
-2405.399343
 20
-253.968542
 10
-2398.245485
 20
-246.814683
 42
0.414214
 10
-2398.245485
 20
-245.435825
  0
CIRCLE
  5
374
100
AcDbEntity
  8
TEXT
 62
     1
100
AcDbCircle
 10
-2367.47824
 20
-232.960225
 30
0.0
 40
1.531699
  0
ENDSEC
  0
SECTION
  2
OBJECTS
  0
DICTIONARY
  5
1A
100
AcDbDictionary
  3
ACAD_GROUP
350
18
  3
ACAD_MLINESTYLE
350
19
  0
DICTIONARY
  5
18
102
{ACAD_REACTORS
330
1A
102
}
100
AcDbDictionary
  0
DICTIONARY
  5
19
102
{ACAD_REACTORS
330
1A
102
}
100
AcDbDictionary
  3
STANDARD
350
1D
  0
MLINESTYLE
  5
1D
102
{ACAD_REACTORS
330
19
102
}
100
AcDbMlineStyle
  2
STANDARD
 70
     0
  3

 62
   256
 51
90.0
 52
90.0
 71
     2
 49
0.5
 62
   256
  6
BYLAYER
 49
-0.5
 62
   256
  6
BYLAYER
  0
ENDSEC
  0
EOF
