  0
SECTION
  2
HEADER
  9
$ACADVER
  1
AC1014
  9
$ACADMAINTVER
 70
     0
  9
$DWGCODEPAGE
  3
ANSI_1252
  9
$INSBASE
 10
-1845.0
 20
1085.0
 30
0.0
  9
$EXTMIN
 10
-2195.0
 20
1089.627208
 30
0.0
  9
$EXTMAX
 10
-1775.0
 20
1503.5
 30
0.0
  9
$LIMMIN
 10
-28.0
 20
-1.0
  9
$LIMMAX
 10
820.0
 20
580.0
  9
$ORTHOMODE
 70
     0
  9
$REGENMODE
 70
     1
  9
$FILLMODE
 70
     1
  9
$QTEXTMODE
 70
     0
  9
$MIRRTEXT
 70
     1
  9
$DRAGMODE
 70
     2
  9
$LTSCALE
 40
5.0
  9
$OSMODE
 70
   547
  9
$ATTMODE
 70
     1
  9
$TEXTSIZE
 40
5.0
  9
$TRACEWID
 40
0.05
  9
$TEXTSTYLE
  7
ROMANT
  9
$CLAYER
  8
RAM
  9
$CELTYPE
  6
BYLAYER
  9
$CECOLOR
 62
   256
  9
$CELTSCALE
 40
1.0
  9
$DELOBJ
 70
     1
  9
$DISPSILH
 70
     0
  9
$DIMSCALE
 40
0.0
  9
$DIMASZ
 40
2.0
  9
$DIMEXO
 40
1.0
  9
$DIMDLI
 40
10.0
  9
$DIMRND
 40
0.0
  9
$DIMDLE
 40
0.0
  9
$DIMEXE
 40
2.0
  9
$DIMTP
 40
0.0
  9
$DIMTM
 40
0.0
  9
$DIMTXT
 40
7.0
  9
$DIMCEN
 40
2.5
  9
$DIMTSZ
 40
0.0
  9
$DIMTOL
 70
     0
  9
$DIMLIM
 70
     0
  9
$DIMTIH
 70
     0
  9
$DIMTOH
 70
     0
  9
$DIMSE1
 70
     0
  9
$DIMSE2
 70
     0
  9
$DIMTAD
 70
     1
  9
$DIMZIN
 70
     8
  9
$DIMBLK
  1

  9
$DIMASO
 70
     1
  9
$DIMSHO
 70
     1
  9
$DIMPOST
  1

  9
$DIMAPOST
  1

  9
$DIMALT
 70
     0
  9
$DIMALTD
 70
     2
  9
$DIMALTF
 40
25.4
  9
$DIMLFAC
 40
1.0
  9
$DIMTOFL
 70
     1
  9
$DIMTVP
 40
0.0
  9
$DIMTIX
 70
     0
  9
$DIMSOXD
 70
     0
  9
$DIMSAH
 70
     0
  9
$DIMBLK1
  1

  9
$DIMBLK2
  1

  9
$DIMSTYLE
  2
ROMANS
  9
$DIMCLRD
 70
     0
  9
$DIMCLRE
 70
     0
  9
$DIMCLRT
 70
     6
  9
$DIMTFAC
 40
1.0
  9
$DIMGAP
 40
1.5
  9
$DIMJUST
 70
     0
  9
$DIMSD1
 70
     0
  9
$DIMSD2
 70
     0
  9
$DIMTOLJ
 70
     1
  9
$DIMTZIN
 70
     8
  9
$DIMALTZ
 70
     8
  9
$DIMALTTZ
 70
     8
  9
$DIMFIT
 70
     5
  9
$DIMUPT
 70
     0
  9
$DIMUNIT
 70
     2
  9
$DIMDEC
 70
     2
  9
$DIMTDEC
 70
     2
  9
$DIMALTU
 70
     2
  9
$DIMALTTD
 70
     2
  9
$DIMTXSTY
  7
ROMANT
  9
$DIMAUNIT
 70
     0
  9
$LUNITS
 70
     2
  9
$LUPREC
 70
     2
  9
$SKETCHINC
 40
29.186267
  9
$FILLETRAD
 40
0.5
  9
$AUNITS
 70
     0
  9
$AUPREC
 70
     4
  9
$MENU
  1
acad
  9
$ELEVATION
 40
0.0
  9
$PELEVATION
 40
0.0
  9
$THICKNESS
 40
0.0
  9
$LIMCHECK
 70
     0
  9
$BLIPMODE
 70
     0
  9
$CHAMFERA
 40
10.0
  9
$CHAMFERB
 40
10.0
  9
$CHAMFERC
 40
0.0
  9
$CHAMFERD
 40
0.0
  9
$SKPOLY
 70
     0
  9
$TDCREATE
 40
2449447.620979629
  9
$TDUPDATE
 40
2452293.536049189
  9
$TDINDWG
 40
1.3451425926
  9
$TDUSRTIMER
 40
1.3451425926
  9
$USRTIMER
 70
     1
  9
$ANGBASE
 50
0.0
  9
$ANGDIR
 70
     0
  9
$PDMODE
 70
    35
  9
$PDSIZE
 40
0.0
  9
$PLINEWID
 40
0.0
  9
$COORDS
 70
     1
  9
$SPLFRAME
 70
     0
  9
$SPLINETYPE
 70
     6
  9
$SPLINESEGS
 70
     8
  9
$ATTDIA
 70
     0
  9
$ATTREQ
 70
     1
  9
$HANDLING
 70
     1
  9
$HANDSEED
  5
2B8
  9
$SURFTAB1
 70
     6
  9
$SURFTAB2
 70
     6
  9
$SURFTYPE
 70
     6
  9
$SURFU
 70
     6
  9
$SURFV
 70
     6
  9
$UCSNAME
  2

  9
$UCSORG
 10
0.0
 20
0.0
 30
0.0
  9
$UCSXDIR
 10
1.0
 20
0.0
 30
0.0
  9
$UCSYDIR
 10
0.0
 20
1.0
 30
0.0
  9
$PUCSNAME
  2

  9
$PUCSORG
 10
0.0
 20
0.0
 30
0.0
  9
$PUCSXDIR
 10
1.0
 20
0.0
 30
0.0
  9
$PUCSYDIR
 10
0.0
 20
1.0
 30
0.0
  9
$USERI1
 70
     0
  9
$USERI2
 70
     0
  9
$USERI3
 70
     0
  9
$USERI4
 70
     0
  9
$USERI5
 70
     0
  9
$USERR1
 40
0.0
  9
$USERR2
 40
0.0
  9
$USERR3
 40
0.0
  9
$USERR4
 40
0.0
  9
$USERR5
 40
0.0
  9
$WORLDVIEW
 70
     1
  9
$SHADEDGE
 70
     3
  9
$SHADEDIF
 70
    70
  9
$TILEMODE
 70
     1
  9
$MAXACTVP
 70
    16
  9
$PINSBASE
 10
697.905274
 20
-50.0
 30
1083.371966
  9
$PLIMCHECK
 70
     0
  9
$PEXTMIN
 10
1.000000E+20
 20
1.000000E+20
 30
1.000000E+20
  9
$PEXTMAX
 10
-1.000000E+20
 20
-1.000000E+20
 30
-1.000000E+20
  9
$PLIMMIN
 10
0.0
 20
0.0
  9
$PLIMMAX
 10
420.0
 20
297.0
  9
$UNITMODE
 70
     0
  9
$VISRETAIN
 70
     0
  9
$PLINEGEN
 70
     0
  9
$PSLTSCALE
 70
     1
  9
$TREEDEPTH
 70
  3020
  9
$PICKSTYLE
 70
     1
  9
$CMLSTYLE
  2
STANDARD
  9
$CMLJUST
 70
     0
  9
$CMLSCALE
 40
1.0
  9
$PROXYGRAPHICS
 70
     1
  9
$MEASUREMENT
 70
     0
  0
ENDSEC
  0
SECTION
  2
CLASSES
  0
CLASS
  1
DICTIONARYVAR
  2
AcDbDictionaryVar
  3
"AutoCAD"
 90
        0
280
     0
281
     0
  0
CLASS
  1
LWPOLYLINE
  2
AcDbPolyline
  3
"AutoCAD"
 90
        0
280
     0
281
     1
  0
CLASS
  1
HATCH
  2
AcDbHatch
  3
"ACAD_SEDONA"
 90
        0
280
     0
281
     1
  0
CLASS
  1
ACDBDICTIONARYWDFLT
  2
AcDbDictionaryWithDefault
  3
AutoCAD 2000
 90
        0
280
     0
281
     0
  0
CLASS
  1
ACDBPLACEHOLDER
  2
AcDbPlaceHolder
  3
AutoCAD 2000
 90
        0
280
     0
281
     0
  0
CLASS
  1
LAYOUT
  2
AcDbLayout
  3
AutoCAD 2000
 90
        0
280
     0
281
     0
  0
CLASS
  1
LONG_TRANSACTION
  2
AcDbLongTransaction
  3
AutoCAD 2000
 90
        0
280
     0
281
     0
  0
CLASS
  1
LWPOLYLINE
  2
AcDbPolyline
  3
"AutoCAD"
 90
        0
280
     0
281
     1
  0
CLASS
  1
HATCH
  2
AcDbHatch
  3
"ACAD_SEDONA"
 90
        0
280
     0
281
     1
  0
CLASS
  1
XRECORD
  2
AcDbXrecord
  3
"<Built In>"
 90
        0
280
     0
281
     0
  0
ENDSEC
  0
SECTION
  2
TABLES
  0
TABLE
  2
VPORT
  5
12
100
AcDbSymbolTable
 70
     1
  0
VPORT
  5
286
102
{ACAD_XDICTIONARY
360
287
102
}
100
AcDbSymbolTableRecord
100
AcDbViewportTableRecord
  2
*ACTIVE
 70
     0
 10
0.0
 20
0.0
 11
1.0
 21
1.0
 12
-1871.669921
 22
1352.138268
 13
0.0
 23
0.0
 14
5.0
 24
5.0
 15
10.0
 25
10.0
 16
0.0
 26
0.0
 36
1.0
 17
0.0
 27
0.0
 37
0.0
 40
588.144317
 41
1.630435
 42
50.0
 43
0.0
 44
0.0
 50
0.0
 51
0.0
 71
     0
 72
   100
 73
     1
 74
     1
 75
     1
 76
     0
 77
     0
 78
     1
  0
ENDTAB
  0
TABLE
  2
LTYPE
  5
D
100
AcDbSymbolTable
 70
     2
  0
LTYPE
  5
E
100
AcDbSymbolTableRecord
100
AcDbLinetypeTableRecord
  2
BYBLOCK
 70
     0
  3

 72
    65
 73
     0
 40
0.0
  0
LTYPE
  5
F
100
AcDbSymbolTableRecord
100
AcDbLinetypeTableRecord
  2
BYLAYER
 70
     0
  3

 72
    65
 73
     0
 40
0.0
  0
LTYPE
  5
5
100
AcDbSymbolTableRecord
100
AcDbLinetypeTableRecord
  2
CONTINUOUS
 70
     0
  3
Solid line
 72
    65
 73
     0
 40
0.0
  0
LTYPE
  5
179
100
AcDbSymbolTableRecord
100
AcDbLinetypeTableRecord
  2
DASHDOT
 70
     0
  3
__ . __ . __ . __ . __ . __ . __ . __ . __ . __
 72
    65
 73
     4
 40
1.0
 49
0.5
 74
     0
 49
-0.25
 74
     0
 49
0.0
 74
     0
 49
-0.25
 74
     0
  0
ENDTAB
  0
TABLE
  2
LAYER
  5
A
100
AcDbSymbolTable
 70
    11
  0
LAYER
  5
4
100
AcDbSymbolTableRecord
100
AcDbLayerTableRecord
  2
0
 70
     0
 62
     7
  6
CONTINUOUS
  0
LAYER
  5
CC
100
AcDbSymbolTableRecord
100
AcDbLayerTableRecord
  2
STALPROFIL
 70
     0
 62
     1
  6
CONTINUOUS
  0
LAYER
  5
6D
100
AcDbSymbolTableRecord
100
AcDbLayerTableRecord
  2
SPKONTUR
 70
     1
 62
     7
  6
CONTINUOUS
  0
LAYER
  5
3B
100
AcDbSymbolTableRecord
100
AcDbLayerTableRecord
  2
GLAS_MED_FOGNING
 70
     0
 62
     2
  6
CONTINUOUS
  0
LAYER
  5
BE
100
AcDbSymbolTableRecord
100
AcDbLayerTableRecord
  2
TEXT
 70
     0
 62
     6
  6
CONTINUOUS
  0
LAYER
  5
1B
100
AcDbSymbolTableRecord
100
AcDbLayerTableRecord
  2
RAM
 70
     0
 62
     5
  6
CONTINUOUS
  0
LAYER
  5
178
100
AcDbSymbolTableRecord
100
AcDbLayerTableRecord
  2
CENTRUM
 70
     0
 62
     3
  6
DASHDOT
  0
LAYER
  5
4D
100
AcDbSymbolTableRecord
100
AcDbLayerTableRecord
  2
ISOLERING
 70
     0
 62
     3
  6
CONTINUOUS
  0
LAYER
  5
4F
100
AcDbSymbolTableRecord
100
AcDbLayerTableRecord
  2
FOGNINGB
 70
     0
 62
     5
  6
CONTINUOUS
  0
LAYER
  5
28
102
{ACAD_XDICTIONARY
360
2B0
102
}
100
AcDbSymbolTableRecord
100
AcDbLayerTableRecord
  2
DEFPOINTS
 70
     0
 62
     7
  6
CONTINUOUS
  0
LAYER
  5
1A7
100
AcDbSymbolTableRecord
100
AcDbLayerTableRecord
  2
FOGNINGR
 70
     0
 62
     1
  6
CONTINUOUS
  0
ENDTAB
  0
TABLE
  2
STYLE
  5
B
100
AcDbSymbolTable
 70
     3
  0
STYLE
  5
C
100
AcDbSymbolTableRecord
100
AcDbTextStyleTableRecord
  2
STANDARD
 70
     0
 40
0.0
 41
0.8
 50
0.0
 71
     0
 42
5.0
  3
C:/ACADWIN/FONTS/ROMANS.SHX
  4

  0
STYLE
  5
BF
100
AcDbSymbolTableRecord
100
AcDbTextStyleTableRecord
  2
ROMANS
 70
     0
 40
0.0
 41
0.8
 50
0.0
 71
     0
 42
5.0
  3
romans
  4

  0
STYLE
  5
1C
100
AcDbSymbolTableRecord
100
AcDbTextStyleTableRecord
  2
ROMANT
 70
     0
 40
0.0
 41
0.8
 50
0.0
 71
     0
 42
5.0
  3
romant
  4

  0
ENDTAB
  0
TABLE
  2
VIEW
  5
10
100
AcDbSymbolTable
 70
     0
  0
ENDTAB
  0
TABLE
  2
UCS
  5
11
100
AcDbSymbolTable
 70
     0
  0
ENDTAB
  0
TABLE
  2
APPID
  5
14
100
AcDbSymbolTable
 70
     1
  0
APPID
  5
15
100
AcDbSymbolTableRecord
100
AcDbRegAppTableRecord
  2
ACAD
 70
     0
  0
ENDTAB
  0
TABLE
  2
DIMSTYLE
  5
16
100
AcDbSymbolTable
 70
     1
  0
DIMSTYLE
105
1E
102
{ACAD_XDICTIONARY
360
2AE
102
}
102
{ACAD_REACTORS
330
2D
330
1F
330
14F
330
22D
330
13F
330
132
330
3D
102
}
100
AcDbSymbolTableRecord
100
AcDbDimStyleTableRecord
  2
ROMANS
 70
     0
  3

  4

  5

  6

  7

 40
2.0
 41
0.0
 42
1.0
 43
10.0
 44
2.0
 45
0.0
 46
0.0
 47
0.0
 48
0.0
140
3.5
141
2.5
142
1.0
143
25.4
144
1.0
145
0.0
146
1.0
147
0.1
 71
     0
 72
     0
 73
     0
 74
     0
 75
     0
 76
     0
 77
     1
 78
     8
170
     0
171
     2
172
     1
173
     0
174
     0
175
     0
176
     0
177
     0
178
     6
270
     2
271
     2
272
     2
273
     2
274
     2
340
1C
275
     0
280
     0
281
     0
282
     0
283
     1
284
     8
285
     8
286
     8
287
     5
288
     0
  0
ENDTAB
  0
TABLE
  2
BLOCK_RECORD
  5
1
100
AcDbSymbolTable
 70
    25
  0
BLOCK_RECORD
  5
2
102
{ACAD_XDICTIONARY
360
2AA
102
}
100
AcDbSymbolTableRecord
100
AcDbBlockTableRecord
  2
*MODEL_SPACE
  0
BLOCK_RECORD
  5
7
102
{ACAD_XDICTIONARY
360
2AC
102
}
100
AcDbSymbolTableRecord
100
AcDbBlockTableRecord
  2
*PAPER_SPACE
  0
BLOCK_RECORD
  5
1A8
100
AcDbSymbolTableRecord
100
AcDbBlockTableRecord
  2
SP40020
  0
BLOCK_RECORD
  5
121
100
AcDbSymbolTableRecord
100
AcDbBlockTableRecord
  2
*X1
  0
BLOCK_RECORD
  5
11E
100
AcDbSymbolTableRecord
100
AcDbBlockTableRecord
  2
SP40010
  0
BLOCK_RECORD
  5
71
100
AcDbSymbolTableRecord
100
AcDbBlockTableRecord
  2
*X3
  0
BLOCK_RECORD
  5
51
100
AcDbSymbolTableRecord
100
AcDbBlockTableRecord
  2
*X4
  0
BLOCK_RECORD
  5
4B
100
AcDbSymbolTableRecord
100
AcDbBlockTableRecord
  2
65_INF-B10
  0
BLOCK_RECORD
  5
1A3
100
AcDbSymbolTableRecord
100
AcDbBlockTableRecord
  2
SP42520
  0
BLOCK_RECORD
  5
CE
100
AcDbSymbolTableRecord
100
AcDbBlockTableRecord
  2
*X10
  0
BLOCK_RECORD
  5
C9
100
AcDbSymbolTableRecord
100
AcDbBlockTableRecord
  2
SP76511
  0
BLOCK_RECORD
  5
163
100
AcDbSymbolTableRecord
100
AcDbBlockTableRecord
  2
SP76512
  0
BLOCK_RECORD
  5
1C0
100
AcDbSymbolTableRecord
100
AcDbBlockTableRecord
  2
*X13
  0
BLOCK_RECORD
  5
17F
100
AcDbSymbolTableRecord
100
AcDbBlockTableRecord
  2
*X14
  0
BLOCK_RECORD
  5
17C
100
AcDbSymbolTableRecord
100
AcDbBlockTableRecord
  2
GLASH5
  0
BLOCK_RECORD
  5
1BE
100
AcDbSymbolTableRecord
100
AcDbBlockTableRecord
  2
GLASV6_18
  0
BLOCK_RECORD
  5
1FB
100
AcDbSymbolTableRecord
100
AcDbBlockTableRecord
  2
*X17
  0
BLOCK_RECORD
  5
150
100
AcDbSymbolTableRecord
100
AcDbBlockTableRecord
  2
*D18
  0
BLOCK_RECORD
  5
22E
100
AcDbSymbolTableRecord
100
AcDbBlockTableRecord
  2
*D19
  0
BLOCK_RECORD
  5
140
100
AcDbSymbolTableRecord
100
AcDbBlockTableRecord
  2
*D20
  0
BLOCK_RECORD
  5
133
100
AcDbSymbolTableRecord
100
AcDbBlockTableRecord
  2
*D21
  0
BLOCK_RECORD
  5
250
100
AcDbSymbolTableRecord
100
AcDbBlockTableRecord
  2
*D22
  0
BLOCK_RECORD
  5
265
100
AcDbSymbolTableRecord
100
AcDbBlockTableRecord
  2
*D23
  0
BLOCK_RECORD
  5
271
100
AcDbSymbolTableRecord
100
AcDbBlockTableRecord
  2
*D24
  0
ENDTAB
  0
ENDSEC
  0
SECTION
  2
BLOCKS
  0
BLOCK
  5
3
100
AcDbEntity
  8
0
100
AcDbBlockBegin
  2
*MODEL_SPACE
 70
     0
 10
0.0
 20
0.0
 30
0.0
  3
*MODEL_SPACE
  1

  0
ENDBLK
  5
6
100
AcDbEntity
  8
0
100
AcDbBlockEnd
  0
BLOCK
  5
8
100
AcDbEntity
 67
     1
  8
0
100
AcDbBlockBegin
  2
*PAPER_SPACE
 70
     0
 10
0.0
 20
0.0
 30
0.0
  3
*PAPER_SPACE
  1

  0
ENDBLK
  5
9
100
AcDbEntity
 67
     1
  8
0
100
AcDbBlockEnd
  0
BLOCK
  5
1B9
100
AcDbEntity
  8
0
100
AcDbBlockBegin
  2
SP40020
 70
     0
 10
0.0
 20
0.0
 30
0.0
  3
SP40020
  1

  0
LINE
  5
1A9
100
AcDbEntity
  8
CENTRUM
100
AcDbLine
 10
-13.0
 20
34.06657
 30
0.0
 11
-13.0
 21
18.0
 31
0.0
  0
LINE
  5
1AA
100
AcDbEntity
  8
GLAS_MED_FOGNING
100
AcDbLine
 10
-16.0
 20
23.5
 30
0.0
 11
-16.0
 21
22.0
 31
0.0
  0
LINE
  5
1AB
100
AcDbEntity
  8
GLAS_MED_FOGNING
100
AcDbLine
 10
-15.5
 20
23.5
 30
0.0
 11
-15.5
 21
21.0
 31
0.0
  0
LINE
  5
1AC
100
AcDbEntity
  8
GLAS_MED_FOGNING
100
AcDbLine
 10
-10.5
 20
23.5
 30
0.0
 11
-10.5
 21
21.0
 31
0.0
  0
LINE
  5
1AD
100
AcDbEntity
  8
GLAS_MED_FOGNING
100
AcDbLine
 10
-10.0
 20
23.5
 30
0.0
 11
-10.0
 21
22.0
 31
0.0
  0
LINE
  5
1AE
100
AcDbEntity
  8
GLAS_MED_FOGNING
100
AcDbLine
 10
-10.5
 20
21.0
 30
0.0
 11
-15.5
 21
21.0
 31
0.0
  0
LINE
  5
1AF
100
AcDbEntity
  8
GLAS_MED_FOGNING
100
AcDbLine
 10
-10.0
 20
22.0
 30
0.0
 11
-16.0
 21
22.0
 31
0.0
  0
LINE
  5
1B0
100
AcDbEntity
  8
GLAS_MED_FOGNING
100
AcDbLine
 10
-16.0
 20
22.0
 30
0.0
 11
-15.5
 21
21.0
 31
0.0
  0
LINE
  5
1B1
100
AcDbEntity
  8
GLAS_MED_FOGNING
100
AcDbLine
 10
-10.0
 20
22.0
 30
0.0
 11
-10.5
 21
21.0
 31
0.0
  0
LINE
  5
1B2
100
AcDbEntity
  8
GLAS_MED_FOGNING
100
AcDbLine
 10
-9.267949
 20
26.0
 30
0.0
 11
-16.73205
 21
26.0
 31
0.0
  0
LINE
  5
1B3
100
AcDbEntity
  8
GLAS_MED_FOGNING
100
AcDbLine
 10
-8.196152
 20
30.0
 30
0.0
 11
-17.803848
 21
30.0
 31
0.0
  0
ARC
  5
1B4
100
AcDbEntity
  8
GLAS_MED_FOGNING
100
AcDbCircle
 10
-13.0
 20
18.928391
 30
0.0
 40
12.068864
100
AcDbArc
 50
66.544514
 51
113.455486
  0
LINE
  5
1B5
100
AcDbEntity
  8
GLAS_MED_FOGNING
100
AcDbLine
 10
-17.803848
 20
30.0
 30
0.0
 11
-16.73205
 21
26.0
 31
0.0
  0
LINE
  5
1B6
100
AcDbEntity
  8
GLAS_MED_FOGNING
100
AcDbLine
 10
-16.73205
 20
26.0
 30
0.0
 11
-16.73205
 21
25.0
 31
0.0
  0
LINE
  5
1B7
100
AcDbEntity
  8
GLAS_MED_FOGNING
100
AcDbLine
 10
-8.196152
 20
30.0
 30
0.0
 11
-9.267949
 21
26.0
 31
0.0
  0
LINE
  5
1B8
100
AcDbEntity
  8
GLAS_MED_FOGNING
100
AcDbLine
 10
-9.267949
 20
26.0
 30
0.0
 11
-9.267949
 21
25.0
 31
0.0
  0
ENDBLK
  5
1BA
100
AcDbEntity
  8
0
100
AcDbBlockEnd
  0
BLOCK
  5
12C
100
AcDbEntity
  8
0
100
AcDbBlockBegin
  2
*X1
 70
     1
 10
0.0
 20
0.0
 30
0.0
  3
*X1
  1

  0
LINE
  5
122
100
AcDbEntity
  8
0
 62
     0
100
AcDbLine
 10
418.490967
 20
310.1066
 30
0.0
 11
421.167604
 21
313.296491
 31
0.0
  0
LINE
  5
123
100
AcDbEntity
  8
0
 62
     0
100
AcDbLine
 10
423.349042
 20
315.896228
 30
0.0
 11
424.080112
 21
316.767482
 31
0.0
  0
LINE
  5
124
100
AcDbEntity
  8
0
 62
     0
100
AcDbLine
 10
422.064957
 20
314.365914
 30
0.0
 11
422.918328
 21
315.382923
 31
0.0
  0
LINE
  5
125
100
AcDbEntity
  8
0
 62
     0
100
AcDbLine
 10
418.226804
 20
311.736438
 30
0.0
 11
420.663771
 21
314.640701
 31
0.0
  0
LINE
  5
126
100
AcDbEntity
  8
0
 62
     0
100
AcDbLine
 10
421.575811
 20
315.727628
 30
0.0
 11
422.569739
 21
316.912145
 31
0.0
  0
LINE
  5
127
100
AcDbEntity
  8
0
 62
     0
100
AcDbLine
 10
417.857133
 20
313.240535
 30
0.0
 11
420.696467
 21
316.624321
 31
0.0
  0
LINE
  5
128
100
AcDbEntity
  8
0
 62
     0
100
AcDbLine
 10
416.898348
 20
314.042554
 30
0.0
 11
418.169933
 21
315.55797
 31
0.0
  0
LINE
  5
129
100
AcDbEntity
  8
0
 62
     0
100
AcDbLine
 10
418.751032
 20
308.471878
 30
0.0
 11
420.838188
 21
310.959254
 31
0.0
  0
LINE
  5
12A
100
AcDbEntity
  8
0
 62
     0
100
AcDbLine
 10
419.246616
 20
307.117837
 30
0.0
 11
421.130916
 21
309.363458
 31
0.0
  0
LINE
  5
12B
100
AcDbEntity
  8
0
 62
     0
100
AcDbLine
 10
421.204244
 20
307.506193
 30
0.0
 11
422.301392
 21
308.813723
 31
0.0
  0
ENDBLK
  5
12D
100
AcDbEntity
  8
0
100
AcDbBlockEnd
  0
BLOCK
  5
12E
100
AcDbEntity
  8
0
100
AcDbBlockBegin
  2
SP40010
 70
     0
 10
0.0
 20
0.0
 30
0.0
  3
SP40010
  1

  0
LWPOLYLINE
  5
11F
100
AcDbEntity
  8
GLAS_MED_FOGNING
100
AcDbPolyline
 90
       27
 70
     0
 43
0.0
 10
-8.905528
 20
18.626989
 10
-11.04147
 20
18.263989
 42
0.47758
 10
-11.422076
 20
17.585713
 10
-11.282581
 20
17.236207
 42
-1.066974
 10
-12.209806
 20
16.934105
 10
-12.855648
 20
19.46147
 10
-12.95764
 20
20.795213
 42
-0.851446
 10
-12.019738
 20
21.021209
 42
0.34625
 10
-11.479327
 20
20.720659
 10
-7.420891
 20
21.324081
 42
0.253088
 10
-6.015863
 20
22.369183
 10
-5.627377
 20
23.238611
 42
-0.653084
 10
-5.261375
 20
23.225047
 10
-4.446993
 20
21.166246
 42
0.887127
 10
-4.490032
 20
20.572081
 42
-0.212108
 10
-4.15725
 20
20.339586
 42
-0.212173
 10
-3.459619
 20
14.779472
 42
-0.418069
 10
-3.711416
 20
14.646619
 10
-4.293984
 20
14.830968
 42
-0.397156
 10
-4.360758
 20
14.950843
 42
0.194939
 10
-4.977068
 20
19.415768
 42
1.053912
 10
-5.578133
 20
19.061579
 10
-4.456808
 20
16.774085
 42
-0.459605
 10
-4.576654
 20
16.495183
 10
-5.081649
 20
16.337131
 42
-0.312484
 10
-5.190355
 20
16.371046
 42
0.373013
 10
-9.071884
 20
18.598717
  0
INSERT
  5
120
100
AcDbEntity
  8
GLAS_MED_FOGNING
100
AcDbBlockReference
  2
*X1
 10
-314.5231
 20
443.46412
 30
0.0
 50
269.250599
1001
ACAD
1000
HATCH
1002
{
1070
    16
1000
ANSI31
1040
10.0
1040
0.087266
1002
}
  0
ENDBLK
  5
12F
100
AcDbEntity
  8
0
100
AcDbBlockEnd
  0
BLOCK
  5
B5
100
AcDbEntity
  8
0
100
AcDbBlockBegin
  2
*X3
 70
     1
 10
0.0
 20
0.0
 30
0.0
  3
*X3
  1

  0
LINE
  5
72
100
AcDbEntity
  8
0
 62
     0
100
AcDbLine
 10
-6.6797
 20
-36.728079
 30
0.0
 11
-6.6797
 21
-36.728079
 31
0.0
  0
LINE
  5
73
100
AcDbEntity
  8
0
 62
     0
100
AcDbLine
 10
-4.267906
 20
-34.877444
 30
0.0
 11
-4.267906
 21
-34.877444
 31
0.0
  0
LINE
  5
74
100
AcDbEntity
  8
0
 62
     0
100
AcDbLine
 10
-1.570505
 20
-32.807655
 30
0.0
 11
-1.570505
 21
-32.807655
 31
0.0
  0
LINE
  5
75
100
AcDbEntity
  8
0
 62
     0
100
AcDbLine
 10
1.007894
 20
-30.82918
 30
0.0
 11
1.007894
 21
-30.82918
 31
0.0
  0
LINE
  5
76
100
AcDbEntity
  8
0
 62
     0
100
AcDbLine
 10
-6.805687
 20
-32.874431
 30
0.0
 11
-6.805687
 21
-32.874431
 31
0.0
  0
LINE
  5
77
100
AcDbEntity
  8
0
 62
     0
100
AcDbLine
 10
-4.393893
 20
-31.023796
 30
0.0
 11
-4.393893
 21
-31.023796
 31
0.0
  0
LINE
  5
78
100
AcDbEntity
  8
0
 62
     0
100
AcDbLine
 10
-1.696491
 20
-28.954007
 30
0.0
 11
-1.696491
 21
-28.954007
 31
0.0
  0
LINE
  5
79
100
AcDbEntity
  8
0
 62
     0
100
AcDbLine
 10
-6.931674
 20
-29.020783
 30
0.0
 11
-6.931674
 21
-29.020783
 31
0.0
  0
LINE
  5
7A
100
AcDbEntity
  8
0
 62
     0
100
AcDbLine
 10
-4.519879
 20
-27.170149
 30
0.0
 11
-4.519879
 21
-27.170149
 31
0.0
  0
LINE
  5
7B
100
AcDbEntity
  8
0
 62
     0
100
AcDbLine
 10
-1.822478
 20
-25.10036
 30
0.0
 11
-1.822478
 21
-25.10036
 31
0.0
  0
LINE
  5
7C
100
AcDbEntity
  8
0
 62
     0
100
AcDbLine
 10
-4.141919
 20
-38.731091
 30
0.0
 11
-4.141919
 21
-38.731091
 31
0.0
  0
LINE
  5
7D
100
AcDbEntity
  8
0
 62
     0
100
AcDbLine
 10
-1.444518
 20
-36.661302
 30
0.0
 11
-1.444518
 21
-36.661302
 31
0.0
  0
LINE
  5
7E
100
AcDbEntity
  8
0
 62
     0
100
AcDbLine
 10
1.13388
 20
-34.682828
 30
0.0
 11
1.13388
 21
-34.682828
 31
0.0
  0
LINE
  5
7F
100
AcDbEntity
  8
0
 62
     0
100
AcDbLine
 10
1.259867
 20
-38.536475
 30
0.0
 11
1.259867
 21
-38.536475
 31
0.0
  0
LINE
  5
80
100
AcDbEntity
  8
0
 62
     0
100
AcDbLine
 10
3.671661
 20
-36.685841
 30
0.0
 11
3.671661
 21
-36.685841
 31
0.0
  0
LINE
  5
81
100
AcDbEntity
  8
0
 62
     0
100
AcDbLine
 10
6.495049
 20
-38.469699
 30
0.0
 11
6.495049
 21
-38.469699
 31
0.0
  0
LINE
  5
82
100
AcDbEntity
  8
0
 62
     0
100
AcDbLine
 10
-6.127701
 20
-31.876534
 30
0.0
 11
-6.127701
 21
-31.876534
 31
0.0
  0
LINE
  5
83
100
AcDbEntity
  8
0
 62
     0
100
AcDbLine
 10
-5.086684
 20
-31.739481
 30
0.0
 11
-5.086684
 21
-31.739481
 31
0.0
  0
LINE
  5
84
100
AcDbEntity
  8
0
 62
     0
100
AcDbLine
 10
-3.460714
 20
-31.525418
 30
0.0
 11
-3.460714
 21
-31.525418
 31
0.0
  0
LINE
  5
85
100
AcDbEntity
  8
0
 62
     0
100
AcDbLine
 10
-0.744155
 20
-31.167776
 30
0.0
 11
-0.744155
 21
-31.167776
 31
0.0
  0
LINE
  5
86
100
AcDbEntity
  8
0
 62
     0
100
AcDbLine
 10
0.296862
 20
-31.030724
 30
0.0
 11
0.296862
 21
-31.030724
 31
0.0
  0
LINE
  5
87
100
AcDbEntity
  8
0
 62
     0
100
AcDbLine
 10
-6.930676
 20
-26.803946
 30
0.0
 11
-6.930676
 21
-26.803946
 31
0.0
  0
LINE
  5
88
100
AcDbEntity
  8
0
 62
     0
100
AcDbLine
 10
-5.304706
 20
-26.589883
 30
0.0
 11
-5.304706
 21
-26.589883
 31
0.0
  0
LINE
  5
89
100
AcDbEntity
  8
0
 62
     0
100
AcDbLine
 10
-2.588147
 20
-26.232241
 30
0.0
 11
-2.588147
 21
-26.232241
 31
0.0
  0
LINE
  5
8A
100
AcDbEntity
  8
0
 62
     0
100
AcDbLine
 10
-1.54713
 20
-26.095189
 30
0.0
 11
-1.54713
 21
-26.095189
 31
0.0
  0
LINE
  5
8B
100
AcDbEntity
  8
0
 62
     0
100
AcDbLine
 10
0.078839
 20
-25.881126
 30
0.0
 11
0.078839
 21
-25.881126
 31
0.0
  0
LINE
  5
8C
100
AcDbEntity
  8
0
 62
     0
100
AcDbLine
 10
-4.283709
 20
-36.812069
 30
0.0
 11
-4.283709
 21
-36.812069
 31
0.0
  0
LINE
  5
8D
100
AcDbEntity
  8
0
 62
     0
100
AcDbLine
 10
-3.242691
 20
-36.675016
 30
0.0
 11
-3.242691
 21
-36.675016
 31
0.0
  0
LINE
  5
8E
100
AcDbEntity
  8
0
 62
     0
100
AcDbLine
 10
-1.616722
 20
-36.460953
 30
0.0
 11
-1.616722
 21
-36.460953
 31
0.0
  0
LINE
  5
8F
100
AcDbEntity
  8
0
 62
     0
100
AcDbLine
 10
1.099837
 20
-36.103311
 30
0.0
 11
1.099837
 21
-36.103311
 31
0.0
  0
LINE
  5
90
100
AcDbEntity
  8
0
 62
     0
100
AcDbLine
 10
2.140854
 20
-35.966259
 30
0.0
 11
2.140854
 21
-35.966259
 31
0.0
  0
LINE
  5
91
100
AcDbEntity
  8
0
 62
     0
100
AcDbLine
 10
3.766824
 20
-35.752196
 30
0.0
 11
3.766824
 21
-35.752196
 31
0.0
  0
LINE
  5
92
100
AcDbEntity
  8
0
 62
     0
100
AcDbLine
 10
10.994361
 20
-39.978974
 30
0.0
 11
10.994361
 21
-39.978974
 31
0.0
  0
LINE
  5
93
100
AcDbEntity
  8
0
 62
     0
100
AcDbLine
 10
-6.840284
 20
-25.063659
 30
0.0
 11
-6.840284
 21
-25.063659
 31
0.0
  0
LINE
  5
94
100
AcDbEntity
  8
0
 62
     0
100
AcDbLine
 10
-5.996892
 20
-25.600958
 30
0.0
 11
-5.996892
 21
-25.600958
 31
0.0
  0
LINE
  5
95
100
AcDbEntity
  8
0
 62
     0
100
AcDbLine
 10
-2.960683
 20
-27.535237
 30
0.0
 11
-2.960683
 21
-27.535237
 31
0.0
  0
LINE
  5
96
100
AcDbEntity
  8
0
 62
     0
100
AcDbLine
 10
1.003257
 20
-30.060545
 30
0.0
 11
1.003257
 21
-30.060545
 31
0.0
  0
LINE
  5
97
100
AcDbEntity
  8
0
 62
     0
100
AcDbLine
 10
-0.612
 20
-25.05234
 30
0.0
 11
-0.612
 21
-25.05234
 31
0.0
  0
LINE
  5
98
100
AcDbEntity
  8
0
 62
     0
100
AcDbLine
 10
-5.225027
 20
-30.071863
 30
0.0
 11
-5.225027
 21
-30.071863
 31
0.0
  0
LINE
  5
99
100
AcDbEntity
  8
0
 62
     0
100
AcDbLine
 10
-4.381636
 20
-30.609163
 30
0.0
 11
-4.381636
 21
-30.609163
 31
0.0
  0
LINE
  5
9A
100
AcDbEntity
  8
0
 62
     0
100
AcDbLine
 10
-1.345426
 20
-32.543441
 30
0.0
 11
-1.345426
 21
-32.543441
 31
0.0
  0
LINE
  5
9B
100
AcDbEntity
  8
0
 62
     0
100
AcDbLine
 10
2.618513
 20
-35.068749
 30
0.0
 11
2.618513
 21
-35.068749
 31
0.0
  0
LINE
  5
9C
100
AcDbEntity
  8
0
 62
     0
100
AcDbLine
 10
3.461905
 20
-35.606049
 30
0.0
 11
3.461905
 21
-35.606049
 31
0.0
  0
LINE
  5
9D
100
AcDbEntity
  8
0
 62
     0
100
AcDbLine
 10
6.498114
 20
-37.540328
 30
0.0
 11
6.498114
 21
-37.540328
 31
0.0
  0
LINE
  5
9E
100
AcDbEntity
  8
0
 62
     0
100
AcDbLine
 10
-3.60977
 20
-35.080067
 30
0.0
 11
-3.60977
 21
-35.080067
 31
0.0
  0
LINE
  5
9F
100
AcDbEntity
  8
0
 62
     0
100
AcDbLine
 10
-2.766379
 20
-35.617367
 30
0.0
 11
-2.766379
 21
-35.617367
 31
0.0
  0
LINE
  5
A0
100
AcDbEntity
  8
0
 62
     0
100
AcDbLine
 10
0.26983
 20
-37.551646
 30
0.0
 11
0.26983
 21
-37.551646
 31
0.0
  0
LINE
  5
A1
100
AcDbEntity
  8
0
 62
     0
100
AcDbLine
 10
-5.958453
 20
-37.562964
 30
0.0
 11
-5.958453
 21
-37.562964
 31
0.0
  0
LINE
  5
A2
100
AcDbEntity
  8
0
 62
     0
100
AcDbLine
 10
-0.00045
 20
-24.047461
 30
0.0
 11
-0.00045
 21
-24.047461
 31
0.0
  0
LINE
  5
A3
100
AcDbEntity
  8
0
 62
     0
100
AcDbLine
 10
-6.012703
 20
-25.802812
 30
0.0
 11
-6.012703
 21
-25.802812
 31
0.0
  0
LINE
  5
A4
100
AcDbEntity
  8
0
 62
     0
100
AcDbLine
 10
-5.644064
 20
-26.140607
 30
0.0
 11
-5.644064
 21
-26.140607
 31
0.0
  0
LINE
  5
A5
100
AcDbEntity
  8
0
 62
     0
100
AcDbLine
 10
-3.90409
 20
-27.735
 30
0.0
 11
-3.90409
 21
-27.735
 31
0.0
  0
LINE
  5
A6
100
AcDbEntity
  8
0
 62
     0
100
AcDbLine
 10
-1.913441
 20
-29.559094
 30
0.0
 11
-1.913441
 21
-29.559094
 31
0.0
  0
LINE
  5
A7
100
AcDbEntity
  8
0
 62
     0
100
AcDbLine
 10
-1.544802
 20
-29.896889
 30
0.0
 11
-1.544802
 21
-29.896889
 31
0.0
  0
LINE
  5
A8
100
AcDbEntity
  8
0
 62
     0
100
AcDbLine
 10
0.195172
 20
-31.491282
 30
0.0
 11
0.195172
 21
-31.491282
 31
0.0
  0
LINE
  5
A9
100
AcDbEntity
  8
0
 62
     0
100
AcDbLine
 10
2.185821
 20
-33.315375
 30
0.0
 11
2.185821
 21
-33.315375
 31
0.0
  0
LINE
  5
AA
100
AcDbEntity
  8
0
 62
     0
100
AcDbLine
 10
2.55446
 20
-33.653171
 30
0.0
 11
2.55446
 21
-33.653171
 31
0.0
  0
LINE
  5
AB
100
AcDbEntity
  8
0
 62
     0
100
AcDbLine
 10
4.294434
 20
-35.247563
 30
0.0
 11
4.294434
 21
-35.247563
 31
0.0
  0
LINE
  5
AC
100
AcDbEntity
  8
0
 62
     0
100
AcDbLine
 10
6.285083
 20
-37.071657
 30
0.0
 11
6.285083
 21
-37.071657
 31
0.0
  0
LINE
  5
AD
100
AcDbEntity
  8
0
 62
     0
100
AcDbLine
 10
6.653722
 20
-37.409452
 30
0.0
 11
6.653722
 21
-37.409452
 31
0.0
  0
LINE
  5
AE
100
AcDbEntity
  8
0
 62
     0
100
AcDbLine
 10
8.393696
 20
-39.003845
 30
0.0
 11
8.393696
 21
-39.003845
 31
0.0
  0
LINE
  5
AF
100
AcDbEntity
  8
0
 62
     0
100
AcDbLine
 10
-5.817081
 20
-33.246633
 30
0.0
 11
-5.817081
 21
-33.246633
 31
0.0
  0
LINE
  5
B0
100
AcDbEntity
  8
0
 62
     0
100
AcDbLine
 10
-3.826432
 20
-35.070727
 30
0.0
 11
-3.826432
 21
-35.070727
 31
0.0
  0
LINE
  5
B1
100
AcDbEntity
  8
0
 62
     0
100
AcDbLine
 10
-3.457793
 20
-35.408522
 30
0.0
 11
-3.457793
 21
-35.408522
 31
0.0
  0
LINE
  5
B2
100
AcDbEntity
  8
0
 62
     0
100
AcDbLine
 10
-1.717819
 20
-37.002915
 30
0.0
 11
-1.717819
 21
-37.002915
 31
0.0
  0
LINE
  5
B3
100
AcDbEntity
  8
0
 62
     0
100
AcDbLine
 10
0.27283
 20
-38.827008
 30
0.0
 11
0.27283
 21
-38.827008
 31
0.0
  0
LINE
  5
B4
100
AcDbEntity
  8
0
 62
     0
100
AcDbLine
 10
0.641469
 20
-39.164803
 30
0.0
 11
0.641469
 21
-39.164803
 31
0.0
  0
ENDBLK
  5
B6
100
AcDbEntity
  8
0
100
AcDbBlockEnd
  0
BLOCK
  5
6A
100
AcDbEntity
  8
0
100
AcDbBlockBegin
  2
*X4
 70
     1
 10
0.0
 20
0.0
 30
0.0
  3
*X4
  1

  0
LINE
  5
52
100
AcDbEntity
  8
0
 62
     0
100
AcDbLine
 10
-44.393398
 20
-55.0
 30
0.0
 11
-29.793398
 21
-40.4
 31
0.0
  0
LINE
  5
53
100
AcDbEntity
  8
0
 62
     0
100
AcDbLine
 10
-49.696699
 20
-55.0
 30
0.0
 11
-35.096699
 21
-40.4
 31
0.0
  0
LINE
  5
54
100
AcDbEntity
  8
0
 62
     0
100
AcDbLine
 10
-55.0
 20
-55.0
 30
0.0
 11
-40.4
 21
-40.4
 31
0.0
  0
LINE
  5
55
100
AcDbEntity
  8
0
 62
     0
100
AcDbLine
 10
-60.303301
 20
-55.0
 30
0.0
 11
-45.703301
 21
-40.4
 31
0.0
  0
LINE
  5
56
100
AcDbEntity
  8
0
 62
     0
100
AcDbLine
 10
-65.606602
 20
-55.0
 30
0.0
 11
-51.006602
 21
-40.4
 31
0.0
  0
LINE
  5
57
100
AcDbEntity
  8
0
 62
     0
100
AcDbLine
 10
-70.909903
 20
-55.0
 30
0.0
 11
-56.309903
 21
-40.4
 31
0.0
  0
LINE
  5
58
100
AcDbEntity
  8
0
 62
     0
100
AcDbLine
 10
-76.213203
 20
-55.0
 30
0.0
 11
-61.613203
 21
-40.4
 31
0.0
  0
LINE
  5
59
100
AcDbEntity
  8
0
 62
     0
100
AcDbLine
 10
-81.516504
 20
-55.0
 30
0.0
 11
-66.916504
 21
-40.4
 31
0.0
  0
LINE
  5
5A
100
AcDbEntity
  8
0
 62
     0
100
AcDbLine
 10
-86.819805
 20
-55.0
 30
0.0
 11
-72.219805
 21
-40.4
 31
0.0
  0
LINE
  5
5B
100
AcDbEntity
  8
0
 62
     0
100
AcDbLine
 10
-89.0
 20
-51.876894
 30
0.0
 11
-77.523106
 21
-40.4
 31
0.0
  0
LINE
  5
5C
100
AcDbEntity
  8
0
 62
     0
100
AcDbLine
 10
-89.0
 20
-46.573593
 30
0.0
 11
-82.826407
 21
-40.4
 31
0.0
  0
LINE
  5
5D
100
AcDbEntity
  8
0
 62
     0
100
AcDbLine
 10
-89.0
 20
-41.270292
 30
0.0
 11
-88.129708
 21
-40.4
 31
0.0
  0
LINE
  5
5E
100
AcDbEntity
  8
0
 62
     0
100
AcDbLine
 10
-39.090097
 20
-55.0
 30
0.0
 11
-24.490097
 21
-40.4
 31
0.0
  0
LINE
  5
5F
100
AcDbEntity
  8
0
 62
     0
100
AcDbLine
 10
-33.786797
 20
-55.0
 30
0.0
 11
-19.186797
 21
-40.4
 31
0.0
  0
LINE
  5
60
100
AcDbEntity
  8
0
 62
     0
100
AcDbLine
 10
-28.483496
 20
-55.0
 30
0.0
 11
-13.883496
 21
-40.4
 31
0.0
  0
LINE
  5
61
100
AcDbEntity
  8
0
 62
     0
100
AcDbLine
 10
-23.180195
 20
-55.0
 30
0.0
 11
-8.580195
 21
-40.4
 31
0.0
  0
LINE
  5
62
100
AcDbEntity
  8
0
 62
     0
100
AcDbLine
 10
-17.876894
 20
-55.0
 30
0.0
 11
-3.276894
 21
-40.4
 31
0.0
  0
LINE
  5
63
100
AcDbEntity
  8
0
 62
     0
100
AcDbLine
 10
-12.573593
 20
-55.0
 30
0.0
 11
2.026407
 21
-40.4
 31
0.0
  0
LINE
  5
64
100
AcDbEntity
  8
0
 62
     0
100
AcDbLine
 10
-7.270292
 20
-55.0
 30
0.0
 11
7.329708
 21
-40.4
 31
0.0
  0
LINE
  5
65
100
AcDbEntity
  8
0
 62
     0
100
AcDbLine
 10
-1.966991
 20
-55.0
 30
0.0
 11
12.633009
 21
-40.4
 31
0.0
  0
LINE
  5
66
100
AcDbEntity
  8
0
 62
     0
100
AcDbLine
 10
3.336309
 20
-55.0
 30
0.0
 11
17.936309
 21
-40.4
 31
0.0
  0
LINE
  5
67
100
AcDbEntity
  8
0
 62
     0
100
AcDbLine
 10
8.63961
 20
-55.0
 30
0.0
 11
23.23961
 21
-40.4
 31
0.0
  0
LINE
  5
68
100
AcDbEntity
  8
0
 62
     0
100
AcDbLine
 10
13.942911
 20
-55.0
 30
0.0
 11
24.0
 21
-44.942911
 31
0.0
  0
LINE
  5
69
100
AcDbEntity
  8
0
 62
     0
100
AcDbLine
 10
19.246212
 20
-55.0
 30
0.0
 11
24.0
 21
-50.246212
 31
0.0
  0
ENDBLK
  5
6B
100
AcDbEntity
  8
0
100
AcDbBlockEnd
  0
BLOCK
  5
BA
100
AcDbEntity
  8
0
100
AcDbBlockBegin
  2
65_INF-B10
 70
     0
 10
0.0
 20
0.0
 30
0.0
  3
65_INF-B10
  1

  0
LWPOLYLINE
  5
4C
100
AcDbEntity
  8
ISOLERING
100
AcDbPolyline
 90
       42
 70
     0
 43
0.0
 10
-58.0
 20
-39.436492
 42
0.538866
 10
-55.523529
 20
-37.194118
 10
-56.976471
 20
-27.805882
 42
-1.166667
 10
-53.023529
 20
-27.805882
 10
-54.476471
 20
-37.194118
 42
1.166667
 10
-50.523529
 20
-37.194118
 10
-51.976471
 20
-27.805882
 42
-1.166667
 10
-48.023529
 20
-27.805882
 10
-49.476471
 20
-37.194118
 42
1.166667
 10
-45.523529
 20
-37.194118
 10
-46.976471
 20
-27.805882
 42
-1.166667
 10
-43.023529
 20
-27.805882
 10
-44.476471
 20
-37.194118
 42
1.166667
 10
-40.523529
 20
-37.194118
 10
-41.976471
 20
-27.805882
 42
-1.166667
 10
-38.023529
 20
-27.805882
 10
-39.476471
 20
-37.194118
 42
1.166667
 10
-35.523529
 20
-37.194118
 10
-36.976471
 20
-27.805882
 42
-1.166667
 10
-33.023529
 20
-27.805882
 10
-34.476471
 20
-37.194118
 42
1.166667
 10
-30.523529
 20
-37.194118
 10
-31.976471
 20
-27.805882
 42
-1.166667
 10
-28.023529
 20
-27.805882
 10
-29.476471
 20
-37.194118
 42
1.166667
 10
-25.523529
 20
-37.194118
 10
-26.976471
 20
-27.805882
 42
-1.166667
 10
-23.023529
 20
-27.805882
 10
-24.476471
 20
-37.194118
 42
1.166667
 10
-20.523529
 20
-37.194118
 10
-21.976471
 20
-27.805882
 42
-1.166667
 10
-18.023529
 20
-27.805882
 10
-19.476471
 20
-37.194118
 42
1.166667
 10
-15.523529
 20
-37.194118
 10
-16.976471
 20
-27.805882
 42
-1.166667
 10
-13.023529
 20
-27.805882
 10
-14.476471
 20
-37.194118
 42
1.166667
 10
-10.523529
 20
-37.194118
 10
-11.976471
 20
-27.805882
 42
-1.166667
 10
-8.023529
 20
-27.805882
 10
-9.476471
 20
-37.194118
 42
0.538866
 10
-7.0
 20
-39.436492
 42
0.538866
  0
LWPOLYLINE
  5
4E
100
AcDbEntity
  8
FOGNINGB
100
AcDbPolyline
 90
        2
 70
     0
 43
0.8
 10
24.0
 20
-40.4
 10
-89.0
 20
-40.4
  0
INSERT
  5
50
100
AcDbEntity
  8
FOGNINGB
100
AcDbBlockReference
  2
*X4
 10
0.0
 20
0.0
 30
0.0
1001
ACAD
1000
HATCH
1002
{
1070
    16
1000
ANSI31
1040
30.0
1040
0.0
1002
}
  0
LINE
  5
6C
100
AcDbEntity
  8
SPKONTUR
100
AcDbLine
 10
24.0
 20
-40.0
 30
0.0
 11
-89.0
 21
-40.0
 31
0.0
  0
LINE
  5
6E
100
AcDbEntity
  8
GLAS_MED_FOGNING
100
AcDbLine
 10
-58.0
 20
-25.0
 30
0.0
 11
-58.0
 21
-40.0
 31
0.0
  0
ARC
  5
6F
100
AcDbEntity
  8
GLAS_MED_FOGNING
100
AcDbCircle
 10
-82.609845
 20
-23.135825
 30
0.0
 40
17.62132
100
AcDbArc
 50
286.85681
 51
2.067835
  0
INSERT
  5
70
100
AcDbEntity
  8
GLAS_MED_FOGNING
100
AcDbBlockReference
  2
*X3
 10
-65.0
 20
0.0
 30
0.0
 41
-1.0
1001
ACAD
1000
HATCH
1002
{
1070
    16
1000
AR-SAND
1040
2.0
1040
0.0
1002
}
  0
INSERT
  5
B7
100
AcDbEntity
  8
GLAS_MED_FOGNING
100
AcDbBlockReference
  2
*X3
 10
0.0
 20
0.0
 30
0.0
1001
ACAD
1000
HATCH
1002
{
1070
    16
1000
AR-SAND
1040
2.0
1040
0.0
1002
}
  0
ARC
  5
B8
100
AcDbEntity
  8
GLAS_MED_FOGNING
100
AcDbCircle
 10
17.609845
 20
-23.135825
 30
0.0
 40
17.62132
100
AcDbArc
 50
177.932165
 51
253.14319
  0
LINE
  5
B9
100
AcDbEntity
  8
GLAS_MED_FOGNING
100
AcDbLine
 10
-7.0
 20
-25.0
 30
0.0
 11
-7.0
 21
-40.0
 31
0.0
  0
ENDBLK
  5
BB
100
AcDbEntity
  8
0
100
AcDbBlockEnd
  0
BLOCK
  5
1BB
100
AcDbEntity
  8
0
100
AcDbBlockBegin
  2
SP42520
 70
     0
 10
0.0
 20
0.0
 30
0.0
  3
SP42520
  1

  0
LWPOLYLINE
  5
1A4
100
AcDbEntity
  8
SPKONTUR
100
AcDbPolyline
 90
       14
 70
     0
 43
0.0
 10
-2.629165
 20
30.0
 10
-3.5
 20
26.7499
 42
0.41423
 10
-1.75
 20
25.0
 42
0.414213
 10
0.0
 20
26.749998
 10
0.0
 20
43.0
 42
0.414214
 10
-2.0
 20
45.0
 10
-7.5
 20
45.0
 10
-23.0
 20
45.0
 42
0.414214
 10
-25.0
 20
43.0
 10
-25.0
 20
27.0
 42
0.414214
 10
-23.0
 20
25.0
 10
-13.5
 20
25.0
 42
0.414214
 10
-11.5
 20
27.0
 10
-12.303848
 20
30.0
  0
LWPOLYLINE
  5
1A5
100
AcDbEntity
  8
STALPROFIL
100
AcDbPolyline
 90
       13
 70
     0
 43
1.25
 10
-2.02546
 20
29.838243
 10
-2.872606
 20
26.676553
 42
0.395246
 10
-1.75
 20
25.625
 42
0.414213
 10
-0.625
 20
26.749998
 10
-0.625
 20
43.0
 42
0.414214
 10
-2.0
 20
44.375
 10
-23.0
 20
44.375
 42
0.414214
 10
-24.375
 20
43.0
 10
-24.375
 20
27.0
 42
0.414214
 10
-23.0
 20
25.625
 10
-13.5
 20
25.625
 42
0.398381
 10
-12.127031
 20
26.925296
 10
-12.907551
 20
29.838238
  0
INSERT
  5
1A6
100
AcDbEntity
  8
FOGNINGR
100
AcDbBlockReference
  2
SP40020
 10
5.5
 20
-0.000002
 30
0.0
  0
ENDBLK
  5
1BC
100
AcDbEntity
  8
0
100
AcDbBlockEnd
  0
BLOCK
  5
117
100
AcDbEntity
  8
0
100
AcDbBlockBegin
  2
*X10
 70
     1
 10
0.0
 20
0.0
 30
0.0
  3
*X10
  1

  0
LINE
  5
CF
100
AcDbEntity
  8
0
 62
     0
100
AcDbLine
 10
-20.0
 20
-23.659281
 30
0.0
 11
-20.207178
 21
-23.214986
 31
0.0
  0
LINE
  5
D0
100
AcDbEntity
  8
0
 62
     0
100
AcDbLine
 10
-21.52786
 20
-20.382774
 30
0.0
 11
-22.848542
 21
-17.550562
 31
0.0
  0
LINE
  5
D1
100
AcDbEntity
  8
0
 62
     0
100
AcDbLine
 10
-24.169224
 20
-14.71835
 30
0.0
 11
-25.489907
 21
-11.886139
 31
0.0
  0
LINE
  5
D2
100
AcDbEntity
  8
0
 62
     0
100
AcDbLine
 10
-26.810589
 20
-9.053927
 30
0.0
 11
-28.131271
 21
-6.221715
 31
0.0
  0
LINE
  5
D3
100
AcDbEntity
  8
0
 62
     0
100
AcDbLine
 10
-29.451953
 20
-3.389503
 30
0.0
 11
-30.772635
 21
-0.557291
 31
0.0
  0
LINE
  5
D4
100
AcDbEntity
  8
0
 62
     0
100
AcDbLine
 10
-32.093317
 20
2.274921
 30
0.0
 11
-33.413999
 21
5.107132
 31
0.0
  0
LINE
  5
D5
100
AcDbEntity
  8
0
 62
     0
100
AcDbLine
 10
-34.734681
 20
7.939344
 30
0.0
 11
-36.055363
 21
10.771556
 31
0.0
  0
LINE
  5
D6
100
AcDbEntity
  8
0
 62
     0
100
AcDbLine
 10
-37.376045
 20
13.603768
 30
0.0
 11
-38.696727
 21
16.43598
 31
0.0
  0
LINE
  5
D7
100
AcDbEntity
  8
0
 62
     0
100
AcDbLine
 10
-40.017409
 20
19.268192
 30
0.0
 11
-41.338091
 21
22.100403
 31
0.0
  0
LINE
  5
D8
100
AcDbEntity
  8
0
 62
     0
100
AcDbLine
 10
-42.658773
 20
24.932615
 30
0.0
 11
-42.690195
 21
25.0
 31
0.0
  0
LINE
  5
D9
100
AcDbEntity
  8
0
 62
     0
100
AcDbLine
 10
-23.03939
 20
-24.535668
 30
0.0
 11
-24.360072
 21
-21.703456
 31
0.0
  0
LINE
  5
DA
100
AcDbEntity
  8
0
 62
     0
100
AcDbLine
 10
-25.680754
 20
-18.871244
 30
0.0
 11
-27.001436
 21
-16.039033
 31
0.0
  0
LINE
  5
DB
100
AcDbEntity
  8
0
 62
     0
100
AcDbLine
 10
-28.322118
 20
-13.206821
 30
0.0
 11
-29.6428
 21
-10.374609
 31
0.0
  0
LINE
  5
DC
100
AcDbEntity
  8
0
 62
     0
100
AcDbLine
 10
-30.963482
 20
-7.542397
 30
0.0
 11
-32.284165
 21
-4.710185
 31
0.0
  0
LINE
  5
DD
100
AcDbEntity
  8
0
 62
     0
100
AcDbLine
 10
-33.604847
 20
-1.877973
 30
0.0
 11
-34.925529
 21
0.954238
 31
0.0
  0
LINE
  5
DE
100
AcDbEntity
  8
0
 62
     0
100
AcDbLine
 10
-36.246211
 20
3.78645
 30
0.0
 11
-37.566893
 21
6.618662
 31
0.0
  0
LINE
  5
DF
100
AcDbEntity
  8
0
 62
     0
100
AcDbLine
 10
-38.887575
 20
9.450874
 30
0.0
 11
-40.208257
 21
12.283086
 31
0.0
  0
LINE
  5
E0
100
AcDbEntity
  8
0
 62
     0
100
AcDbLine
 10
-41.528939
 20
15.115298
 30
0.0
 11
-42.849621
 21
17.947509
 31
0.0
  0
LINE
  5
E1
100
AcDbEntity
  8
0
 62
     0
100
AcDbLine
 10
-44.170303
 20
20.779721
 30
0.0
 11
-45.0
 21
22.559012
 31
0.0
  0
LINE
  5
E2
100
AcDbEntity
  8
0
 62
     0
100
AcDbLine
 10
-27.192284
 20
-23.024138
 30
0.0
 11
-28.512966
 21
-20.191926
 31
0.0
  0
LINE
  5
E3
100
AcDbEntity
  8
0
 62
     0
100
AcDbLine
 10
-29.833648
 20
-17.359715
 30
0.0
 11
-31.15433
 21
-14.527503
 31
0.0
  0
LINE
  5
E4
100
AcDbEntity
  8
0
 62
     0
100
AcDbLine
 10
-32.475012
 20
-11.695291
 30
0.0
 11
-33.795694
 21
-8.863079
 31
0.0
  0
LINE
  5
E5
100
AcDbEntity
  8
0
 62
     0
100
AcDbLine
 10
-35.116376
 20
-6.030867
 30
0.0
 11
-36.437058
 21
-3.198655
 31
0.0
  0
LINE
  5
E6
100
AcDbEntity
  8
0
 62
     0
100
AcDbLine
 10
-37.757741
 20
-0.366444
 30
0.0
 11
-39.078423
 21
2.465768
 31
0.0
  0
LINE
  5
E7
100
AcDbEntity
  8
0
 62
     0
100
AcDbLine
 10
-40.399105
 20
5.29798
 30
0.0
 11
-41.719787
 21
8.130192
 31
0.0
  0
LINE
  5
E8
100
AcDbEntity
  8
0
 62
     0
100
AcDbLine
 10
-43.040469
 20
10.962404
 30
0.0
 11
-44.361151
 21
13.794616
 31
0.0
  0
LINE
  5
E9
100
AcDbEntity
  8
0
 62
     0
100
AcDbLine
 10
-29.718981
 20
-25.0
 30
0.0
 11
-30.024496
 21
-24.34482
 31
0.0
  0
LINE
  5
EA
100
AcDbEntity
  8
0
 62
     0
100
AcDbLine
 10
-31.345178
 20
-21.512608
 30
0.0
 11
-32.66586
 21
-18.680397
 31
0.0
  0
LINE
  5
EB
100
AcDbEntity
  8
0
 62
     0
100
AcDbLine
 10
-33.986542
 20
-15.848185
 30
0.0
 11
-35.307224
 21
-13.015973
 31
0.0
  0
LINE
  5
EC
100
AcDbEntity
  8
0
 62
     0
100
AcDbLine
 10
-36.627906
 20
-10.183761
 30
0.0
 11
-37.948588
 21
-7.351549
 31
0.0
  0
LINE
  5
ED
100
AcDbEntity
  8
0
 62
     0
100
AcDbLine
 10
-39.26927
 20
-4.519337
 30
0.0
 11
-40.589952
 21
-1.687126
 31
0.0
  0
LINE
  5
EE
100
AcDbEntity
  8
0
 62
     0
100
AcDbLine
 10
-41.910634
 20
1.145086
 30
0.0
 11
-43.231316
 21
3.977298
 31
0.0
  0
LINE
  5
EF
100
AcDbEntity
  8
0
 62
     0
100
AcDbLine
 10
-44.551999
 20
6.80951
 30
0.0
 11
-45.0
 21
7.770252
 31
0.0
  0
LINE
  5
F0
100
AcDbEntity
  8
0
 62
     0
100
AcDbLine
 10
-33.167037
 20
-25.0
 30
0.0
 11
-34.17739
 21
-22.833291
 31
0.0
  0
LINE
  5
F1
100
AcDbEntity
  8
0
 62
     0
100
AcDbLine
 10
-35.498072
 20
-20.001079
 30
0.0
 11
-36.818754
 21
-17.168867
 31
0.0
  0
LINE
  5
F2
100
AcDbEntity
  8
0
 62
     0
100
AcDbLine
 10
-38.139436
 20
-14.336655
 30
0.0
 11
-39.460118
 21
-11.504443
 31
0.0
  0
LINE
  5
F3
100
AcDbEntity
  8
0
 62
     0
100
AcDbLine
 10
-40.7808
 20
-8.672231
 30
0.0
 11
-42.101482
 21
-5.84002
 31
0.0
  0
LINE
  5
F4
100
AcDbEntity
  8
0
 62
     0
100
AcDbLine
 10
-43.422164
 20
-3.007808
 30
0.0
 11
-44.742846
 21
-0.175596
 31
0.0
  0
LINE
  5
F5
100
AcDbEntity
  8
0
 62
     0
100
AcDbLine
 10
-37.009602
 20
-24.153973
 30
0.0
 11
-38.330284
 21
-21.321761
 31
0.0
  0
LINE
  5
F6
100
AcDbEntity
  8
0
 62
     0
100
AcDbLine
 10
-39.650966
 20
-18.489549
 30
0.0
 11
-40.971648
 21
-15.657337
 31
0.0
  0
LINE
  5
F7
100
AcDbEntity
  8
0
 62
     0
100
AcDbLine
 10
-42.29233
 20
-12.825125
 30
0.0
 11
-43.613012
 21
-9.992913
 31
0.0
  0
LINE
  5
F8
100
AcDbEntity
  8
0
 62
     0
100
AcDbLine
 10
-44.933694
 20
-7.160702
 30
0.0
 11
-45.0
 21
-7.018508
 31
0.0
  0
LINE
  5
F9
100
AcDbEntity
  8
0
 62
     0
100
AcDbLine
 10
-41.162495
 20
-22.642443
 30
0.0
 11
-42.483178
 21
-19.810231
 31
0.0
  0
LINE
  5
FA
100
AcDbEntity
  8
0
 62
     0
100
AcDbLine
 10
-43.80386
 20
-16.978019
 30
0.0
 11
-45.0
 21
-14.412888
 31
0.0
  0
LINE
  5
FB
100
AcDbEntity
  8
0
 62
     0
100
AcDbLine
 10
-43.511204
 20
-25.0
 30
0.0
 11
-43.994707
 21
-23.963125
 31
0.0
  0
LINE
  5
FC
100
AcDbEntity
  8
0
 62
     0
100
AcDbLine
 10
-20.016331
 20
-16.22988
 30
0.0
 11
-21.337013
 21
-13.397668
 31
0.0
  0
LINE
  5
FD
100
AcDbEntity
  8
0
 62
     0
100
AcDbLine
 10
-22.657695
 20
-10.565457
 30
0.0
 11
-23.978377
 21
-7.733245
 31
0.0
  0
LINE
  5
FE
100
AcDbEntity
  8
0
 62
     0
100
AcDbLine
 10
-25.299059
 20
-4.901033
 30
0.0
 11
-26.619741
 21
-2.068821
 31
0.0
  0
LINE
  5
FF
100
AcDbEntity
  8
0
 62
     0
100
AcDbLine
 10
-27.940423
 20
0.763391
 30
0.0
 11
-29.261105
 21
3.595603
 31
0.0
  0
LINE
  5
100
100
AcDbEntity
  8
0
 62
     0
100
AcDbLine
 10
-30.581787
 20
6.427814
 30
0.0
 11
-31.902469
 21
9.260026
 31
0.0
  0
LINE
  5
101
100
AcDbEntity
  8
0
 62
     0
100
AcDbLine
 10
-33.223151
 20
12.092238
 30
0.0
 11
-34.543833
 21
14.92445
 31
0.0
  0
LINE
  5
102
100
AcDbEntity
  8
0
 62
     0
100
AcDbLine
 10
-35.864515
 20
17.756662
 30
0.0
 11
-37.185197
 21
20.588874
 31
0.0
  0
LINE
  5
103
100
AcDbEntity
  8
0
 62
     0
100
AcDbLine
 10
-38.505879
 20
23.421085
 30
0.0
 11
-39.242139
 21
25.0
 31
0.0
  0
LINE
  5
104
100
AcDbEntity
  8
0
 62
     0
100
AcDbLine
 10
-21.146165
 20
-6.412563
 30
0.0
 11
-22.466847
 21
-3.580351
 31
0.0
  0
LINE
  5
105
100
AcDbEntity
  8
0
 62
     0
100
AcDbLine
 10
-23.787529
 20
-0.748139
 30
0.0
 11
-25.108211
 21
2.084073
 31
0.0
  0
LINE
  5
106
100
AcDbEntity
  8
0
 62
     0
100
AcDbLine
 10
-26.428893
 20
4.916285
 30
0.0
 11
-27.749575
 21
7.748497
 31
0.0
  0
LINE
  5
107
100
AcDbEntity
  8
0
 62
     0
100
AcDbLine
 10
-29.070257
 20
10.580708
 30
0.0
 11
-30.390939
 21
13.41292
 31
0.0
  0
LINE
  5
108
100
AcDbEntity
  8
0
 62
     0
100
AcDbLine
 10
-31.711621
 20
16.245132
 30
0.0
 11
-33.032304
 21
19.077344
 31
0.0
  0
LINE
  5
109
100
AcDbEntity
  8
0
 62
     0
100
AcDbLine
 10
-34.352986
 20
21.909556
 30
0.0
 11
-35.673668
 21
24.741768
 31
0.0
  0
LINE
  5
10A
100
AcDbEntity
  8
0
 62
     0
100
AcDbLine
 10
-20.0
 20
-1.476141
 30
0.0
 11
-20.955317
 21
0.572543
 31
0.0
  0
LINE
  5
10B
100
AcDbEntity
  8
0
 62
     0
100
AcDbLine
 10
-22.275999
 20
3.404755
 30
0.0
 11
-23.596681
 21
6.236967
 31
0.0
  0
LINE
  5
10C
100
AcDbEntity
  8
0
 62
     0
100
AcDbLine
 10
-24.917363
 20
9.069179
 30
0.0
 11
-26.238045
 21
11.90139
 31
0.0
  0
LINE
  5
10D
100
AcDbEntity
  8
0
 62
     0
100
AcDbLine
 10
-27.558728
 20
14.733602
 30
0.0
 11
-28.87941
 21
17.565814
 31
0.0
  0
LINE
  5
10E
100
AcDbEntity
  8
0
 62
     0
100
AcDbLine
 10
-30.200092
 20
20.398026
 30
0.0
 11
-31.520774
 21
23.230238
 31
0.0
  0
LINE
  5
10F
100
AcDbEntity
  8
0
 62
     0
100
AcDbLine
 10
-20.76447
 20
7.557649
 30
0.0
 11
-22.085152
 21
10.389861
 31
0.0
  0
LINE
  5
110
100
AcDbEntity
  8
0
 62
     0
100
AcDbLine
 10
-23.405834
 20
13.222073
 30
0.0
 11
-24.726516
 21
16.054284
 31
0.0
  0
LINE
  5
111
100
AcDbEntity
  8
0
 62
     0
100
AcDbLine
 10
-26.047198
 20
18.886496
 30
0.0
 11
-27.36788
 21
21.718708
 31
0.0
  0
LINE
  5
112
100
AcDbEntity
  8
0
 62
     0
100
AcDbLine
 10
-28.688562
 20
24.55092
 30
0.0
 11
-28.897971
 21
25.0
 31
0.0
  0
LINE
  5
113
100
AcDbEntity
  8
0
 62
     0
100
AcDbLine
 10
-20.0
 20
13.312619
 30
0.0
 11
-20.573622
 21
14.542755
 31
0.0
  0
LINE
  5
114
100
AcDbEntity
  8
0
 62
     0
100
AcDbLine
 10
-21.894304
 20
17.374966
 30
0.0
 11
-23.214986
 21
20.207178
 31
0.0
  0
LINE
  5
115
100
AcDbEntity
  8
0
 62
     0
100
AcDbLine
 10
-24.535668
 20
23.03939
 30
0.0
 11
-25.449915
 21
25.0
 31
0.0
  0
LINE
  5
116
100
AcDbEntity
  8
0
 62
     0
100
AcDbLine
 10
-20.382774
 20
21.52786
 30
0.0
 11
-21.703456
 21
24.360072
 31
0.0
  0
ENDBLK
  5
118
100
AcDbEntity
  8
0
100
AcDbBlockEnd
  0
BLOCK
  5
130
100
AcDbEntity
  8
0
100
AcDbBlockBegin
  2
SP76511
 70
     0
 10
0.0
 20
0.0
 30
0.0
  3
SP76511
  1

  0
LWPOLYLINE
  5
CA
100
AcDbEntity
  8
SPKONTUR
100
AcDbPolyline
 90
       11
 70
     1
 43
0.0
 10
-61.4
 20
25.0
 10
-46.8
 20
25.0
 42
-0.414214
 10
-45.0
 20
23.2
 10
-45.0
 20
-23.2
 42
-0.414214
 10
-46.8
 20
-25.0
 10
-63.2
 20
-25.0
 42
-0.414214
 10
-65.0
 20
-23.2
 10
-65.0
 20
43.2
 42
-0.414214
 10
-63.2
 20
45.0
 10
-63.199
 20
45.0
 42
-0.414214
 10
-61.4
 20
43.201
  0
LWPOLYLINE
  5
CB
100
AcDbEntity
  8
STALPROFIL
100
AcDbPolyline
 90
       11
 70
     1
 43
1.8
 10
-61.4
 20
24.1
 10
-46.8
 20
24.1
 42
-0.414214
 10
-45.9
 20
23.2
 10
-45.9
 20
-23.2
 42
-0.414214
 10
-46.8
 20
-24.1
 10
-63.2
 20
-24.1
 42
-0.414214
 10
-64.1
 20
-23.2
 10
-64.1
 20
43.2
 42
-0.414214
 10
-63.199
 20
44.1
 42
-0.414214
 10
-62.3
 20
43.201
 10
-62.3
 20
25.0
 42
0.414214
  0
INSERT
  5
CD
100
AcDbEntity
  8
GLAS_MED_FOGNING
100
AcDbBlockReference
  2
*X10
 10
0.0
 20
0.0
 30
0.0
1001
ACAD
1000
HATCH
1002
{
1070
    16
1000
DASH
1040
25.0
1040
2.007129
1002
}
  0
LWPOLYLINE
  5
119
100
AcDbEntity
  8
SPKONTUR
100
AcDbPolyline
 90
       25
 70
     0
 43
0.0
 10
-8.1
 20
18.4
 10
-8.114719
 20
18.4
 10
-8.1
 20
18.4
 42
-0.414214
 10
-5.6
 20
15.9
 10
-5.6
 20
13.8
 42
0.414214
 10
-3.8
 20
12.0
 10
-3.6
 20
12.0
 42
-0.414214
 10
0.0
 20
8.4
 10
0.0
 20
-23.2
 42
-0.414214
 10
-1.8
 20
-25.0
 10
-18.2
 20
-25.0
 42
-0.414214
 10
-20.0
 20
-23.2
 10
-20.0
 20
23.2
 42
-0.414214
 10
-18.2
 20
25.0
 10
-7.9
 20
25.0
 42
-0.414214
 10
-6.1
 20
23.2
 10
-6.1
 20
23.199
 42
-0.414214
 10
-7.899
 20
21.4
 10
-12.6
 20
21.4
 42
0.414214
 10
-14.4
 20
19.6
 10
-14.4
 20
18.2
 42
0.414214
 10
-12.6
 20
16.4
 42
0.198912
 10
-10.47868
 20
17.27868
 10
-10.236039
 20
17.52132
 42
-0.198912
 10
-8.114719
 20
18.4
  0
LWPOLYLINE
  5
11A
100
AcDbEntity
  8
STALPROFIL
100
AcDbPolyline
 90
       22
 70
     1
 43
1.8
 10
-8.114719
 20
17.5
 10
-8.1
 20
17.5
 42
-0.414214
 10
-6.5
 20
15.9
 10
-6.5
 20
13.8
 42
0.414214
 10
-3.8
 20
11.1
 10
-3.6
 20
11.1
 42
-0.414214
 10
-0.9
 20
8.4
 10
-0.9
 20
-23.2
 42
-0.414214
 10
-1.8
 20
-24.1
 10
-18.2
 20
-24.1
 42
-0.414214
 10
-19.1
 20
-23.2
 10
-19.1
 20
23.2
 42
-0.414214
 10
-18.2
 20
24.1
 10
-7.9
 20
24.1
 42
-0.414214
 10
-7.0
 20
23.199
 42
-0.414214
 10
-7.899
 20
22.3
 10
-12.6
 20
22.3
 42
0.414214
 10
-15.3
 20
19.6
 10
-15.3
 20
18.2
 42
0.414214
 10
-12.6
 20
15.5
 42
0.198912
 10
-9.842284
 20
16.642284
 10
-9.599643
 20
16.884924
 42
-0.198912
  0
LWPOLYLINE
  5
11B
100
AcDbEntity
  8
GLAS_MED_FOGNING
100
AcDbPolyline
 90
        4
 70
     0
 43
0.0
 10
-20.0
 20
-23.2
 10
-20.0
 20
-25.0
 10
-45.0
 20
-25.0
 10
-45.0
 20
-23.2
  0
LWPOLYLINE
  5
11C
100
AcDbEntity
  8
GLAS_MED_FOGNING
100
AcDbPolyline
 90
        4
 70
     0
 43
0.0
 10
-20.0
 20
23.2
 10
-20.0
 20
25.0
 10
-45.0
 20
25.0
 10
-45.0
 20
23.2
  0
INSERT
  5
11D
100
AcDbEntity
  8
GLAS_MED_FOGNING
100
AcDbBlockReference
  2
SP40010
 10
0.0
 20
0.0
 30
0.0
  0
ENDBLK
  5
131
100
AcDbEntity
  8
0
100
AcDbBlockEnd
  0
BLOCK
  5
16C
100
AcDbEntity
  8
0
100
AcDbBlockBegin
  2
SP76512
 70
     0
 10
0.0
 20
0.0
 30
0.0
  3
SP76512
  1

  0
LWPOLYLINE
  5
164
100
AcDbEntity
  8
SPKONTUR
100
AcDbPolyline
 90
       16
 70
     1
 43
0.0
 10
-65.0
 20
0.0
 10
-65.0
 20
-43.2
 42
0.414214
 10
-63.2
 20
-45.0
 10
-63.199
 20
-45.0
 42
0.414214
 10
-61.4
 20
-43.201
 10
-61.4
 20
-25.0
 10
-46.8
 20
-25.0
 42
0.414214
 10
-45.0
 20
-23.2
 10
-45.0
 20
0.0
 10
-45.0
 20
23.2
 42
0.414214
 10
-46.8
 20
25.0
 10
-61.4
 20
25.0
 10
-61.4
 20
43.201
 42
0.414214
 10
-63.199
 20
45.0
 10
-63.2
 20
45.0
 42
0.414214
 10
-65.0
 20
43.2
  0
LWPOLYLINE
  5
165
100
AcDbEntity
  8
STALPROFIL
100
AcDbPolyline
 90
       16
 70
     1
 43
1.8
 10
-64.1
 20
0.0
 10
-64.1
 20
-43.2
 42
0.414214
 10
-63.199
 20
-44.1
 42
0.414214
 10
-62.3
 20
-43.201
 10
-62.3
 20
-25.0
 42
-0.414214
 10
-61.4
 20
-24.1
 10
-46.8
 20
-24.1
 42
0.414214
 10
-45.9
 20
-23.2
 10
-45.9
 20
0.0
 10
-45.9
 20
23.2
 42
0.414214
 10
-46.8
 20
24.1
 10
-61.4
 20
24.1
 42
-0.414214
 10
-62.3
 20
25.0
 10
-62.3
 20
43.201
 42
0.414214
 10
-63.2
 20
44.1
 42
0.414214
 10
-64.1
 20
43.2
  0
INSERT
  5
166
100
AcDbEntity
  8
GLAS_MED_FOGNING
100
AcDbBlockReference
  2
*X10
 10
0.0
 20
0.0
 30
0.0
1001
ACAD
1000
HATCH
1002
{
1070
    16
1000
DASH
1040
25.0
1040
2.007129
1002
}
  0
LWPOLYLINE
  5
167
100
AcDbEntity
  8
SPKONTUR
100
AcDbPolyline
 90
       25
 70
     0
 43
0.0
 10
-8.1
 20
18.4
 10
-8.114719
 20
18.4
 10
-8.1
 20
18.4
 42
-0.414214
 10
-5.6
 20
15.9
 10
-5.6
 20
13.8
 42
0.414214
 10
-3.8
 20
12.0
 10
-3.6
 20
12.0
 42
-0.414214
 10
0.0
 20
8.4
 10
0.0
 20
-23.2
 42
-0.414214
 10
-1.8
 20
-25.0
 10
-18.2
 20
-25.0
 42
-0.414214
 10
-20.0
 20
-23.2
 10
-20.0
 20
23.2
 42
-0.414214
 10
-18.2
 20
25.0
 10
-7.9
 20
25.0
 42
-0.414214
 10
-6.1
 20
23.2
 10
-6.1
 20
23.199
 42
-0.414214
 10
-7.899
 20
21.4
 10
-12.6
 20
21.4
 42
0.414214
 10
-14.4
 20
19.6
 10
-14.4
 20
18.2
 42
0.414214
 10
-12.6
 20
16.4
 42
0.198912
 10
-10.47868
 20
17.27868
 10
-10.236039
 20
17.52132
 42
-0.198912
 10
-8.114719
 20
18.4
  0
LWPOLYLINE
  5
168
100
AcDbEntity
  8
STALPROFIL
100
AcDbPolyline
 90
       22
 70
     1
 43
1.8
 10
-8.114719
 20
17.5
 10
-8.1
 20
17.5
 42
-0.414214
 10
-6.5
 20
15.9
 10
-6.5
 20
13.8
 42
0.414214
 10
-3.8
 20
11.1
 10
-3.6
 20
11.1
 42
-0.414214
 10
-0.9
 20
8.4
 10
-0.9
 20
-23.2
 42
-0.414214
 10
-1.8
 20
-24.1
 10
-18.2
 20
-24.1
 42
-0.414214
 10
-19.1
 20
-23.2
 10
-19.1
 20
23.2
 42
-0.414214
 10
-18.2
 20
24.1
 10
-7.9
 20
24.1
 42
-0.414214
 10
-7.0
 20
23.199
 42
-0.414214
 10
-7.899
 20
22.3
 10
-12.6
 20
22.3
 42
0.414214
 10
-15.3
 20
19.6
 10
-15.3
 20
18.2
 42
0.414214
 10
-12.6
 20
15.5
 42
0.198912
 10
-9.842284
 20
16.642284
 10
-9.599643
 20
16.884924
 42
-0.198912
  0
INSERT
  5
169
100
AcDbEntity
  8
GLAS_MED_FOGNING
100
AcDbBlockReference
  2
SP40010
 10
0.0
 20
0.0
 30
0.0
  0
LWPOLYLINE
  5
16A
100
AcDbEntity
  8
GLAS_MED_FOGNING
100
AcDbPolyline
 90
        4
 70
     0
 43
0.0
 10
-20.0
 20
-23.2
 10
-20.0
 20
-25.0
 10
-45.0
 20
-25.0
 10
-45.0
 20
-23.2
  0
LWPOLYLINE
  5
16B
100
AcDbEntity
  8
GLAS_MED_FOGNING
100
AcDbPolyline
 90
        4
 70
     0
 43
0.0
 10
-20.0
 20
23.2
 10
-20.0
 20
25.0
 10
-45.0
 20
25.0
 10
-45.0
 20
23.2
  0
ENDBLK
  5
16D
100
AcDbEntity
  8
0
100
AcDbBlockEnd
  0
BLOCK
  5
1D3
100
AcDbEntity
  8
0
100
AcDbBlockBegin
  2
*X13
 70
     1
 10
0.0
 20
0.0
 30
0.0
  3
*X13
  1

  0
LINE
  5
1C1
100
AcDbEntity
  8
0
 62
     0
100
AcDbLine
 10
-59.163263
 20
41.509483
 30
0.0
 11
-59.163263
 21
41.509483
 31
0.0
  0
LINE
  5
1C2
100
AcDbEntity
  8
0
 62
     0
100
AcDbLine
 10
-56.584865
 20
43.487958
 30
0.0
 11
-56.584865
 21
43.487958
 31
0.0
  0
LINE
  5
1C3
100
AcDbEntity
  8
0
 62
     0
100
AcDbLine
 10
-58.785303
 20
29.948541
 30
0.0
 11
-58.785303
 21
29.948541
 31
0.0
  0
LINE
  5
1C4
100
AcDbEntity
  8
0
 62
     0
100
AcDbLine
 10
-58.659316
 20
26.094893
 30
0.0
 11
-58.659316
 21
26.094893
 31
0.0
  0
LINE
  5
1C5
100
AcDbEntity
  8
0
 62
     0
100
AcDbLine
 10
-56.080918
 20
28.073368
 30
0.0
 11
-56.080918
 21
28.073368
 31
0.0
  0
LINE
  5
1C6
100
AcDbEntity
  8
0
 62
     0
100
AcDbLine
 10
-57.165758
 20
44.256996
 30
0.0
 11
-57.165758
 21
44.256996
 31
0.0
  0
LINE
  5
1C7
100
AcDbEntity
  8
0
 62
     0
100
AcDbLine
 10
-56.124741
 20
44.394049
 30
0.0
 11
-56.124741
 21
44.394049
 31
0.0
  0
LINE
  5
1C8
100
AcDbEntity
  8
0
 62
     0
100
AcDbLine
 10
-61.359856
 20
28.169929
 30
0.0
 11
-61.359856
 21
28.169929
 31
0.0
  0
LINE
  5
1C9
100
AcDbEntity
  8
0
 62
     0
100
AcDbLine
 10
-59.733886
 20
28.383992
 30
0.0
 11
-59.733886
 21
28.383992
 31
0.0
  0
LINE
  5
1CA
100
AcDbEntity
  8
0
 62
     0
100
AcDbLine
 10
-57.017327
 20
28.741634
 30
0.0
 11
-57.017327
 21
28.741634
 31
0.0
  0
LINE
  5
1CB
100
AcDbEntity
  8
0
 62
     0
100
AcDbLine
 10
-55.97631
 20
28.878687
 30
0.0
 11
-55.97631
 21
28.878687
 31
0.0
  0
LINE
  5
1CC
100
AcDbEntity
  8
0
 62
     0
100
AcDbLine
 10
-56.715696
 20
42.523035
 30
0.0
 11
-56.715696
 21
42.523035
 31
0.0
  0
LINE
  5
1CD
100
AcDbEntity
  8
0
 62
     0
100
AcDbLine
 10
-55.749526
 20
29.97
 30
0.0
 11
-55.749526
 21
29.97
 31
0.0
  0
LINE
  5
1CE
100
AcDbEntity
  8
0
 62
     0
100
AcDbLine
 10
-61.134419
 20
29.421382
 30
0.0
 11
-61.134419
 21
29.421382
 31
0.0
  0
LINE
  5
1CF
100
AcDbEntity
  8
0
 62
     0
100
AcDbLine
 10
-58.098209
 20
27.487104
 30
0.0
 11
-58.098209
 21
27.487104
 31
0.0
  0
LINE
  5
1D0
100
AcDbEntity
  8
0
 62
     0
100
AcDbLine
 10
-57.663397
 20
43.320028
 30
0.0
 11
-57.663397
 21
43.320028
 31
0.0
  0
LINE
  5
1D1
100
AcDbEntity
  8
0
 62
     0
100
AcDbLine
 10
-57.294758
 20
42.982232
 30
0.0
 11
-57.294758
 21
42.982232
 31
0.0
  0
LINE
  5
1D2
100
AcDbEntity
  8
0
 62
     0
100
AcDbLine
 10
-55.554784
 20
41.38784
 30
0.0
 11
-55.554784
 21
41.38784
 31
0.0
  0
ENDBLK
  5
1D4
100
AcDbEntity
  8
0
100
AcDbBlockEnd
  0
BLOCK
  5
192
100
AcDbEntity
  8
0
100
AcDbBlockBegin
  2
*X14
 70
     1
 10
0.0
 20
0.0
 30
0.0
  3
*X14
  1

  0
LINE
  5
180
100
AcDbEntity
  8
0
 62
     0
100
AcDbLine
 10
-38.293936
 20
41.721799
 30
0.0
 11
-38.293936
 21
41.721799
 31
0.0
  0
LINE
  5
181
100
AcDbEntity
  8
0
 62
     0
100
AcDbLine
 10
-37.915976
 20
30.160857
 30
0.0
 11
-37.915976
 21
30.160857
 31
0.0
  0
LINE
  5
182
100
AcDbEntity
  8
0
 62
     0
100
AcDbLine
 10
-37.789989
 20
26.307209
 30
0.0
 11
-37.789989
 21
26.307209
 31
0.0
  0
LINE
  5
183
100
AcDbEntity
  8
0
 62
     0
100
AcDbLine
 10
-35.092588
 20
28.376998
 30
0.0
 11
-35.092588
 21
28.376998
 31
0.0
  0
LINE
  5
184
100
AcDbEntity
  8
0
 62
     0
100
AcDbLine
 10
-39.171129
 20
41.447733
 30
0.0
 11
-39.171129
 21
41.447733
 31
0.0
  0
LINE
  5
185
100
AcDbEntity
  8
0
 62
     0
100
AcDbLine
 10
-38.130112
 20
41.584785
 30
0.0
 11
-38.130112
 21
41.584785
 31
0.0
  0
LINE
  5
186
100
AcDbEntity
  8
0
 62
     0
100
AcDbLine
 10
-36.504142
 20
41.798848
 30
0.0
 11
-36.504142
 21
41.798848
 31
0.0
  0
LINE
  5
187
100
AcDbEntity
  8
0
 62
     0
100
AcDbLine
 10
-39.974104
 20
46.52032
 30
0.0
 11
-39.974104
 21
46.52032
 31
0.0
  0
LINE
  5
188
100
AcDbEntity
  8
0
 62
     0
100
AcDbLine
 10
-39.022698
 20
25.932371
 30
0.0
 11
-39.022698
 21
25.932371
 31
0.0
  0
LINE
  5
189
100
AcDbEntity
  8
0
 62
     0
100
AcDbLine
 10
-37.981681
 20
26.069423
 30
0.0
 11
-37.981681
 21
26.069423
 31
0.0
  0
LINE
  5
18A
100
AcDbEntity
  8
0
 62
     0
100
AcDbLine
 10
-36.355712
 20
26.283486
 30
0.0
 11
-36.355712
 21
26.283486
 31
0.0
  0
LINE
  5
18B
100
AcDbEntity
  8
0
 62
     0
100
AcDbLine
 10
-38.030845
 20
42.55699
 30
0.0
 11
-38.030845
 21
42.55699
 31
0.0
  0
LINE
  5
18C
100
AcDbEntity
  8
0
 62
     0
100
AcDbLine
 10
-37.064675
 20
30.003954
 30
0.0
 11
-37.064675
 21
30.003954
 31
0.0
  0
LINE
  5
18D
100
AcDbEntity
  8
0
 62
     0
100
AcDbLine
 10
-36.221284
 20
29.466655
 30
0.0
 11
-36.221284
 21
29.466655
 31
0.0
  0
LINE
  5
18E
100
AcDbEntity
  8
0
 62
     0
100
AcDbLine
 10
-39.413358
 20
27.521058
 30
0.0
 11
-39.413358
 21
27.521058
 31
0.0
  0
LINE
  5
18F
100
AcDbEntity
  8
0
 62
     0
100
AcDbLine
 10
-35.254096
 20
30.050252
 30
0.0
 11
-35.254096
 21
30.050252
 31
0.0
  0
LINE
  5
190
100
AcDbEntity
  8
0
 62
     0
100
AcDbLine
 10
-39.431016
 20
41.14226
 30
0.0
 11
-39.431016
 21
41.14226
 31
0.0
  0
LINE
  5
191
100
AcDbEntity
  8
0
 62
     0
100
AcDbLine
 10
-39.157736
 20
26.362713
 30
0.0
 11
-39.157736
 21
26.362713
 31
0.0
  0
ENDBLK
  5
193
100
AcDbEntity
  8
0
100
AcDbBlockEnd
  0
BLOCK
  5
1A0
100
AcDbEntity
  8
0
100
AcDbBlockBegin
  2
GLASH5
 70
     0
 10
0.0
 20
0.0
 30
0.0
  3
GLASH5
  1

  0
LINE
  5
17D
100
AcDbEntity
  8
GLAS_MED_FOGNING
100
AcDbLine
 10
-25.0
 20
49.0
 30
0.0
 11
-25.0
 21
30.0
 31
0.0
  0
INSERT
  5
17E
100
AcDbEntity
  8
GLAS_MED_FOGNING
100
AcDbBlockReference
  2
*X14
 10
15.0
 20
0.0
 30
0.0
1001
ACAD
1000
HATCH
1002
{
1070
    16
1000
AR-SAND
1040
2.0
1040
0.0
1002
}
  0
LINE
  5
194
100
AcDbEntity
  8
GLAS_MED_FOGNING
100
AcDbLine
 10
-20.0
 20
31.0
 30
0.0
 11
-25.0
 21
31.0
 31
0.0
  0
LINE
  5
195
100
AcDbEntity
  8
GLAS_MED_FOGNING
100
AcDbLine
 10
-20.0
 20
32.0
 30
0.0
 11
-25.0
 21
32.0
 31
0.0
  0
ARC
  5
196
100
AcDbEntity
  8
GLAS_MED_FOGNING
100
AcDbCircle
 10
-20.0
 20
48.0
 30
0.0
 40
5.0
100
AcDbArc
 50
180.0
 51
270.0
  0
LINE
  5
197
100
AcDbEntity
  8
GLAS_MED_FOGNING
100
AcDbLine
 10
-20.0
 20
41.0
 30
0.0
 11
-25.0
 21
41.0
 31
0.0
  0
LINE
  5
198
100
AcDbEntity
  8
GLAS_MED_FOGNING
100
AcDbLine
 10
-20.0
 20
40.0
 30
0.0
 11
-25.0
 21
40.0
 31
0.0
  0
LINE
  5
199
100
AcDbEntity
  8
GLAS_MED_FOGNING
100
AcDbLine
 10
-20.0
 20
39.0
 30
0.0
 11
-25.0
 21
39.0
 31
0.0
  0
LINE
  5
19A
100
AcDbEntity
  8
GLAS_MED_FOGNING
100
AcDbLine
 10
-20.0
 20
38.0
 30
0.0
 11
-25.0
 21
38.0
 31
0.0
  0
LINE
  5
19B
100
AcDbEntity
  8
GLAS_MED_FOGNING
100
AcDbLine
 10
-20.0
 20
37.0
 30
0.0
 11
-25.0
 21
37.0
 31
0.0
  0
LINE
  5
19C
100
AcDbEntity
  8
GLAS_MED_FOGNING
100
AcDbLine
 10
-20.0
 20
36.0
 30
0.0
 11
-25.0
 21
36.0
 31
0.0
  0
LINE
  5
19D
100
AcDbEntity
  8
GLAS_MED_FOGNING
100
AcDbLine
 10
-20.0
 20
35.0
 30
0.0
 11
-25.0
 21
35.0
 31
0.0
  0
LINE
  5
19E
100
AcDbEntity
  8
GLAS_MED_FOGNING
100
AcDbLine
 10
-20.0
 20
34.0
 30
0.0
 11
-25.0
 21
34.0
 31
0.0
  0
LINE
  5
19F
100
AcDbEntity
  8
GLAS_MED_FOGNING
100
AcDbLine
 10
-20.0
 20
33.0
 30
0.0
 11
-25.0
 21
33.0
 31
0.0
  0
ENDBLK
  5
1A1
100
AcDbEntity
  8
0
100
AcDbBlockEnd
  0
BLOCK
  5
1E2
100
AcDbEntity
  8
0
100
AcDbBlockBegin
  2
GLASV6_18
 70
     0
 10
0.0
 20
0.0
 30
0.0
  3
GLASV6_18
  1

  0
INSERT
  5
1BF
100
AcDbEntity
  8
GLAS_MED_FOGNING
100
AcDbBlockReference
  2
*X13
 10
65.0
 20
0.0
 30
0.0
1001
ACAD
1000
HATCH
1002
{
1070
    16
1000
AR-SAND
1040
2.0
1040
0.0
1002
}
  0
LINE
  5
1D5
100
AcDbEntity
  8
GLAS_MED_FOGNING
100
AcDbLine
 10
9.6
 20
49.0
 30
0.0
 11
9.6
 21
30.0
 31
0.0
  0
LINE
  5
1D6
100
AcDbEntity
  8
GLAS_MED_FOGNING
100
AcDbLine
 10
9.6
 20
32.0
 30
0.0
 11
3.6
 21
32.0
 31
0.0
  0
LINE
  5
1D7
100
AcDbEntity
  8
GLAS_MED_FOGNING
100
AcDbLine
 10
9.6
 20
31.0
 30
0.0
 11
3.6
 21
31.0
 31
0.0
  0
ARC
  5
1D8
100
AcDbEntity
  8
GLAS_MED_FOGNING
100
AcDbCircle
 10
3.6
 20
49.0
 30
0.0
 40
6.0
100
AcDbArc
 50
270.0
 51
0.0
  0
LINE
  5
1D9
100
AcDbEntity
  8
GLAS_MED_FOGNING
100
AcDbLine
 10
9.6
 20
39.0
 30
0.0
 11
3.6
 21
39.0
 31
0.0
  0
LINE
  5
1DA
100
AcDbEntity
  8
GLAS_MED_FOGNING
100
AcDbLine
 10
9.6
 20
40.0
 30
0.0
 11
3.6
 21
40.0
 31
0.0
  0
LINE
  5
1DB
100
AcDbEntity
  8
GLAS_MED_FOGNING
100
AcDbLine
 10
9.6
 20
37.0
 30
0.0
 11
3.6
 21
37.0
 31
0.0
  0
LINE
  5
1DC
100
AcDbEntity
  8
GLAS_MED_FOGNING
100
AcDbLine
 10
9.6
 20
38.0
 30
0.0
 11
3.6
 21
38.0
 31
0.0
  0
LINE
  5
1DD
100
AcDbEntity
  8
GLAS_MED_FOGNING
100
AcDbLine
 10
9.6
 20
36.0
 30
0.0
 11
3.6
 21
36.0
 31
0.0
  0
LINE
  5
1DE
100
AcDbEntity
  8
GLAS_MED_FOGNING
100
AcDbLine
 10
9.6
 20
35.0
 30
0.0
 11
3.6
 21
35.0
 31
0.0
  0
LINE
  5
1DF
100
AcDbEntity
  8
GLAS_MED_FOGNING
100
AcDbLine
 10
9.6
 20
33.0
 30
0.0
 11
3.6
 21
33.0
 31
0.0
  0
LINE
  5
1E0
100
AcDbEntity
  8
GLAS_MED_FOGNING
100
AcDbLine
 10
9.6
 20
34.0
 30
0.0
 11
3.6
 21
34.0
 31
0.0
  0
LINE
  5
1E1
100
AcDbEntity
  8
GLAS_MED_FOGNING
100
AcDbLine
 10
9.6
 20
41.0
 30
0.0
 11
3.6
 21
41.0
 31
0.0
  0
ENDBLK
  5
1E3
100
AcDbEntity
  8
0
100
AcDbBlockEnd
  0
BLOCK
  5
229
100
AcDbEntity
  8
0
100
AcDbBlockBegin
  2
*X17
 70
     1
 10
0.0
 20
0.0
 30
0.0
  3
*X17
  1

  0
LINE
  5
1FC
100
AcDbEntity
  8
0
 62
     0
100
AcDbLine
 10
-42.906168
 20
26.331747
 30
0.0
 11
-42.906168
 21
26.331747
 31
0.0
  0
LINE
  5
1FD
100
AcDbEntity
  8
0
 62
     0
100
AcDbLine
 10
-40.32777
 20
28.310222
 30
0.0
 11
-40.32777
 21
28.310222
 31
0.0
  0
LINE
  5
1FE
100
AcDbEntity
  8
0
 62
     0
100
AcDbLine
 10
-48.141351
 20
26.264971
 30
0.0
 11
-48.141351
 21
26.264971
 31
0.0
  0
LINE
  5
1FF
100
AcDbEntity
  8
0
 62
     0
100
AcDbLine
 10
-45.729557
 20
28.115606
 30
0.0
 11
-45.729557
 21
28.115606
 31
0.0
  0
LINE
  5
200
100
AcDbEntity
  8
0
 62
     0
100
AcDbLine
 10
-53.543137
 20
26.070355
 30
0.0
 11
-53.543137
 21
26.070355
 31
0.0
  0
LINE
  5
201
100
AcDbEntity
  8
0
 62
     0
100
AcDbLine
 10
-50.845736
 20
28.140144
 30
0.0
 11
-50.845736
 21
28.140144
 31
0.0
  0
LINE
  5
202
100
AcDbEntity
  8
0
 62
     0
100
AcDbLine
 10
-53.669124
 20
29.924003
 30
0.0
 11
-53.669124
 21
29.924003
 31
0.0
  0
LINE
  5
203
100
AcDbEntity
  8
0
 62
     0
100
AcDbLine
 10
-37.789989
 20
26.307209
 30
0.0
 11
-37.789989
 21
26.307209
 31
0.0
  0
LINE
  5
204
100
AcDbEntity
  8
0
 62
     0
100
AcDbLine
 10
-35.092588
 20
28.376998
 30
0.0
 11
-35.092588
 21
28.376998
 31
0.0
  0
LINE
  5
205
100
AcDbEntity
  8
0
 62
     0
100
AcDbLine
 10
-32.388203
 20
26.501825
 30
0.0
 11
-32.388203
 21
26.501825
 31
0.0
  0
LINE
  5
206
100
AcDbEntity
  8
0
 62
     0
100
AcDbLine
 10
-44.406244
 20
25.223614
 30
0.0
 11
-44.406244
 21
25.223614
 31
0.0
  0
LINE
  5
207
100
AcDbEntity
  8
0
 62
     0
100
AcDbLine
 10
-43.365227
 20
25.360666
 30
0.0
 11
-43.365227
 21
25.360666
 31
0.0
  0
LINE
  5
208
100
AcDbEntity
  8
0
 62
     0
100
AcDbLine
 10
-41.739257
 20
25.574729
 30
0.0
 11
-41.739257
 21
25.574729
 31
0.0
  0
LINE
  5
209
100
AcDbEntity
  8
0
 62
     0
100
AcDbLine
 10
-39.022698
 20
25.932371
 30
0.0
 11
-39.022698
 21
25.932371
 31
0.0
  0
LINE
  5
20A
100
AcDbEntity
  8
0
 62
     0
100
AcDbLine
 10
-37.981681
 20
26.069423
 30
0.0
 11
-37.981681
 21
26.069423
 31
0.0
  0
LINE
  5
20B
100
AcDbEntity
  8
0
 62
     0
100
AcDbLine
 10
-36.355712
 20
26.283486
 30
0.0
 11
-36.355712
 21
26.283486
 31
0.0
  0
LINE
  5
20C
100
AcDbEntity
  8
0
 62
     0
100
AcDbLine
 10
-33.639153
 20
26.641128
 30
0.0
 11
-33.639153
 21
26.641128
 31
0.0
  0
LINE
  5
20D
100
AcDbEntity
  8
0
 62
     0
100
AcDbLine
 10
-32.598136
 20
26.778181
 30
0.0
 11
-32.598136
 21
26.778181
 31
0.0
  0
LINE
  5
20E
100
AcDbEntity
  8
0
 62
     0
100
AcDbLine
 10
-30.972166
 20
26.992244
 30
0.0
 11
-30.972166
 21
26.992244
 31
0.0
  0
LINE
  5
20F
100
AcDbEntity
  8
0
 62
     0
100
AcDbLine
 10
-54.350341
 20
29.09275
 30
0.0
 11
-54.350341
 21
29.09275
 31
0.0
  0
LINE
  5
210
100
AcDbEntity
  8
0
 62
     0
100
AcDbLine
 10
-51.633782
 20
29.450391
 30
0.0
 11
-51.633782
 21
29.450391
 31
0.0
  0
LINE
  5
211
100
AcDbEntity
  8
0
 62
     0
100
AcDbLine
 10
-50.592764
 20
29.587444
 30
0.0
 11
-50.592764
 21
29.587444
 31
0.0
  0
LINE
  5
212
100
AcDbEntity
  8
0
 62
     0
100
AcDbLine
 10
-48.966795
 20
29.801507
 30
0.0
 11
-48.966795
 21
29.801507
 31
0.0
  0
LINE
  5
213
100
AcDbEntity
  8
0
 62
     0
100
AcDbLine
 10
-49.521243
 20
29.981318
 30
0.0
 11
-49.521243
 21
29.981318
 31
0.0
  0
LINE
  5
214
100
AcDbEntity
  8
0
 62
     0
100
AcDbLine
 10
-48.677851
 20
29.444019
 30
0.0
 11
-48.677851
 21
29.444019
 31
0.0
  0
LINE
  5
215
100
AcDbEntity
  8
0
 62
     0
100
AcDbLine
 10
-45.641642
 20
27.50974
 30
0.0
 11
-45.641642
 21
27.50974
 31
0.0
  0
LINE
  5
216
100
AcDbEntity
  8
0
 62
     0
100
AcDbLine
 10
-43.292959
 20
29.992636
 30
0.0
 11
-43.292959
 21
29.992636
 31
0.0
  0
LINE
  5
217
100
AcDbEntity
  8
0
 62
     0
100
AcDbLine
 10
-42.449568
 20
29.455337
 30
0.0
 11
-42.449568
 21
29.455337
 31
0.0
  0
LINE
  5
218
100
AcDbEntity
  8
0
 62
     0
100
AcDbLine
 10
-39.413358
 20
27.521058
 30
0.0
 11
-39.413358
 21
27.521058
 31
0.0
  0
LINE
  5
219
100
AcDbEntity
  8
0
 62
     0
100
AcDbLine
 10
-36.221284
 20
29.466655
 30
0.0
 11
-36.221284
 21
29.466655
 31
0.0
  0
LINE
  5
21A
100
AcDbEntity
  8
0
 62
     0
100
AcDbLine
 10
-33.185075
 20
27.532376
 30
0.0
 11
-33.185075
 21
27.532376
 31
0.0
  0
LINE
  5
21B
100
AcDbEntity
  8
0
 62
     0
100
AcDbLine
 10
-54.906135
 20
29.4327
 30
0.0
 11
-54.906135
 21
29.4327
 31
0.0
  0
LINE
  5
21C
100
AcDbEntity
  8
0
 62
     0
100
AcDbLine
 10
-51.869926
 20
27.498422
 30
0.0
 11
-51.869926
 21
27.498422
 31
0.0
  0
LINE
  5
21D
100
AcDbEntity
  8
0
 62
     0
100
AcDbLine
 10
-41.266349
 20
28.294901
 30
0.0
 11
-41.266349
 21
28.294901
 31
0.0
  0
LINE
  5
21E
100
AcDbEntity
  8
0
 62
     0
100
AcDbLine
 10
-40.89771
 20
27.957106
 30
0.0
 11
-40.89771
 21
27.957106
 31
0.0
  0
LINE
  5
21F
100
AcDbEntity
  8
0
 62
     0
100
AcDbLine
 10
-39.157736
 20
26.362713
 30
0.0
 11
-39.157736
 21
26.362713
 31
0.0
  0
LINE
  5
220
100
AcDbEntity
  8
0
 62
     0
100
AcDbLine
 10
-34.885457
 20
29.712457
 30
0.0
 11
-34.885457
 21
29.712457
 31
0.0
  0
LINE
  5
221
100
AcDbEntity
  8
0
 62
     0
100
AcDbLine
 10
-33.145483
 20
28.118064
 30
0.0
 11
-33.145483
 21
28.118064
 31
0.0
  0
LINE
  5
222
100
AcDbEntity
  8
0
 62
     0
100
AcDbLine
 10
-31.154834
 20
26.293971
 30
0.0
 11
-31.154834
 21
26.293971
 31
0.0
  0
LINE
  5
223
100
AcDbEntity
  8
0
 62
     0
100
AcDbLine
 10
-30.786195
 20
25.956176
 30
0.0
 11
-30.786195
 21
25.956176
 31
0.0
  0
LINE
  5
224
100
AcDbEntity
  8
0
 62
     0
100
AcDbLine
 10
-51.009226
 20
29.958037
 30
0.0
 11
-51.009226
 21
29.958037
 31
0.0
  0
LINE
  5
225
100
AcDbEntity
  8
0
 62
     0
100
AcDbLine
 10
-49.269251
 20
28.363644
 30
0.0
 11
-49.269251
 21
28.363644
 31
0.0
  0
LINE
  5
226
100
AcDbEntity
  8
0
 62
     0
100
AcDbLine
 10
-47.278602
 20
26.53955
 30
0.0
 11
-47.278602
 21
26.53955
 31
0.0
  0
LINE
  5
227
100
AcDbEntity
  8
0
 62
     0
100
AcDbLine
 10
-46.909964
 20
26.201755
 30
0.0
 11
-46.909964
 21
26.201755
 31
0.0
  0
LINE
  5
228
100
AcDbEntity
  8
0
 62
     0
100
AcDbLine
 10
-55.281504
 20
26.608293
 30
0.0
 11
-55.281504
 21
26.608293
 31
0.0
  0
ENDBLK
  5
22A
100
AcDbEntity
  8
0
100
AcDbBlockEnd
  0
BLOCK
  5
15A
100
AcDbEntity
  8
0
100
AcDbBlockBegin
  2
*D18
 70
     1
 10
0.0
 20
0.0
 30
0.0
  3
*D18
  1

  0
LINE
  5
151
100
AcDbEntity
  8
0
  6
BYBLOCK
 62
     0
100
AcDbLine
 10
-1920.0
 20
1351.0
 30
0.0
 11
-1920.0
 21
1382.0
 31
0.0
  0
LINE
  5
152
100
AcDbEntity
  8
0
  6
BYBLOCK
 62
     0
100
AcDbLine
 10
-1855.0
 20
1351.0
 30
0.0
 11
-1855.0
 21
1382.0
 31
0.0
  0
LINE
  5
153
100
AcDbEntity
  8
0
  6
BYBLOCK
 62
     0
100
AcDbLine
 10
-1918.0
 20
1380.0
 30
0.0
 11
-1857.0
 21
1380.0
 31
0.0
  0
SOLID
  5
154
100
AcDbEntity
  8
0
  6
BYBLOCK
 62
     0
100
AcDbTrace
 10
-1918.0
 20
1380.333333
 30
0.0
 11
-1918.0
 21
1379.666667
 31
0.0
 12
-1920.0
 22
1380.0
 32
0.0
 13
-1920.0
 23
1380.0
 33
0.0
  0
SOLID
  5
155
100
AcDbEntity
  8
0
  6
BYBLOCK
 62
     0
100
AcDbTrace
 10
-1857.0
 20
1380.333333
 30
0.0
 11
-1857.0
 21
1379.666667
 31
0.0
 12
-1855.0
 22
1380.0
 32
0.0
 13
-1855.0
 23
1380.0
 33
0.0
  0
MTEXT
  5
156
100
AcDbEntity
  8
0
  6
BYBLOCK
 62
     6
100
AcDbMText
 10
-1887.5
 20
1385.0
 30
0.0
 40
7.0
 41
0.0
 71
     5
 72
     1
  1
\A1;65
  7
ROMANT
1001
ACAD
1000
MTEXTBEGIN
1070
    73
1070
     1
1070
    44
1040
1.0
1070
    74
1070
     0
1000
MTEXTEND
  0
POINT
  5
157
100
AcDbEntity
  8
DEFPOINTS
  6
BYBLOCK
 62
     0
100
AcDbPoint
 10
-1920.0
 20
1350.0
 30
0.0
  0
POINT
  5
158
100
AcDbEntity
  8
DEFPOINTS
  6
BYBLOCK
 62
     0
100
AcDbPoint
 10
-1855.0
 20
1350.0
 30
0.0
  0
POINT
  5
159
100
AcDbEntity
  8
DEFPOINTS
  6
BYBLOCK
 62
     0
100
AcDbPoint
 10
-1855.0
 20
1380.0
 30
0.0
  0
ENDBLK
  5
15B
100
AcDbEntity
  8
0
100
AcDbBlockEnd
  0
BLOCK
  5
238
100
AcDbEntity
  8
0
100
AcDbBlockBegin
  2
*D19
 70
     1
 10
0.0
 20
0.0
 30
0.0
  3
*D19
  1

  0
LINE
  5
22F
100
AcDbEntity
  8
0
  6
BYBLOCK
 62
     0
100
AcDbLine
 10
-1805.0
 20
1451.0
 30
0.0
 11
-1805.0
 21
1467.0
 31
0.0
  0
LINE
  5
230
100
AcDbEntity
  8
0
  6
BYBLOCK
 62
     0
100
AcDbLine
 10
-1875.0
 20
1451.0
 30
0.0
 11
-1875.0
 21
1467.0
 31
0.0
  0
LINE
  5
231
100
AcDbEntity
  8
0
  6
BYBLOCK
 62
     0
100
AcDbLine
 10
-1807.0
 20
1465.0
 30
0.0
 11
-1873.0
 21
1465.0
 31
0.0
  0
SOLID
  5
232
100
AcDbEntity
  8
0
  6
BYBLOCK
 62
     0
100
AcDbTrace
 10
-1807.0
 20
1465.333333
 30
0.0
 11
-1807.0
 21
1464.666667
 31
0.0
 12
-1805.0
 22
1465.0
 32
0.0
 13
-1805.0
 23
1465.0
 33
0.0
  0
SOLID
  5
233
100
AcDbEntity
  8
0
  6
BYBLOCK
 62
     0
100
AcDbTrace
 10
-1873.0
 20
1465.333333
 30
0.0
 11
-1873.0
 21
1464.666667
 31
0.0
 12
-1875.0
 22
1465.0
 32
0.0
 13
-1875.0
 23
1465.0
 33
0.0
  0
MTEXT
  5
234
100
AcDbEntity
  8
0
  6
BYBLOCK
 62
     6
100
AcDbMText
 10
-1840.0
 20
1470.0
 30
0.0
 40
7.0
 41
0.0
 71
     5
 72
     1
  1
\A1;70
  7
ROMANT
1001
ACAD
1000
MTEXTBEGIN
1070
    73
1070
     1
1070
    44
1040
1.0
1070
    74
1070
     0
1000
MTEXTEND
  0
POINT
  5
235
100
AcDbEntity
  8
DEFPOINTS
  6
BYBLOCK
 62
     0
100
AcDbPoint
 10
-1805.0
 20
1450.0
 30
0.0
  0
POINT
  5
236
100
AcDbEntity
  8
DEFPOINTS
  6
BYBLOCK
 62
     0
100
AcDbPoint
 10
-1875.0
 20
1450.0
 30
0.0
  0
POINT
  5
237
100
AcDbEntity
  8
DEFPOINTS
  6
BYBLOCK
 62
     0
100
AcDbPoint
 10
-1875.0
 20
1465.0
 30
0.0
  0
ENDBLK
  5
239
100
AcDbEntity
  8
0
100
AcDbBlockEnd
  0
BLOCK
  5
14A
100
AcDbEntity
  8
0
100
AcDbBlockBegin
  2
*D20
 70
     1
 10
0.0
 20
0.0
 30
0.0
  3
*D20
  1

  0
LINE
  5
141
100
AcDbEntity
  8
0
  6
BYBLOCK
 62
     0
100
AcDbLine
 10
-2095.0
 20
1451.0
 30
0.0
 11
-2095.0
 21
1467.0
 31
0.0
  0
LINE
  5
142
100
AcDbEntity
  8
0
  6
BYBLOCK
 62
     0
100
AcDbLine
 10
-2115.0
 20
1451.0
 30
0.0
 11
-2115.0
 21
1467.0
 31
0.0
  0
LINE
  5
143
100
AcDbEntity
  8
0
  6
BYBLOCK
 62
     0
100
AcDbLine
 10
-2097.0
 20
1465.0
 30
0.0
 11
-2113.0
 21
1465.0
 31
0.0
  0
SOLID
  5
144
100
AcDbEntity
  8
0
  6
BYBLOCK
 62
     0
100
AcDbTrace
 10
-2097.0
 20
1465.333333
 30
0.0
 11
-2097.0
 21
1464.666667
 31
0.0
 12
-2095.0
 22
1465.0
 32
0.0
 13
-2095.0
 23
1465.0
 33
0.0
  0
SOLID
  5
145
100
AcDbEntity
  8
0
  6
BYBLOCK
 62
     0
100
AcDbTrace
 10
-2113.0
 20
1465.333333
 30
0.0
 11
-2113.0
 21
1464.666667
 31
0.0
 12
-2115.0
 22
1465.0
 32
0.0
 13
-2115.0
 23
1465.0
 33
0.0
  0
MTEXT
  5
146
100
AcDbEntity
  8
0
  6
BYBLOCK
 62
     6
100
AcDbMText
 10
-2105.0
 20
1470.0
 30
0.0
 40
7.0
 41
0.0
 71
     5
 72
     1
  1
\A1;20
  7
ROMANT
1001
ACAD
1000
MTEXTBEGIN
1070
    73
1070
     1
1070
    44
1040
1.0
1070
    74
1070
     0
1000
MTEXTEND
  0
POINT
  5
147
100
AcDbEntity
  8
DEFPOINTS
  6
BYBLOCK
 62
     0
100
AcDbPoint
 10
-2095.0
 20
1450.0
 30
0.0
  0
POINT
  5
148
100
AcDbEntity
  8
DEFPOINTS
  6
BYBLOCK
 62
     0
100
AcDbPoint
 10
-2115.0
 20
1450.0
 30
0.0
  0
POINT
  5
149
100
AcDbEntity
  8
DEFPOINTS
  6
BYBLOCK
 62
     0
100
AcDbPoint
 10
-2115.0
 20
1465.0
 30
0.0
  0
ENDBLK
  5
14B
100
AcDbEntity
  8
0
100
AcDbBlockEnd
  0
BLOCK
  5
13D
100
AcDbEntity
  8
0
100
AcDbBlockBegin
  2
*D21
 70
     1
 10
0.0
 20
0.0
 30
0.0
  3
*D21
  1

  0
LINE
  5
134
100
AcDbEntity
  8
0
  6
BYBLOCK
 62
     0
100
AcDbLine
 10
-2165.0
 20
1451.0
 30
0.0
 11
-2165.0
 21
1467.0
 31
0.0
  0
LINE
  5
135
100
AcDbEntity
  8
0
  6
BYBLOCK
 62
     0
100
AcDbLine
 10
-2115.0
 20
1451.0
 30
0.0
 11
-2115.0
 21
1467.0
 31
0.0
  0
LINE
  5
136
100
AcDbEntity
  8
0
  6
BYBLOCK
 62
     0
100
AcDbLine
 10
-2163.0
 20
1465.0
 30
0.0
 11
-2117.0
 21
1465.0
 31
0.0
  0
SOLID
  5
137
100
AcDbEntity
  8
0
  6
BYBLOCK
 62
     0
100
AcDbTrace
 10
-2163.0
 20
1465.333333
 30
0.0
 11
-2163.0
 21
1464.666667
 31
0.0
 12
-2165.0
 22
1465.0
 32
0.0
 13
-2165.0
 23
1465.0
 33
0.0
  0
SOLID
  5
138
100
AcDbEntity
  8
0
  6
BYBLOCK
 62
     0
100
AcDbTrace
 10
-2117.0
 20
1465.333333
 30
0.0
 11
-2117.0
 21
1464.666667
 31
0.0
 12
-2115.0
 22
1465.0
 32
0.0
 13
-2115.0
 23
1465.0
 33
0.0
  0
MTEXT
  5
139
100
AcDbEntity
  8
0
  6
BYBLOCK
 62
     6
100
AcDbMText
 10
-2140.0
 20
1470.0
 30
0.0
 40
7.0
 41
0.0
 71
     5
 72
     1
  1
\A1;50
  7
ROMANT
1001
ACAD
1000
MTEXTBEGIN
1070
    73
1070
     1
1070
    44
1040
1.0
1070
    74
1070
     0
1000
MTEXTEND
  0
POINT
  5
13A
100
AcDbEntity
  8
DEFPOINTS
  6
BYBLOCK
 62
     0
100
AcDbPoint
 10
-2165.0
 20
1450.0
 30
0.0
  0
POINT
  5
13B
100
AcDbEntity
  8
DEFPOINTS
  6
BYBLOCK
 62
     0
100
AcDbPoint
 10
-2115.0
 20
1450.0
 30
0.0
  0
POINT
  5
13C
100
AcDbEntity
  8
DEFPOINTS
  6
BYBLOCK
 62
     0
100
AcDbPoint
 10
-2115.0
 20
1465.0
 30
0.0
  0
ENDBLK
  5
13E
100
AcDbEntity
  8
0
100
AcDbBlockEnd
  0
BLOCK
  5
25A
100
AcDbEntity
  8
0
100
AcDbBlockBegin
  2
*D22
 70
     1
 10
0.0
 20
0.0
 30
0.0
  3
*D22
  1

  0
LINE
  5
25C
100
AcDbEntity
  8
RAM
 62
     0
100
AcDbLine
 10
-2165.0
 20
1451.0
 30
0.0
 11
-2165.0
 21
1497.0
 31
0.0
1001
ACAD
1000
RTLwPs
1070
   158
  0
LINE
  5
25D
100
AcDbEntity
  8
RAM
 62
     0
100
AcDbLine
 10
-1805.0
 20
1451.0
 30
0.0
 11
-1805.0
 21
1497.0
 31
0.0
1001
ACAD
1000
RTLwPs
1070
   158
  0
LINE
  5
25E
100
AcDbEntity
  8
RAM
 62
     0
100
AcDbLine
 10
-2163.0
 20
1495.0
 30
0.0
 11
-1807.0
 21
1495.0
 31
0.0
1001
ACAD
1000
RTLwPs
1070
   158
  0
SOLID
  5
25F
100
AcDbEntity
  8
RAM
 62
     0
100
AcDbTrace
 10
-2163.0
 20
1495.333333
 30
0.0
 11
-2163.0
 21
1494.666667
 31
0.0
 12
-2165.0
 22
1495.0
 32
0.0
 13
-2165.0
 23
1495.0
 33
0.0
  0
SOLID
  5
260
100
AcDbEntity
  8
RAM
 62
     0
100
AcDbTrace
 10
-1807.0
 20
1495.333333
 30
0.0
 11
-1807.0
 21
1494.666667
 31
0.0
 12
-1805.0
 22
1495.0
 32
0.0
 13
-1805.0
 23
1495.0
 33
0.0
  0
MTEXT
  5
261
100
AcDbEntity
  8
RAM
 62
     6
100
AcDbMText
 10
-1985.0
 20
1500.0
 30
0.0
 40
7.0
 41
0.0
 71
     5
 72
     1
  1
\A1;OUTER FRAME MEASURE    1170
  7
ROMANT
1001
ACAD
1000
MTEXTBEGIN
1070
    73
1070
     1
1070
    44
1040
1.0
1070
    74
1070
     0
1000
MTEXTEND
  0
POINT
  5
262
100
AcDbEntity
  8
DEFPOINTS
 62
     0
100
AcDbPoint
 10
-2165.0
 20
1450.0
 30
0.0
  0
POINT
  5
263
100
AcDbEntity
  8
DEFPOINTS
 62
     0
100
AcDbPoint
 10
-1805.0
 20
1450.0
 30
0.0
  0
POINT
  5
264
100
AcDbEntity
  8
DEFPOINTS
 62
     0
100
AcDbPoint
 10
-1805.0
 20
1495.0
 30
0.0
  0
ENDBLK
  5
25B
100
AcDbEntity
  8
0
100
AcDbBlockEnd
  0
BLOCK
  5
26F
100
AcDbEntity
  8
0
100
AcDbBlockBegin
  2
*D23
 70
     1
 10
0.0
 20
0.0
 30
0.0
  3
*D23
  1

  0
LINE
  5
27D
100
AcDbEntity
  8
RAM
 62
     0
100
AcDbLine
 10
-2095.0
 20
1451.0
 30
0.0
 11
-2095.0
 21
1467.0
 31
0.0
1001
ACAD
1000
RTLwPs
1070
   158
  0
LINE
  5
27E
100
AcDbEntity
  8
RAM
 62
     0
100
AcDbLine
 10
-1875.0
 20
1451.0
 30
0.0
 11
-1875.0
 21
1467.0
 31
0.0
1001
ACAD
1000
RTLwPs
1070
   158
  0
LINE
  5
27F
100
AcDbEntity
  8
RAM
 62
     0
100
AcDbLine
 10
-2093.0
 20
1465.0
 30
0.0
 11
-1877.0
 21
1465.0
 31
0.0
1001
ACAD
1000
RTLwPs
1070
   158
  0
SOLID
  5
280
100
AcDbEntity
  8
RAM
 62
     0
100
AcDbTrace
 10
-2093.0
 20
1465.333333
 30
0.0
 11
-2093.0
 21
1464.666667
 31
0.0
 12
-2095.0
 22
1465.0
 32
0.0
 13
-2095.0
 23
1465.0
 33
0.0
  0
SOLID
  5
281
100
AcDbEntity
  8
RAM
 62
     0
100
AcDbTrace
 10
-1877.0
 20
1465.333333
 30
0.0
 11
-1877.0
 21
1464.666667
 31
0.0
 12
-1875.0
 22
1465.0
 32
0.0
 13
-1875.0
 23
1465.0
 33
0.0
  0
MTEXT
  5
282
100
AcDbEntity
  8
RAM
 62
     6
100
AcDbMText
 10
-1985.0
 20
1470.0
 30
0.0
 40
7.0
 41
0.0
 71
     5
 72
     1
  1
\A1;OPENING MEASURE AT 180%%D = 1030
  7
ROMANT
1001
ACAD
1000
MTEXTBEGIN
1070
    73
1070
     1
1070
    44
1040
1.0
1070
    74
1070
     0
1000
MTEXTEND
  0
POINT
  5
283
100
AcDbEntity
  8
DEFPOINTS
 62
     0
100
AcDbPoint
 10
-2095.0
 20
1450.0
 30
0.0
  0
POINT
  5
284
100
AcDbEntity
  8
DEFPOINTS
 62
     0
100
AcDbPoint
 10
-1875.0
 20
1450.0
 30
0.0
  0
POINT
  5
285
100
AcDbEntity
  8
DEFPOINTS
 62
     0
100
AcDbPoint
 10
-1875.0
 20
1465.0
 30
0.0
  0
ENDBLK
  5
270
100
AcDbEntity
  8
0
100
AcDbBlockEnd
  0
BLOCK
  5
27B
100
AcDbEntity
  8
0
100
AcDbBlockBegin
  2
*D24
 70
     1
 10
0.0
 20
0.0
 30
0.0
  3
*D24
  1

  0
LINE
  5
272
100
AcDbEntity
  8
RAM
 62
     0
100
AcDbLine
 10
-2095.0
 20
1444.0
 30
0.0
 11
-2095.0
 21
1388.0
 31
0.0
1001
ACAD
1000
RTLwPs
1070
   158
  0
LINE
  5
273
100
AcDbEntity
  8
RAM
 62
     0
100
AcDbLine
 10
-1920.0
 20
1336.0
 30
0.0
 11
-1920.0
 21
1392.0
 31
0.0
1001
ACAD
1000
RTLwPs
1070
   158
  0
LINE
  5
274
100
AcDbEntity
  8
RAM
 62
     0
100
AcDbLine
 10
-2093.0
 20
1390.0
 30
0.0
 11
-1922.0
 21
1390.0
 31
0.0
1001
ACAD
1000
RTLwPs
1070
   158
  0
SOLID
  5
275
100
AcDbEntity
  8
RAM
 62
     0
100
AcDbTrace
 10
-2093.0
 20
1390.333333
 30
0.0
 11
-2093.0
 21
1389.666667
 31
0.0
 12
-2095.0
 22
1390.0
 32
0.0
 13
-2095.0
 23
1390.0
 33
0.0
  0
SOLID
  5
276
100
AcDbEntity
  8
RAM
 62
     0
100
AcDbTrace
 10
-1922.0
 20
1390.333333
 30
0.0
 11
-1922.0
 21
1389.666667
 31
0.0
 12
-1920.0
 22
1390.0
 32
0.0
 13
-1920.0
 23
1390.0
 33
0.0
  0
MTEXT
  5
277
100
AcDbEntity
  8
RAM
 62
     6
100
AcDbMText
 10
-2007.5
 20
1395.0
 30
0.0
 40
7.0
 41
0.0
 71
     5
 72
     1
  1
\A1;OPENING MEASURE AT 90%%D = 985
  7
ROMANT
1001
ACAD
1000
MTEXTBEGIN
1070
    73
1070
     1
1070
    44
1040
1.0
1070
    74
1070
     0
1000
MTEXTEND
  0
POINT
  5
278
100
AcDbEntity
  8
DEFPOINTS
 62
     0
100
AcDbPoint
 10
-2095.0
 20
1445.0
 30
0.0
  0
POINT
  5
279
100
AcDbEntity
  8
DEFPOINTS
 62
     0
100
AcDbPoint
 10
-1920.0
 20
1335.0
 30
0.0
  0
POINT
  5
27A
100
AcDbEntity
  8
DEFPOINTS
 62
     0
100
AcDbPoint
 10
-1920.0
 20
1390.0
 30
0.0
  0
ENDBLK
  5
27C
100
AcDbEntity
  8
0
100
AcDbBlockEnd
  0
ENDSEC
  0
SECTION
  2
ENTITIES
  0
DIMENSION
  5
1F
100
AcDbEntity
  8
RAM
100
AcDbDimension
  2
*D24
 10
-1920.0
 20
1390.0
 30
0.0
 11
-2007.5
 21
1395.0
 31
0.0
 70
    32
  1
OPENING MEASURE AT 90%%D = 985
  3
ROMANS
100
AcDbAlignedDimension
 13
-2095.0
 23
1445.0
 33
0.0
 14
-1920.0
 24
1335.0
 34
0.0
100
AcDbRotatedDimension
1001
ACAD
1000
DSTYLE
1002
{
1070
   140
1040
7.0
1070
   142
1040
0.0
1070
    40
1040
1.0
1070
   147
1040
1.5
1070
    41
1040
2.0
1002
}
  0
DIMENSION
  5
2D
100
AcDbEntity
  8
RAM
100
AcDbDimension
  2
*D23
 10
-1875.0
 20
1465.0
 30
0.0
 11
-1985.0
 21
1470.0
 31
0.0
 70
    32
  1
OPENING MEASURE AT 180%%D = 1030
  3
ROMANS
100
AcDbAlignedDimension
 13
-2095.0
 23
1450.0
 33
0.0
 14
-1875.0
 24
1450.0
 34
0.0
100
AcDbRotatedDimension
1001
ACAD
1000
DSTYLE
1002
{
1070
   140
1040
7.0
1070
   142
1040
0.0
1070
    40
1040
1.0
1070
   147
1040
1.5
1070
    41
1040
2.0
1002
}
  0
LINE
  5
3A
100
AcDbEntity
  8
GLAS_MED_FOGNING
100
AcDbLine
 10
-1924.1
 20
1145.80703
 30
0.0
 11
-1933.809507
 21
1145.80703
 31
0.0
  0
LINE
  5
3C
100
AcDbEntity
  8
GLAS_MED_FOGNING
100
AcDbLine
 10
-1924.1
 20
1135.80703
 30
0.0
 11
-1939.1
 21
1135.80703
 31
0.0
  0
DIMENSION
  5
3D
100
AcDbEntity
  8
RAM
100
AcDbDimension
  2
*D22
 10
-1805.0
 20
1495.0
 30
0.0
 11
-1985.0
 21
1500.0
 31
0.0
 70
    32
  1
OUTER FRAME MEASURE    1170
  3
ROMANS
100
AcDbAlignedDimension
 13
-2165.0
 23
1450.0
 33
0.0
 14
-1805.0
 24
1450.0
 34
0.0
100
AcDbRotatedDimension
1001
ACAD
1000
DSTYLE
1002
{
1070
   140
1040
7.0
1070
   142
1040
0.0
1070
    40
1040
1.0
1070
   147
1040
1.5
1070
    41
1040
2.0
1002
}
  0
INSERT
  5
4A
100
AcDbEntity
  8
0
100
AcDbBlockReference
  2
65_INF-B10
 10
-2140.0
 20
1385.0
 30
0.0
 50
270.0
  0
LINE
  5
BC
100
AcDbEntity
  8
RAM
100
AcDbLine
 10
-1966.519739
 20
1120.552419
 30
0.0
 11
-2140.8311
 21
1120.552419
 31
0.0
  0
TEXT
  5
BD
100
AcDbEntity
  8
TEXT
100
AcDbText
 10
-2128.993301
 20
1125.722442
 30
0.0
 40
5.0
  1
MEASURE FOR HANDLE OR GRIP NOT INCLUDED
 41
0.8
  7
ROMANS
 72
     1
 11
-2055.183777
 21
1125.722442
 31
0.0
100
AcDbText
  0
LINE
  5
C0
100
AcDbEntity
  8
GLAS_MED_FOGNING
100
AcDbLine
 10
-1939.1
 20
1135.80703
 30
0.0
 11
-1948.298754
 21
1149.323341
 31
0.0
  0
LINE
  5
C1
100
AcDbEntity
  8
RAM
100
AcDbLine
 10
-1943.52352
 20
1142.616934
 30
0.0
 11
-1945.363215
 21
1134.80242
 31
0.0
  0
LINE
  5
C2
100
AcDbEntity
  8
RAM
100
AcDbLine
 10
-1943.52352
 20
1142.616934
 30
0.0
 11
-1966.519739
 21
1120.552419
 31
0.0
  0
LINE
  5
C3
100
AcDbEntity
  8
GLAS_MED_FOGNING
100
AcDbLine
 10
-1938.298754
 20
1152.403364
 30
0.0
 11
-1938.298754
 21
1193.737735
 31
0.0
  0
LINE
  5
C4
100
AcDbEntity
  8
GLAS_MED_FOGNING
100
AcDbLine
 10
-1948.298754
 20
1149.323341
 30
0.0
 11
-1948.298754
 21
1193.737735
 31
0.0
  0
ARC
  5
C5
100
AcDbEntity
  8
GLAS_MED_FOGNING
100
AcDbCircle
 10
-1943.298754
 20
1193.737735
 30
0.0
 40
5.0
100
AcDbArc
 50
0.0
 51
180.0
  0
LINE
  5
C6
100
AcDbEntity
  8
RAM
100
AcDbLine
 10
-1943.52352
 20
1142.616934
 30
0.0
 11
-1952.262082
 21
1140.318546
 31
0.0
  0
LINE
  5
C7
100
AcDbEntity
  8
GLAS_MED_FOGNING
100
AcDbLine
 10
-1933.809507
 20
1145.80703
 30
0.0
 11
-1938.298754
 21
1152.403364
 31
0.0
  0
INSERT
  5
C8
100
AcDbEntity
  8
0
100
AcDbBlockReference
  2
SP76511
 10
-2140.0
 20
1385.0
 30
0.0
 50
270.0
  0
DIMENSION
  5
132
100
AcDbEntity
  8
RAM
100
AcDbDimension
  2
*D21
 10
-2115.0
 20
1465.0
 30
0.0
 11
-2140.0
 21
1470.0
 31
0.0
  3
ROMANS
100
AcDbAlignedDimension
 13
-2165.0
 23
1450.0
 33
0.0
 14
-2115.0
 24
1450.0
 34
0.0
100
AcDbRotatedDimension
1001
ACAD
1000
DSTYLE
1002
{
1070
   140
1040
7.0
1070
   142
1040
0.0
1070
    40
1040
1.0
1070
   147
1040
1.5
1070
    41
1040
2.0
1002
}
  0
DIMENSION
  5
13F
100
AcDbEntity
  8
RAM
100
AcDbDimension
  2
*D20
 10
-2115.0
 20
1465.0
 30
0.0
 11
-2105.0
 21
1470.0
 31
0.0
  3
ROMANS
100
AcDbAlignedDimension
 13
-2095.0
 23
1450.0
 33
0.0
 14
-2115.0
 24
1450.0
 34
0.0
100
AcDbRotatedDimension
1001
ACAD
1000
DSTYLE
1002
{
1070
   140
1040
7.0
1070
   142
1040
0.0
1070
    40
1040
1.0
1070
   147
1040
1.5
1070
    41
1040
2.0
1002
}
  0
TEXT
  5
14C
100
AcDbEntity
  8
TEXT
100
AcDbText
 10
-2154.828571
 20
1438.0
 30
0.0
 40
5.0
  1
%%USP 76511
 41
0.8
  7
ROMANS
 72
     1
 11
-2140.0
 21
1438.0
 31
0.0
100
AcDbText
  0
POINT
  5
14D
100
AcDbEntity
  8
DEFPOINTS
  6
BYBLOCK
 62
     0
100
AcDbPoint
 10
-2095.0
 20
1450.0
 30
0.0
  0
ARC
  5
14E
100
AcDbEntity
  8
GLAS_MED_FOGNING
100
AcDbCircle
 10
-2130.475724
 20
1399.779119
 30
0.0
 40
0.2172
100
AcDbArc
 50
19.843166
 51
160.156834
  0
DIMENSION
  5
14F
100
AcDbEntity
  8
RAM
100
AcDbDimension
  2
*D18
 10
-1855.0
 20
1380.0
 30
0.0
 11
-1887.5
 21
1385.0
 31
0.0
  3
ROMANS
100
AcDbAlignedDimension
 13
-1920.0
 23
1350.0
 33
0.0
 14
-1855.0
 24
1350.0
 34
0.0
100
AcDbRotatedDimension
1001
ACAD
1000
DSTYLE
1002
{
1070
   140
1040
7.0
1070
   142
1040
0.0
1070
    40
1040
1.0
1070
   147
1040
1.5
1070
    41
1040
2.0
1002
}
  0
CIRCLE
  5
15C
100
AcDbEntity
  8
GLAS_MED_FOGNING
100
AcDbCircle
 10
-1840.552095
 20
1370.231486
 30
0.0
 40
3.5
  0
CIRCLE
  5
15D
100
AcDbEntity
  8
GLAS_MED_FOGNING
100
AcDbCircle
 10
-1840.552095
 20
1370.231486
 30
0.0
 40
7.5
  0
INSERT
  5
15E
100
AcDbEntity
  8
0
100
AcDbBlockReference
  2
65_INF-B10
 10
-1830.0
 20
1385.0
 30
0.0
 41
-1.0
 50
90.0
  0
LINE
  5
15F
100
AcDbEntity
  8
GLAS_MED_FOGNING
100
AcDbLine
 10
-1890.0
 20
1227.5
 30
0.0
 11
-1890.0
 21
1184.0
 31
0.0
  0
LINE
  5
160
100
AcDbEntity
  8
GLAS_MED_FOGNING
100
AcDbLine
 10
-1864.6
 20
1227.5
 30
0.0
 11
-1864.6
 21
1184.0
 31
0.0
  0
TEXT
  5
161
100
AcDbEntity
  8
TEXT
100
AcDbText
 10
-1863.0
 20
1120.157143
 30
0.0
 40
5.0
  1
%%USP 76512
 50
90.0
 41
0.8
  7
ROMANS
 72
     1
 11
-1863.0
 21
1135.0
 31
0.0
100
AcDbText
  0
INSERT
  5
162
100
AcDbEntity
  8
0
100
AcDbBlockReference
  2
SP76512
 10
-1920.0
 20
1135.0
 30
0.0
 50
180.0
  0
LINE
  5
16E
100
AcDbEntity
  8
GLAS_MED_FOGNING
100
AcDbLine
 10
-1835.9
 20
1135.80703
 30
0.0
 11
-1826.701246
 21
1149.323341
 31
0.0
  0
LINE
  5
16F
100
AcDbEntity
  8
GLAS_MED_FOGNING
100
AcDbLine
 10
-1850.9
 20
1133.30703
 30
0.0
 11
-1850.9
 21
1148.30703
 31
0.0
  0
LINE
  5
170
100
AcDbEntity
  8
GLAS_MED_FOGNING
100
AcDbLine
 10
-1924.1
 20
1133.30703
 30
0.0
 11
-1924.1
 21
1148.30703
 31
0.0
  0
LINE
  5
171
100
AcDbEntity
  8
GLAS_MED_FOGNING
100
AcDbLine
 10
-1850.9
 20
1135.80703
 30
0.0
 11
-1835.9
 21
1135.80703
 31
0.0
  0
LINE
  5
172
100
AcDbEntity
  8
GLAS_MED_FOGNING
100
AcDbLine
 10
-1855.9
 20
1133.30703
 30
0.0
 11
-1850.9
 21
1133.30703
 31
0.0
  0
LINE
  5
173
100
AcDbEntity
  8
GLAS_MED_FOGNING
100
AcDbLine
 10
-1919.1
 20
1133.30703
 30
0.0
 11
-1924.1
 21
1133.30703
 31
0.0
  0
LINE
  5
174
100
AcDbEntity
  8
GLAS_MED_FOGNING
100
AcDbLine
 10
-1885.656512
 20
1104.30703
 30
0.0
 11
-1875.656512
 21
1094.30703
 31
0.0
  0
LINE
  5
175
100
AcDbEntity
  8
GLAS_MED_FOGNING
100
AcDbLine
 10
-1885.656512
 20
1109.30703
 30
0.0
 11
-1885.656512
 21
1104.30703
 31
0.0
  0
LINE
  5
176
100
AcDbEntity
  8
GLAS_MED_FOGNING
100
AcDbLine
 10
-1875.656512
 20
1109.30703
 30
0.0
 11
-1875.656512
 21
1094.30703
 31
0.0
  0
LINE
  5
177
100
AcDbEntity
  8
CENTRUM
100
AcDbLine
 10
-1858.538889
 20
1140.80703
 30
0.0
 11
-1847.705556
 21
1140.80703
 31
0.0
  0
LINE
  5
17A
100
AcDbEntity
  8
GLAS_MED_FOGNING
100
AcDbLine
 10
-1850.9
 20
1145.80703
 30
0.0
 11
-1841.190493
 21
1145.80703
 31
0.0
  0
INSERT
  5
17B
100
AcDbEntity
  8
GLAS_MED_FOGNING
100
AcDbBlockReference
  2
GLASH5
 10
1915.0
 20
1135.0
 30
0.0
 43
-1.0
210
0.0
220
0.0
230
-1.0
  0
INSERT
  5
1A2
100
AcDbEntity
  8
0
100
AcDbBlockReference
  2
SP42520
 10
1920.0
 20
1135.0
 30
0.0
 43
-1.0
210
0.0
220
0.0
230
-1.0
  0
INSERT
  5
1BD
100
AcDbEntity
  8
0
100
AcDbBlockReference
  2
GLASV6_18
 10
1855.0
 20
1135.0
 30
0.0
 43
-1.0
210
0.0
220
0.0
230
-1.0
  0
LWPOLYLINE
  5
1E4
100
AcDbEntity
  8
GLAS_MED_FOGNING
100
AcDbPolyline
 90
        4
 70
     1
 43
0.0
 10
-1864.6
 20
1165.0
 10
-1864.6
 20
1160.0
 10
-1890.0
 20
1165.0
 10
-1890.0
 20
1160.0
  0
LINE
  5
1E5
100
AcDbEntity
  8
GLAS_MED_FOGNING
100
AcDbLine
 10
-1890.0
 20
1165.0
 30
0.0
 11
-1864.6
 21
1165.0
 31
0.0
  0
LINE
  5
1E6
100
AcDbEntity
  8
GLAS_MED_FOGNING
100
AcDbLine
 10
-1855.9
 20
1148.30703
 30
0.0
 11
-1850.9
 21
1148.30703
 31
0.0
  0
LINE
  5
1E7
100
AcDbEntity
  8
GLAS_MED_FOGNING
100
AcDbLine
 10
-1858.6
 20
1175.998998
 30
0.0
 11
-1858.6
 21
1165.998998
 31
0.0
  0
LINE
  5
1E8
100
AcDbEntity
  8
GLAS_MED_FOGNING
100
AcDbLine
 10
-1919.1
 20
1148.30703
 30
0.0
 11
-1924.1
 21
1148.30703
 31
0.0
  0
LINE
  5
1E9
100
AcDbEntity
  8
CENTRUM
100
AcDbLine
 10
-1930.133559
 20
1140.80703
 30
0.0
 11
-1908.683334
 21
1140.80703
 31
0.0
  0
LINE
  5
1EA
100
AcDbEntity
  8
GLAS_MED_FOGNING
100
AcDbLine
 10
-1841.190493
 20
1145.80703
 30
0.0
 11
-1836.701246
 21
1152.403364
 31
0.0
  0
LINE
  5
1EB
100
AcDbEntity
  8
GLAS_MED_FOGNING
100
AcDbLine
 10
-1836.701246
 20
1152.403364
 30
0.0
 11
-1836.701246
 21
1193.737735
 31
0.0
  0
LINE
  5
1EC
100
AcDbEntity
  8
GLAS_MED_FOGNING
100
AcDbLine
 10
-1826.701246
 20
1149.323341
 30
0.0
 11
-1826.701246
 21
1193.737735
 31
0.0
  0
ARC
  5
1ED
100
AcDbEntity
  8
GLAS_MED_FOGNING
100
AcDbCircle
 10
-1831.701246
 20
1193.737735
 30
0.0
 40
5.0
100
AcDbArc
 50
0.0
 51
180.0
  0
INSERT
  5
1EE
100
AcDbEntity
  8
GLAS_MED_FOGNING
100
AcDbBlockReference
  2
GLASH5
 10
-1915.0
 20
1325.0
 30
0.0
 50
180.0
  0
INSERT
  5
1EF
100
AcDbEntity
  8
0
100
AcDbBlockReference
  2
SP42520
 10
-1920.0
 20
1325.0
 30
0.0
 50
180.0
  0
INSERT
  5
1F0
100
AcDbEntity
  8
0
100
AcDbBlockReference
  2
GLASV6_18
 10
-1855.0
 20
1325.0
 30
0.0
 50
180.0
  0
INSERT
  5
1F1
100
AcDbEntity
  8
0
100
AcDbBlockReference
  2
SP76512
 10
-1920.0
 20
1325.0
 30
0.0
 41
-1.0
  0
LWPOLYLINE
  5
1F2
100
AcDbEntity
  8
CENTRUM
100
AcDbPolyline
 90
        4
 70
     0
 43
0.0
 10
-1920.0
 20
1227.5
 10
-1890.0
 20
1227.5
 10
-1864.6
 20
1227.5
 10
-1855.0
 20
1227.5
  0
LINE
  5
1F3
100
AcDbEntity
  8
GLAS_MED_FOGNING
100
AcDbLine
 10
-1890.0
 20
1232.5
 30
0.0
 11
-1890.0
 21
1276.0
 31
0.0
  0
LINE
  5
1F4
100
AcDbEntity
  8
GLAS_MED_FOGNING
100
AcDbLine
 10
-1864.6
 20
1232.5
 30
0.0
 11
-1864.6
 21
1276.0
 31
0.0
  0
LWPOLYLINE
  5
1F5
100
AcDbEntity
  8
CENTRUM
100
AcDbPolyline
 90
        4
 70
     0
 43
0.0
 10
-1920.0
 20
1232.5
 10
-1890.0
 20
1232.5
 10
-1864.6
 20
1232.5
 10
-1855.0
 20
1232.5
  0
LINE
  5
1F6
100
AcDbEntity
  8
GLAS_MED_FOGNING
100
AcDbLine
 10
-1858.6
 20
1284.001002
 30
0.0
 11
-1858.6
 21
1294.001002
 31
0.0
  0
LINE
  5
1F7
100
AcDbEntity
  8
GLAS_MED_FOGNING
100
AcDbLine
 10
-1840.595823
 20
1362.731613
 30
0.0
 11
-1855.200982
 21
1364.16539
 31
0.0
  0
LINE
  5
1F8
100
AcDbEntity
  8
GLAS_MED_FOGNING
100
AcDbLine
 10
-1855.235284
 20
1364.395808
 30
0.0
 11
-1847.791468
 21
1370.643963
 31
0.0
  0
TEXT
  5
1F9
100
AcDbEntity
  8
TEXT
100
AcDbText
 10
-1863.0
 20
1310.157143
 30
0.0
 40
5.0
  1
%%USP 76512
 50
90.0
 41
0.8
  7
ROMANS
 72
     1
 11
-1863.0
 21
1325.0
 31
0.0
100
AcDbText
  0
INSERT
  5
1FA
100
AcDbEntity
  8
GLAS_MED_FOGNING
100
AcDbBlockReference
  2
*X17
 10
-1920.0
 20
1325.0
 30
0.0
 50
180.0
1001
ACAD
1000
HATCH
1002
{
1070
    16
1000
AR-SAND
1040
2.0
1040
0.0
1002
}
  0
LINE
  5
22B
100
AcDbEntity
  8
GLAS_MED_FOGNING
100
AcDbLine
 10
-1890.0
 20
1295.0
 30
0.0
 11
-1864.6
 21
1295.0
 31
0.0
  0
POINT
  5
22C
100
AcDbEntity
  8
DEFPOINTS
  6
BYBLOCK
 62
     0
100
AcDbPoint
 10
-1920.0
 20
1370.0
 30
0.0
  0
DIMENSION
  5
22D
100
AcDbEntity
  8
RAM
100
AcDbDimension
  2
*D19
 10
-1875.0
 20
1465.0
 30
0.0
 11
-1840.0
 21
1470.0
 31
0.0
  3
ROMANS
100
AcDbAlignedDimension
 13
-1805.0
 23
1450.0
 33
0.0
 14
-1875.0
 24
1450.0
 34
0.0
100
AcDbRotatedDimension
1001
ACAD
1000
DSTYLE
1002
{
1070
   140
1040
7.0
1070
   142
1040
0.0
1070
    40
1040
1.0
1070
   147
1040
1.5
1070
    41
1040
2.0
1002
}
  0
INSERT
  5
23A
100
AcDbEntity
  8
0
100
AcDbBlockReference
  2
SP76511
 10
-1830.0
 20
1385.0
 30
0.0
 41
-1.0
 50
90.0
  0
TEXT
  5
23B
100
AcDbEntity
  8
TEXT
100
AcDbText
 10
-1844.828571
 20
1438.0
 30
0.0
 40
5.0
  1
%%USP 76511
 41
0.8
  7
ROMANS
 72
     1
 11
-1830.0
 21
1438.0
 31
0.0
100
AcDbText
  0
LINE
  5
23C
100
AcDbEntity
  8
GLAS_MED_FOGNING
100
AcDbLine
 10
-1837.922912
 20
1384.875122
 30
0.0
 11
-1834.719698
 21
1374.946689
 31
0.0
  0
LINE
  5
23D
100
AcDbEntity
  8
GLAS_MED_FOGNING
100
AcDbLine
 10
-1843.450549
 20
1377.14878
 30
0.0
 11
-1838.329059
 21
1384.907546
 31
0.0
  0
ARC
  5
23E
100
AcDbEntity
  8
GLAS_MED_FOGNING
100
AcDbCircle
 10
-1838.133757
 20
1384.793986
 30
0.0
 40
0.225917
100
AcDbArc
 50
21.047265
 51
149.823837
  0
ENDSEC
  0
SECTION
  2
OBJECTS
  0
DICTIONARY
  5
1A
100
AcDbDictionary
  3
ACAD_GROUP
350
18
  3
ACAD_LAYOUT
350
248
  3
ACAD_MLINESTYLE
350
19
  3
ACAD_PLOTSETTINGS
350
249
  3
ACAD_PLOTSTYLENAME
350
246
  3
ACDBHEADERROUNDTRIPXREC
350
289
  0
DICTIONARY
  5
287
100
AcDbDictionary
280
     1
  3
ACAD_XREC_ROUNDTRIP
360
288
  0
DICTIONARY
  5
2B0
100
AcDbDictionary
280
     1
  3
ACAD_XREC_ROUNDTRIP
360
2B1
  0
DICTIONARY
  5
2AE
100
AcDbDictionary
280
     1
  3
ACAD_XREC_ROUNDTRIP
360
2AF
  0
DICTIONARY
  5
2AA
100
AcDbDictionary
280
     1
  3
ACAD_LAYOUTSELFREF
360
2AB
  0
DICTIONARY
  5
2AC
100
AcDbDictionary
280
     1
  3
ACAD_LAYOUTSELFREF
360
2AD
  0
DICTIONARY
  5
18
102
{ACAD_REACTORS
330
1A
102
}
100
AcDbDictionary
  0
DICTIONARY
  5
248
102
{ACAD_XDICTIONARY
360
2B2
102
}
102
{ACAD_REACTORS
330
1A
102
}
100
AcDbDictionary
  3
LAYOUT1
350
24B
  3
MODEL
350
24A
  0
DICTIONARY
  5
19
102
{ACAD_REACTORS
330
1A
102
}
100
AcDbDictionary
  3
STANDARD
350
1D
  0
DICTIONARY
  5
249
102
{ACAD_REACTORS
330
1A
102
}
100
AcDbDictionary
  0
ACAD_PROXY_OBJECT
  5
246
102
{ACAD_REACTORS
330
1A
102
}
100
AcDbProxyObject
 90
      499
 91
      503
 93
       86
310
405010041939BDC9B585B0
350
247
340
247
 94
        0
  0
DICTIONARY
  5
289
102
{ACAD_REACTORS
330
1A
102
}
100
AcDbDictionary
  3
CEPSNTYPE
350
293
  3
DIMSTYLEDATA
350
297
  3
FINGERPRINTGUID
350
294
  3
HYPERLINKBASE
350
28C
  3
INSUNITS
350
292
  3
LAYOUTDICT
350
28E
  3
LWETCUNION
350
291
  3
PLOTSETDICT
350
28F
  3
PLOTSTYLNAMDICT
350
290
  3
PSVPSCALE
350
296
  3
PUCSBASE
350
29A
  3
PUCSORGBACK
350
2A0
  3
PUCSORGBOTTOM
350
29C
  3
PUCSORGFRONT
350
29F
  3
PUCSORGLEFT
350
29D
  3
PUCSORGRIGHT
350
29E
  3
PUCSORGTOP
350
29B
  3
PUCSORTHOREF
350
298
  3
PUCSORTHOVIEW
350
299
  3
STYLESHEET
350
28D
  3
TSTACKALIGN
350
28A
  3
TSTACKSIZE
350
28B
  3
UCSBASE
350
2A3
  3
UCSORGBACK
350
2A9
  3
UCSORGBOTTOM
350
2A5
  3
UCSORGFRONT
350
2A8
  3
UCSORGLEFT
350
2A6
  3
UCSORGRIGHT
350
2A7
  3
UCSORGTOP
350
2A4
  3
UCSORTHOREF
350
2A1
  3
UCSORTHOVIEW
350
2A2
  3
VERSIONGUID
350
295
  0
XRECORD
  5
288
102
{ACAD_REACTORS
330
287
102
}
100
AcDbXrecord
102
EXTNAMES
  1
*ACTIVE
  2
*Active
102
UCS
 74
     0
 71
     1
 10
0.0
 20
0.0
 30
0.0
 10
1.0
 20
0.0
 30
0.0
 10
0.0
 20
1.0
 30
0.0
146
0.0
 79
     0
102
VIEW
281
     0
  0
XRECORD
  5
2B1
102
{ACAD_REACTORS
330
2B0
102
}
100
AcDbXrecord
102
PLOTBIT
280
     0
  0
XRECORD
  5
2AF
102
{ACAD_REACTORS
330
2AE
102
}
100
AcDbXrecord
102
ACADR14ROUNDTRIP
1000
DSTYLE
1002
{
1070
   279
 70
     2
1002
}
  0
XRECORD
  5
2AB
102
{ACAD_REACTORS
330
2AA
102
}
100
AcDbXrecord
340
2
  0
XRECORD
  5
2AD
102
{ACAD_REACTORS
330
2AC
102
}
100
AcDbXrecord
340
7
  0
DICTIONARY
  5
2B2
100
AcDbDictionary
280
     1
  3
ACAD_XREC_ROUNDTRIP
360
2B3
  0
ACAD_PROXY_OBJECT
  5
24B
102
{ACAD_REACTORS
330
248
102
}
100
AcDbProxyObject
 90
      499
 91
      505
 93
     1284
310
91D4850204C617365724A65742034562F344D5620506F73745363726970742C00AAAAAA416AA591069074C61796F757431405013CB283800FB3E150000000000000049C03D4BB1391F3B6410000000000000000000000000000000000000000000101E900000000000241C902A6A6A10232D5E076BC5510408CB5781DAF154
310
410232D5E076BC5510408CB5781DAF15C410232D5E076BC5710408CB5781DAF15C40
330
7
330
0
340
0
340
0
 94
        0
  0
ACAD_PROXY_OBJECT
  5
24A
102
{ACAD_REACTORS
330
248
102
}
100
AcDbProxyObject
 90
      499
 91
      505
 93
      668
310
91D4850204C617365724A65742034562F344D5620506F73745363726970742C01AAAAAAAAA5A69054D6F64656C901A800000000000000000000000000000000000000000000A1000000000000008902A6A6AAAA2
330
2
330
0
340
0
340
0
 94
        0
  0
MLINESTYLE
  5
1D
102
{ACAD_REACTORS
330
19
102
}
100
AcDbMlineStyle
  2
STANDARD
 70
     0
  3

 62
   256
 51
90.0
 52
90.0
 71
     2
 49
0.5
 62
   256
  6
BYLAYER
 49
-0.5
 62
   256
  6
BYLAYER
  0
ACAD_PROXY_OBJECT
  5
247
102
{ACAD_REACTORS
330
246
102
}
100
AcDbProxyObject
 90
      499
 91
      504
 93
        0
 94
        0
  0
XRECORD
  5
293
102
{ACAD_REACTORS
330
289
102
}
100
AcDbXrecord
 90
        0
  0
XRECORD
  5
297
102
{ACAD_REACTORS
330
289
102
}
100
AcDbXrecord
1000
DSTYLE
1002
{
1070
   279
 70
     2
1002
}
  0
XRECORD
  5
294
102
{ACAD_REACTORS
330
289
102
}
100
AcDbXrecord
  1
{DCFA0A99-0BE8-11D6-AA0B-00D0B7E2A69D}
  0
XRECORD
  5
28C
102
{ACAD_REACTORS
330
289
102
}
100
AcDbXrecord
  1

  0
XRECORD
  5
292
102
{ACAD_REACTORS
330
289
102
}
100
AcDbXrecord
 90
        0
  0
XRECORD
  5
28E
102
{ACAD_REACTORS
330
289
102
}
100
AcDbXrecord
340
248
  0
XRECORD
  5
291
102
{ACAD_REACTORS
330
289
102
}
100
AcDbXrecord
 90
    14877
  0
XRECORD
  5
28F
102
{ACAD_REACTORS
330
289
102
}
100
AcDbXrecord
340
249
  0
XRECORD
  5
290
102
{ACAD_REACTORS
330
289
102
}
100
AcDbXrecord
340
246
  0
XRECORD
  5
296
102
{ACAD_REACTORS
330
289
102
}
100
AcDbXrecord
 40
0.0
  0
XRECORD
  5
29A
102
{ACAD_REACTORS
330
289
102
}
100
AcDbXrecord
340
0
  0
XRECORD
  5
2A0
102
{ACAD_REACTORS
330
289
102
}
100
AcDbXrecord
 10
0.0
 20
0.0
 30
0.0
  0
XRECORD
  5
29C
102
{ACAD_REACTORS
330
289
102
}
100
AcDbXrecord
 10
0.0
 20
0.0
 30
0.0
  0
XRECORD
  5
29F
102
{ACAD_REACTORS
330
289
102
}
100
AcDbXrecord
 10
0.0
 20
0.0
 30
0.0
  0
XRECORD
  5
29D
102
{ACAD_REACTORS
330
289
102
}
100
AcDbXrecord
 10
0.0
 20
0.0
 30
0.0
  0
XRECORD
  5
29E
102
{ACAD_REACTORS
330
289
102
}
100
AcDbXrecord
 10
0.0
 20
0.0
 30
0.0
  0
XRECORD
  5
29B
102
{ACAD_REACTORS
330
289
102
}
100
AcDbXrecord
 10
0.0
 20
0.0
 30
0.0
  0
XRECORD
  5
298
102
{ACAD_REACTORS
330
289
102
}
100
AcDbXrecord
340
0
  0
XRECORD
  5
299
102
{ACAD_REACTORS
330
289
102
}
100
AcDbXrecord
 70
     0
  0
XRECORD
  5
28D
102
{ACAD_REACTORS
330
289
102
}
100
AcDbXrecord
  1

  0
XRECORD
  5
28A
102
{ACAD_REACTORS
330
289
102
}
100
AcDbXrecord
 90
        1
  0
XRECORD
  5
28B
102
{ACAD_REACTORS
330
289
102
}
100
AcDbXrecord
 90
       70
  0
XRECORD
  5
2A3
102
{ACAD_REACTORS
330
289
102
}
100
AcDbXrecord
340
0
  0
XRECORD
  5
2A9
102
{ACAD_REACTORS
330
289
102
}
100
AcDbXrecord
 10
0.0
 20
0.0
 30
0.0
  0
XRECORD
  5
2A5
102
{ACAD_REACTORS
330
289
102
}
100
AcDbXrecord
 10
0.0
 20
0.0
 30
0.0
  0
XRECORD
  5
2A8
102
{ACAD_REACTORS
330
289
102
}
100
AcDbXrecord
 10
0.0
 20
0.0
 30
0.0
  0
XRECORD
  5
2A6
102
{ACAD_REACTORS
330
289
102
}
100
AcDbXrecord
 10
0.0
 20
0.0
 30
0.0
  0
XRECORD
  5
2A7
102
{ACAD_REACTORS
330
289
102
}
100
AcDbXrecord
 10
0.0
 20
0.0
 30
0.0
  0
XRECORD
  5
2A4
102
{ACAD_REACTORS
330
289
102
}
100
AcDbXrecord
 10
0.0
 20
0.0
 30
0.0
  0
XRECORD
  5
2A1
102
{ACAD_REACTORS
330
289
102
}
100
AcDbXrecord
340
0
  0
XRECORD
  5
2A2
102
{ACAD_REACTORS
330
289
102
}
100
AcDbXrecord
 70
     0
  0
XRECORD
  5
295
102
{ACAD_REACTORS
330
289
102
}
100
AcDbXrecord
  1
{DCFA0A9B-0BE8-11D6-AA0B-00D0B7E2A69D}
  0
XRECORD
  5
2B3
102
{ACAD_REACTORS
330
2B2
102
}
100
AcDbXrecord
102
EXTNAMES
  1
LAYOUT1
  2
Layout1
  1
MODEL
  2
Model
  0
ENDSEC
  0
EOF
