  0
SECTION
  2
HEADER
  9
$ACADVER
  1
AC1014
  9
$ACADMAINTVER
 70
     0
  9
$DWGCODEPAGE
  3
ANSI_1252
  9
$INSBASE
 10
-650.0
 20
3085.0
 30
0.0
  9
$EXTMIN
 10
71.874963
 20
5.624991
 30
0.0
  9
$EXTMAX
 10
589.374963
 20
696.374991
 30
0.0
  9
$LIMMIN
 10
0.0
 20
0.0
  9
$LIMMAX
 10
420.0
 20
297.0
  9
$ORTHOMODE
 70
     0
  9
$REGENMODE
 70
     1
  9
$FILLMODE
 70
     1
  9
$QTEXTMODE
 70
     0
  9
$MIRRTEXT
 70
     1
  9
$DRAGMODE
 70
     2
  9
$LTSCALE
 40
1.0
  9
$OSMODE
 70
   547
  9
$ATTMODE
 70
     1
  9
$TEXTSIZE
 40
8.0
  9
$TRACEWID
 40
1.0
  9
$TEXTSTYLE
  7
ROMANS
  9
$CLAYER
  8
TEXT
  9
$CELTYPE
  6
BYLAYER
  9
$CECOLOR
 62
   256
  9
$CELTSCALE
 40
1.0
  9
$DELOBJ
 70
     1
  9
$DISPSILH
 70
     0
  9
$DIMSCALE
 40
1.0
  9
$DIMASZ
 40
2.5
  9
$DIMEXO
 40
0.625
  9
$DIMDLI
 40
3.75
  9
$DIMRND
 40
0.0
  9
$DIMDLE
 40
0.0
  9
$DIMEXE
 40
1.25
  9
$DIMTP
 40
0.0
  9
$DIMTM
 40
0.0
  9
$DIMTXT
 40
4.0
  9
$DIMCEN
 40
2.5
  9
$DIMTSZ
 40
0.0
  9
$DIMTOL
 70
     0
  9
$DIMLIM
 70
     0
  9
$DIMTIH
 70
     0
  9
$DIMTOH
 70
     0
  9
$DIMSE1
 70
     0
  9
$DIMSE2
 70
     0
  9
$DIMTAD
 70
     1
  9
$DIMZIN
 70
     8
  9
$DIMBLK
  1

  9
$DIMASO
 70
     1
  9
$DIMSHO
 70
     1
  9
$DIMPOST
  1

  9
$DIMAPOST
  1

  9
$DIMALT
 70
     0
  9
$DIMALTD
 70
     4
  9
$DIMALTF
 40
0.0394
  9
$DIMLFAC
 40
1.0
  9
$DIMTOFL
 70
     1
  9
$DIMTVP
 40
0.0
  9
$DIMTIX
 70
     0
  9
$DIMSOXD
 70
     0
  9
$DIMSAH
 70
     0
  9
$DIMBLK1
  1

  9
$DIMBLK2
  1

  9
$DIMSTYLE
  2
STANDARD
  9
$DIMCLRD
 70
     0
  9
$DIMCLRE
 70
     0
  9
$DIMCLRT
 70
     6
  9
$DIMTFAC
 40
1.0
  9
$DIMGAP
 40
2.0
  9
$DIMJUST
 70
     0
  9
$DIMSD1
 70
     0
  9
$DIMSD2
 70
     0
  9
$DIMTOLJ
 70
     1
  9
$DIMTZIN
 70
     0
  9
$DIMALTZ
 70
     0
  9
$DIMALTTZ
 70
     0
  9
$DIMFIT
 70
     3
  9
$DIMUPT
 70
     0
  9
$DIMUNIT
 70
     8
  9
$DIMDEC
 70
     4
  9
$DIMTDEC
 70
     4
  9
$DIMALTU
 70
     8
  9
$DIMALTTD
 70
     4
  9
$DIMTXSTY
  7
ROMANS
  9
$DIMAUNIT
 70
     0
  9
$LUNITS
 70
     2
  9
$LUPREC
 70
     1
  9
$SKETCHINC
 40
1.0
  9
$FILLETRAD
 40
10.0
  9
$AUNITS
 70
     0
  9
$AUPREC
 70
     0
  9
$MENU
  1
acad
  9
$ELEVATION
 40
0.0
  9
$PELEVATION
 40
0.0
  9
$THICKNESS
 40
0.0
  9
$LIMCHECK
 70
     0
  9
$BLIPMODE
 70
     0
  9
$CHAMFERA
 40
10.0
  9
$CHAMFERB
 40
10.0
  9
$CHAMFERC
 40
20.0
  9
$CHAMFERD
 40
0.0
  9
$SKPOLY
 70
     0
  9
$TDCREATE
 40
2451083.294540393
  9
$TDUPDATE
 40
2452293.543361805
  9
$TDINDWG
 40
5.2942297454
  9
$TDUSRTIMER
 40
5.2942297454
  9
$USRTIMER
 70
     1
  9
$ANGBASE
 50
0.0
  9
$ANGDIR
 70
     0
  9
$PDMODE
 70
     0
  9
$PDSIZE
 40
0.0
  9
$PLINEWID
 40
0.0
  9
$COORDS
 70
     1
  9
$SPLFRAME
 70
     0
  9
$SPLINETYPE
 70
     6
  9
$SPLINESEGS
 70
     8
  9
$ATTDIA
 70
     0
  9
$ATTREQ
 70
     1
  9
$HANDLING
 70
     1
  9
$HANDSEED
  5
9C0
  9
$SURFTAB1
 70
     6
  9
$SURFTAB2
 70
     6
  9
$SURFTYPE
 70
     6
  9
$SURFU
 70
     6
  9
$SURFV
 70
     6
  9
$UCSNAME
  2

  9
$UCSORG
 10
0.0
 20
0.0
 30
0.0
  9
$UCSXDIR
 10
1.0
 20
0.0
 30
0.0
  9
$UCSYDIR
 10
0.0
 20
1.0
 30
0.0
  9
$PUCSNAME
  2

  9
$PUCSORG
 10
0.0
 20
0.0
 30
0.0
  9
$PUCSXDIR
 10
1.0
 20
0.0
 30
0.0
  9
$PUCSYDIR
 10
0.0
 20
1.0
 30
0.0
  9
$USERI1
 70
     0
  9
$USERI2
 70
     0
  9
$USERI3
 70
     0
  9
$USERI4
 70
     0
  9
$USERI5
 70
     0
  9
$USERR1
 40
0.0
  9
$USERR2
 40
0.0
  9
$USERR3
 40
0.0
  9
$USERR4
 40
0.0
  9
$USERR5
 40
0.0
  9
$WORLDVIEW
 70
     1
  9
$SHADEDGE
 70
     3
  9
$SHADEDIF
 70
    70
  9
$TILEMODE
 70
     1
  9
$MAXACTVP
 70
    48
  9
$PINSBASE
 10
0.0
 20
0.0
 30
0.0
  9
$PLIMCHECK
 70
     0
  9
$PEXTMIN
 10
1.000000E+20
 20
1.000000E+20
 30
1.000000E+20
  9
$PEXTMAX
 10
-1.000000E+20
 20
-1.000000E+20
 30
-1.000000E+20
  9
$PLIMMIN
 10
0.0
 20
0.0
  9
$PLIMMAX
 10
420.0
 20
297.0
  9
$UNITMODE
 70
     0
  9
$VISRETAIN
 70
     1
  9
$PLINEGEN
 70
     0
  9
$PSLTSCALE
 70
     1
  9
$TREEDEPTH
 70
  3020
  9
$PICKSTYLE
 70
     1
  9
$CMLSTYLE
  2
STANDARD
  9
$CMLJUST
 70
     0
  9
$CMLSCALE
 40
20.0
  9
$PROXYGRAPHICS
 70
     1
  9
$MEASUREMENT
 70
     0
  0
ENDSEC
  0
SECTION
  2
CLASSES
  0
CLASS
  1
LWPOLYLINE
  2
AcDbPolyline
  3
"AutoCAD"
 90
        0
280
     0
281
     1
  0
CLASS
  1
DICTIONARYVAR
  2
AcDbDictionaryVar
  3
"AutoCAD"
 90
        0
280
     0
281
     0
  0
CLASS
  1
HATCH
  2
AcDbHatch
  3
"ACAD_SEDONA"
 90
        0
280
     0
281
     1
  0
CLASS
  1
ACDBDICTIONARYWDFLT
  2
AcDbDictionaryWithDefault
  3
AutoCAD 2000
 90
        0
280
     0
281
     0
  0
CLASS
  1
ACDBPLACEHOLDER
  2
AcDbPlaceHolder
  3
AutoCAD 2000
 90
        0
280
     0
281
     0
  0
CLASS
  1
LAYOUT
  2
AcDbLayout
  3
AutoCAD 2000
 90
        0
280
     0
281
     0
  0
CLASS
  1
LONG_TRANSACTION
  2
AcDbLongTransaction
  3
AutoCAD 2000
 90
        0
280
     0
281
     0
  0
CLASS
  1
LWPOLYLINE
  2
AcDbPolyline
  3
"AutoCAD"
 90
        0
280
     0
281
     1
  0
CLASS
  1
HATCH
  2
AcDbHatch
  3
"ACAD_SEDONA"
 90
        0
280
     0
281
     1
  0
CLASS
  1
XRECORD
  2
AcDbXrecord
  3
"<Built In>"
 90
        0
280
     0
281
     0
  0
ENDSEC
  0
SECTION
  2
TABLES
  0
TABLE
  2
VPORT
  5
12
100
AcDbSymbolTable
 70
     1
  0
VPORT
  5
8EE
102
{ACAD_XDICTIONARY
360
8EF
102
}
100
AcDbSymbolTableRecord
100
AcDbViewportTableRecord
  2
*ACTIVE
 70
     0
 10
0.0
 20
0.0
 11
1.0
 21
1.0
 12
390.088915
 22
281.172166
 13
0.0
 23
0.0
 14
5.0
 24
5.0
 15
10.0
 25
10.0
 16
0.0
 26
0.0
 36
1.0
 17
0.0
 27
0.0
 37
0.0
 40
837.51186
 41
1.630435
 42
50.0
 43
0.0
 44
0.0
 50
0.0
 51
0.0
 71
     0
 72
   100
 73
     1
 74
     1
 75
     1
 76
     0
 77
     0
 78
     2
  0
ENDTAB
  0
TABLE
  2
LTYPE
  5
D
100
AcDbSymbolTable
 70
     2
  0
LTYPE
  5
E
100
AcDbSymbolTableRecord
100
AcDbLinetypeTableRecord
  2
BYBLOCK
 70
     0
  3

 72
    65
 73
     0
 40
0.0
  0
LTYPE
  5
F
100
AcDbSymbolTableRecord
100
AcDbLinetypeTableRecord
  2
BYLAYER
 70
     0
  3

 72
    65
 73
     0
 40
0.0
  0
LTYPE
  5
5
100
AcDbSymbolTableRecord
100
AcDbLinetypeTableRecord
  2
CONTINUOUS
 70
     0
  3
Solid line
 72
    65
 73
     0
 40
0.0
  0
LTYPE
  5
90
100
AcDbSymbolTableRecord
100
AcDbLinetypeTableRecord
  2
DASHDOT
 70
     0
  3
__ . __ . __ . __ . __ . __ . __ . __ . __ . __
 72
    65
 73
     4
 40
1.0
 49
0.5
 74
     0
 49
-0.25
 74
     0
 49
0.0
 74
     0
 49
-0.25
 74
     0
  0
ENDTAB
  0
TABLE
  2
LAYER
  5
A
100
AcDbSymbolTable
 70
    10
  0
LAYER
  5
4
100
AcDbSymbolTableRecord
100
AcDbLayerTableRecord
  2
0
 70
     0
 62
     7
  6
CONTINUOUS
  0
LAYER
  5
A3
100
AcDbSymbolTableRecord
100
AcDbLayerTableRecord
  2
STALPROFIL
 70
     0
 62
     1
  6
CONTINUOUS
  0
LAYER
  5
A5
100
AcDbSymbolTableRecord
100
AcDbLayerTableRecord
  2
SPKONTUR
 70
     0
 62
     7
  6
CONTINUOUS
  0
LAYER
  5
37
100
AcDbSymbolTableRecord
100
AcDbLayerTableRecord
  2
GLAS_MED_FOGNING
 70
     0
 62
     2
  6
CONTINUOUS
  0
LAYER
  5
20
100
AcDbSymbolTableRecord
100
AcDbLayerTableRecord
  2
TEXT
 70
     0
 62
     6
  6
CONTINUOUS
  0
LAYER
  5
1B
100
AcDbSymbolTableRecord
100
AcDbLayerTableRecord
  2
RAM
 70
     0
 62
     5
  6
CONTINUOUS
  0
LAYER
  5
8F
100
AcDbSymbolTableRecord
100
AcDbLayerTableRecord
  2
CENTRUM
 70
     0
 62
     3
  6
DASHDOT
  0
LAYER
  5
7C
100
AcDbSymbolTableRecord
100
AcDbLayerTableRecord
  2
DIMENSION
 70
     0
 62
     2
  6
CONTINUOUS
  0
LAYER
  5
85
102
{ACAD_XDICTIONARY
360
917
102
}
100
AcDbSymbolTableRecord
100
AcDbLayerTableRecord
  2
DEFPOINTS
 70
     0
 62
     7
  6
CONTINUOUS
  0
LAYER
  5
27
100
AcDbSymbolTableRecord
100
AcDbLayerTableRecord
  2
RAMTEXT
 70
     0
 62
     6
  6
CONTINUOUS
  0
ENDTAB
  0
TABLE
  2
STYLE
  5
B
100
AcDbSymbolTable
 70
     4
  0
STYLE
  5
C
100
AcDbSymbolTableRecord
100
AcDbTextStyleTableRecord
  2
STANDARD
 70
     0
 40
0.0
 41
1.0
 50
0.0
 71
     0
 42
2.5
  3
txt
  4

  0
STYLE
  5
1C
100
AcDbSymbolTableRecord
100
AcDbTextStyleTableRecord
  2
ROMANS
 70
     0
 40
0.0
 41
0.8
 50
0.0
 71
     0
 42
8.0
  3
romans
  4

  0
STYLE
  5
28
100
AcDbSymbolTableRecord
100
AcDbTextStyleTableRecord
  2
ISO
 70
     0
 40
0.0
 41
1.0
 50
0.0
 71
     0
 42
3.15
  3
ISO.SHX
  4

  0
STYLE
  5
21
100
AcDbSymbolTableRecord
100
AcDbTextStyleTableRecord
  2
ROMANT
 70
     0
 40
0.0
 41
0.8
 50
0.0
 71
     0
 42
5.0
  3
romant
  4

  0
ENDTAB
  0
TABLE
  2
VIEW
  5
10
100
AcDbSymbolTable
 70
     0
  0
ENDTAB
  0
TABLE
  2
UCS
  5
11
100
AcDbSymbolTable
 70
     0
  0
ENDTAB
  0
TABLE
  2
APPID
  5
14
100
AcDbSymbolTable
 70
     5
  0
APPID
  5
15
100
AcDbSymbolTableRecord
100
AcDbRegAppTableRecord
  2
ACAD
 70
     0
  0
APPID
  5
77
100
AcDbSymbolTableRecord
100
AcDbRegAppTableRecord
  2
CONTENTBLOCKICON
 70
     0
  0
APPID
  5
2DF
100
AcDbSymbolTableRecord
100
AcDbRegAppTableRecord
  2
CONTENTBLOCKDESCRIPTION
 70
     0
  0
APPID
  5
31C
100
AcDbSymbolTableRecord
100
AcDbRegAppTableRecord
  2
CONTENTTABDATA
 70
     0
  0
APPID
  5
31D
100
AcDbSymbolTableRecord
100
AcDbRegAppTableRecord
  2
CONTENTCURRENTTAB
 70
     0
  0
ENDTAB
  0
TABLE
  2
DIMSTYLE
  5
16
100
AcDbSymbolTable
 70
     1
  0
DIMSTYLE
105
1E
102
{ACAD_REACTORS
330
5EC
330
5F1
330
5F8
330
600
330
622
330
644
330
645
330
647
330
648
330
651
330
676
330
69F
330
6A0
330
6A7
330
6AC
330
6B0
330
6D2
102
}
100
AcDbSymbolTableRecord
100
AcDbDimStyleTableRecord
  2
STANDARD
 70
     0
  3

  4

  5

  6

  7

 40
1.0
 41
0.18
 42
0.0625
 43
0.38
 44
0.18
 45
0.0
 46
0.0
 47
0.0
 48
0.0
140
0.18
141
0.09
142
0.0
143
25.4
144
1.0
145
0.0
146
1.0
147
0.09
 71
     0
 72
     0
 73
     1
 74
     1
 75
     0
 76
     0
 77
     0
 78
     0
170
     0
171
     2
172
     0
173
     0
174
     0
175
     0
176
     0
177
     0
178
     0
270
     2
271
     4
272
     4
273
     2
274
     2
340
C
275
     0
280
     0
281
     0
282
     0
283
     1
284
     0
285
     0
286
     0
287
     3
288
     0
  0
ENDTAB
  0
TABLE
  2
BLOCK_RECORD
  5
1
100
AcDbSymbolTable
 70
    65
  0
BLOCK_RECORD
  5
2
102
{ACAD_XDICTIONARY
360
912
102
}
100
AcDbSymbolTableRecord
100
AcDbBlockTableRecord
  2
*MODEL_SPACE
  0
BLOCK_RECORD
  5
7
102
{ACAD_XDICTIONARY
360
914
102
}
100
AcDbSymbolTableRecord
100
AcDbBlockTableRecord
  2
*PAPER_SPACE
  0
BLOCK_RECORD
  5
8D
100
AcDbSymbolTableRecord
100
AcDbBlockTableRecord
  2
SP40020
1001
CONTENTBLOCKICON
1071
        0
1004
2800000020000000200000000100040000000000000200000000000000000000000000000000000000000000000080000080000000808000800000008000800080800000C0C0C000808080000000FF0000FF000000FFFF00FF000000FF00FF00FFFF0000FFFFFF00FFFFFFFFFFFFFFFAFFFFFFFFFFFFFFFFFFFFFFFFFFFFFF
1004
FAFFFFFFFFFFFFFFFFFFFFFFFFFFFFFFFAFFFFFFFFFFFFFFFFFFFFFFFFFFFFFFFAFFFFFFFFFFFFFFFFFFFFFFFFFFFFFFFAFFFFFFFFFFFFFFFFFFFFFFFFFFFFFFFAFFFFFFFFFFFFFFFFFFFFFFFFFFFBBBBBBBBBBFFFFFFFFFFFFFFFFFFFFFBFFFFAFFFFBFFFFFFFFFFFFFFFFFFFFBBBBBBBBBBBBBFFFFFFFFFFFFFFFFFFFBBF
1004
FFFAFFFFBBFFFFFFFFFFFFFFFFFFFBBFFFFAFFFFBBFFFFFFFFFFFFFFFFFFFBBFFFFAFFFFBBFFFFFFFFFFFFFFFFFFFFFFFFFAFFFFFFFFFFFFFFFFFFFFFFFFFFFFFFFAFFFFFFFFFFFFFFFFFFFFFFFFFFFFFFFAFFFFFFFFFFFFFFFFFFFFFFFFBBBBBBBBBBBBBBBFFFFFFFFFFFFFFFFFBFFFFFFAFFFFFFBFFFFFFFFFFFFFFFFFBF
1004
FFFFFFFFFFFFFBFFFFFFFFFFFFFFFBFFFFFFFAFFFFFFFBFFFFFFFFFFFFFFFBFFFFFFFFFFFFFFFBFFFFFFFFFFFFFFFBFFFFFFFAFFFFFFFFBFFFFFFFFFFFFFFBFFFFFFFFFFFFFFFFBFFFFFFFFFFFFFBFFFFFFFFAFFFFFFFFFBFFFFFFFFFFFFBBBBBBBBBBBBBBBBBBBBFFFFFFFFFFFFFFFBBBBFFAFFBBBBBFFFFFFFFFFFFFFFFF
1004
FFFFFBBBBBFFFFFFFFFFFFFFFFFFFFFFFFFFFFFAFFFFFFFFFFFFFFFFFFFFFFFFFFFFFFFFFFFFFFFFFFFFFFFFFFFFFFFFFFFFFFFAFFFFFFFFFFFFFFFFFFFFFFFFFFFFFFFAFFFFFFFFFFFFFFFFFFFFFFFFFFFFFFFAFFFFFFFFFFFFFFFFFFFFFFFFFFFFFFFAFFFFFFFFFFFFFFFF
  0
BLOCK_RECORD
  5
8B
100
AcDbSymbolTableRecord
100
AcDbBlockTableRecord
  2
SP91520
1001
CONTENTBLOCKICON
1071
        0
1004
2800000020000000200000000100040000000000000200000000000000000000000000000000000000000000000080000080000000808000800000008000800080800000C0C0C000808080000000FF0000FF000000FFFF00FF000000FF00FF00FFFF0000FFFFFF00FFFFFFFFFFFFFFFFAFFFFFFFFFFFFFFFFFFFFFFFFFFFFF
1004
FFAFFFFFFFFFFFFFFFFFFFFFFFFFFFFFFFAFFFFFFFFFFFFFFFFFFFFFFFFFFFFFBBBBBBFFFFFFFFFFFFFFFFFFFFFFFFFBFFAFFBFFFFFFFFFFFFFFFFFFFFFFFFFBBBBBBBFFFFFFFFFFFFFFFFFFFFFFFFFBFFAFFBFFFFFFFFFFFFFFFFFFFFFFFFFFFFAFFFFFFFFFFFFFFFFFFFFFFF0000FFFFAFFFF0000FFFFFFFFFFFFFFF0990
1004
BBBBBBBBB0990FFFFFFFFFFFFFF09F90BFFFAFFF09F90FFFFFFFFFFFFFF09F90BFFFAFFF09F90FFFFFFFFFFFFFF0990BFFFFAFFF09990FFFFFFFFFFFFFF0990BFFFFAFFFF0990FFFFFFFFFFFFFF09FFBBBBBBBBBB0F90FFFFFFFFFFFFFF09FFFFFBBBBBFFFF90FFFFFFFFFFFFFF09FFFFFFFAFFFFFF90FFFFFFFFFFFFFF09F
1004
FFFFFFAFFFFFF90FFFFFFFFFFFFFF09FFFFFFFAFFFFFF90FFFFFFFFFFFFFF09FFFFFFFFFFFFFF90FFFFFFFFFFFFFF09FFFFFFFFFFFFFF90FFFFFFFFFFFFFF09FFFFFFFFFFFFFF90FFFFFFFFFFFFFF09FFFFFFFFFFFFFF90FFFFFFFFFFFFFF09FFFFFFFFFFFFFF90FFFFFFFFFFFFFF09FFFFFFFFFFFFFF90FFFFFFFFFFFFFF0
1004
9FFFFFFFFFFFFFF90FFFFFFFFFFFFFF09FFFFFFFFFFFFFF90FFFFFFFFFFFFFF09FFFFFFFFFFFFFF90FFFFFFFFFFFFFF09FFFFFFFFFFFFFF90FFFFFFFFFFFFFF09FFFFFFFFFFFFFF90FFFFFFFFFFFFFFF00999999999999990FFFFFFFFFFFFFFFFF00000000000000FFFFFFFF
  0
BLOCK_RECORD
  5
38
100
AcDbSymbolTableRecord
100
AcDbBlockTableRecord
  2
RAMA4
1001
CONTENTBLOCKICON
1071
        0
1004
2800000020000000200000000100040000000000000200000000000000000000000000000000000000000000000080000080000000808000800000008000800080800000C0C0C000808080000000FF0000FF000000FFFF00FF000000FF00FF00FFFF0000FFFFFF00FFFFFFCFFFFFFFFFFFFFFFFFFFFFFFFFFFFFF9DDCCCDDD
1004
CCCCCCDDDDDCCFFFFFFFFFF999D9CDDDFFFFCDDDDDDCCFFFFFFFFFFDDDDDDDDDDDDDCDDDDCCCCFFFFFFFFFFCCCCCCCCCCCCCCCCCCCCCCFFFFFFFFFFCFFFFFFFFFFFFFFFFFFFFCFFFFFFFFFFCFFFFFFFFFFFFFFFFFFFFCFFFFFFFFFFCFFFFFFFFFFFFFFFFFFFFCFFFFFFFFFFCFFFFFFFFFFFFFFFFFFFFCFFFFFFFFFFCFFFFFF
1004
FFFFFFFFFFFFFFCFFFFFFFFFFCFFFFFFFFFFFFFFFFFFFFCFFFFFFFFFFCFFFFFFFFFFFFFFFFFFFFCFFFFFFFFFFCFFFFFFFFFFFFFFFFFFFFCFFFFFFFFFFCFFFFFFFFFFFFFFFFFFFFCFFFFFFFFFFCFFFFFFFFFFFFFFFFFFFFCFFFFFFFFFFCFFFFFFFFFFFFFFFFFFFFCFFFFFFFFFCCFFFFFFFFFFFFFFFFFFFFCCFFFFFFFFFCFFFF
1004
FFFFFFFFFFFFFFFFCFFFFFFFFFFCFFFFFFFFFFFFFFFFFFFFCFFFFFFFFFFCFFFFFFFFFFFFFFFFFFFFCFFFFFFFFFFCFFFFFFFFFFFFFFFFFFFFCFFFFFFFFFFCFFFFFFFFFFFFFFFFFFFFCFFFFFFFFFFCFFFFFFFFFFFFFFFFFFFFCFFFFFFFFFFCFFFFFFFFFFFFFFFFFFFFCFFFFFFFFFFCFFFFFFFFFFFFFFFFFFFFCFFFFFFFFFFCFF
1004
FFFFFFFFFFFFFFFFFFCFFFFFFFFFFCFFFFFFFFFFFFFFFFFFFFCFFFFFFFFFFCFFFFFFFFFFFFFFFFFFFFCFFFFFFFFFFCFFFFFFFFFFFFFFFFFFFFCFFFFFFFFFFCFFFFFFFFFFFFFFFFFFFFCFFFFFFFFFFCCCCCCCCCCCCCCCCCCCCCCFFFFFFFFFFFCFFFFFFFFFFFFFFFFFFFFFFFFF
  0
BLOCK_RECORD
  5
B9
100
AcDbSymbolTableRecord
100
AcDbBlockTableRecord
  2
*X5
  0
BLOCK_RECORD
  5
1A8
100
AcDbSymbolTableRecord
100
AcDbBlockTableRecord
  2
SP975021-750-10
1001
CONTENTBLOCKICON
1071
        0
1004
2800000020000000200000000100040000000000000200000000000000000000000000000000000000000000000080000080000000808000800000008000800080800000C0C0C000808080000000FF0000FF000000FFFF00FF000000FF00FF00FFFF0000FFFFFF00FFFF0F0000000BBBBB000000000FFFFFFFFF999999999F
1004
BBFB99999999FFFFFFFFFF9FFFFFFF90FFF9FFFFFFF90FFFFFFFFF9FFFFFFF90FBF9FFFFFFF90FFFFFFFFF9FFFFFFF9BFFF9FFFFFFF90FFFFFFFFF9FFFFFFF90BBF9FFFFFFF90FFFFFFFFF9FFFFFFF9BFFB9FFFFFFF90FFFFFFFFF9FFFFFFF90BFB9FFFFFFF90FFFFFFFFF9FFFFFFF90FFF9FFFFFFF90FFFFFFFFF9FFFFFFF
1004
90FBB9FFFFFFF90FFFFFFFFF9FFFFFFF9BFFF9FFFFFFF90FFFFFFFFF9FFFFFFF90BFB9FFFFFFF90FFFFFFFFF9FFFFFFF9BFFF9FFFFFFF90FFFFFFFFF9FFFFFFF90BFB9FFFFFFF90FFFFFFFFF9FFFFFFF90BFF9FFFFFFF90FFFFFFFFF9FFFFFFF90FBB9FFFFFFF90FFFFFFFFF9FFFFFFF9BFFF9FFFFFFF90FFFFFFFFF9FFFFF
1004
FF90FFB9FFFFFFF90FFFFFFFFF9FFFFFFF90BFF9FFFFFFF90FFFFFFFFF9FFFFFFF90FBB9FFFFFFF90FFFFFFFFF9FFFFFFF90BFF9FFFFFFF90FFFFFFFFF9FFFFFFF90FBFBFFFFFFF90FFFFFFFFF999999999BBBBB999999990FFFFFFFFF990FFFFFFFFFFFFFFFFFFFFFFFFFFFFF990FFFFFFFFFFFFFFFFFFFFFFFFFFFFF990F
1004
FFFFFFFFFFFFFFFFFFFFFFFFFFFF990FFFFFFFFFFFFFFFFFFFFFFFFFFFFF990FFFFFFFFFFFFFFFFFFFFFFFFFFFFF990FFFFFFFFFFFFFFFFFFFFFFFFFFFFF990FFFFFFFFFFFFFFFFFFFFFFFFFFFFF990FFFFFFFFFFFFFFFFFFFFFFFFFFFFF990FFFFFFFFFFFFFFFFFFFFFFFFF
  0
BLOCK_RECORD
  5
2E5
100
AcDbSymbolTableRecord
100
AcDbBlockTableRecord
  2
SP95011
1001
CONTENTBLOCKICON
1071
        0
1004
2800000020000000200000000100040000000000000200000000000000000000000000000000000000000000000080000080000000808000800000008000800080800000C0C0C000808080000000FF0000FF000000FFFF00FF000000FF00FF00FFFF0000FFFFFF00FFFFFFFFFFFFFFFFFFFFFFFFFFFFFFFFFFFFFFFFFFFFFF
1004
FFFFFFFFFFFFFFFFFFFFFFFFFFFFFFFFFFFFFFFFFFFFFFFFFFFFFFFFFFFFFFFFFFFFFFFFFFFFFFFFFFFFFFFFFFFFFFFFFFFFFFFFFFFFFFFFFF0F00000000000000000000000000000F0999999999999999999999999999990FF000000000FFFFFFFFFFFFFFFFFFFF90FFFFFFFFF0FFFFFFFFFFFFFFFFFFFF90FFFFFFFFF0FF
1004
FFFFFFFFFFFFFFFFFF90FFFFFFFFF0FFFFFFFFFFFFFFFFFFFF90FFFFFFFFF0FFFFFFFFFFFFFFFFFFFF90FFFFFFFFF0FFFFFFFFFFFFFFFFFFFF90FFFFFFFFF0FFFFFFFFFFFFFFFFFFFF90FFFFFFFFF0FFFFFFFFFFFFFFFFFFFF90FFFFFFFFF0FFFFFFFFFFFFFFFFFFFF90FFFFFFFFF0FFFFFFFFFFFFFFFFFFFF90FFFFFFFFF0
1004
FFFFFFFFFFFFFFFFFFFF90FFFFFFFFF0FFFFFFFFFFFFFFFFFFFF90FFFFFFFFF0FFFFFFFFFFFFFFFFFFFF90FFFFFFFFF0FFFFFFFFFFFFFFFFFFFF90FFFFFFFFF0000FFFFFFFFFFFFFFFFF90FFFFFFFFF00F0FFFFFFFFFFFFFFFFF90FFFFFFFFF00F9FFFFFFFFFFFFFFFFF90FFFFFFFFF00F0FFFFFFFFFFFFFFFFF90FFFFFFFF
1004
FFFF000FFFFFFFFFFFFFFF90FFFFFFFFFFFFFFF0FFFFFFFFFFFFFF90FFFFFFFFFFFFFFF0000000000000000FFFFFFFFFFFFFFFFFFFFFFFFFFFFFFFFFFFFFFFFFFFFFFFFFFFFFFFFFFFFFFFFFFFFFFFFFFFFFFFFFFFFFFFFFFFFFFFFFFFFFFFFFFFFFFFFFFFFFFFFFFFFFFFFF
  0
BLOCK_RECORD
  5
2EB
100
AcDbSymbolTableRecord
100
AcDbBlockTableRecord
  2
SP95021
1001
CONTENTBLOCKICON
1071
        0
1004
2800000020000000200000000100040000000000000200000000000000000000000000000000000000000000000080000080000000808000800000008000800080800000C0C0C000808080000000FF0000FF000000FFFF00FF000000FF00FF00FFFF0000FFFFFF00FFFFFF00000000000000000000FFFFFFFFFF0999999999
1004
9999999999990FFFFFFFFF9FFFFFFFFFFFFFFFFFFFF90FFFFFFFFF9FFFFFFFFFFFFFFFFFFFF90FFFFFFFFF9FFFFFFFFFFFFFFFFFFFF90FFFFFFFFF9FFFFFFFFFFFFFFFFFFFF90FFFFFFFFF9FFFFFFFFFFFFFFFFFFFF90FFFFFFFFF9FFFFFFFFFFFFFFFFFFFF90FFFFFFFFF9FFFFFFFFFFFFFFFFFFFF90FFFFFFFFF9FFFFFFF
1004
FFFFFFFFFFFFF90FFFFFFFFF9FFFFFFFFFFFFFFFFFFFF90FFFFFFFFF9FFFFFFFFFFFFFFFFFFFF90FFFFFFFFF9FFFFFFFFFFFFFFFFFFFF90FFFFFFFFF9FFFFFFFFFFFFFFFFFFFF90FFFFFFFFF9FFFFFFFFFFFFFFFFFFFF90FFFFFFFFF9FFFFFFFFFFFFFFFFFFFF90FFFFFFFFF9FFFFFFFFFFFFFFFFFFFF90FFFFFFFFF9FFFFF
1004
FFFFFFFFFFFFFFF90FFFFFFFFF9FFFFFFFFFFFFFFFFFFFF90FFFFFFFFF9FFFFFFFFFFFFFFFFFFFF90FFFFFFFFF9FFFFFFFFFFFFFFFFFFFF90FFFFFFFFF9FFFFFFFFFFFFFFFFFFFF90FFFFFFFFF99999999999999999999990FFFFFFFFF990FFFFFFFFFFFFFFFFFFFFFFFFFFFFF990FFFFFFFFFFFFFFFFFFFFFFFFFFFFF990F
1004
FFFFFFFFFFFFFFFFFFFFFFFFFFFF990FFFFFFFFFFFFFFFFFFFFFFFFFFFFF990FFFFFFFFFFFFFFFFFFFFFFFFFFFFF990FFFFFFFFFFFFFFFFFFFFFFFFFFFFF990FFFFFFFFFFFFFFFFFFFFFFFFFFFFF990FFFFFFFFFFFFFFFFFFFFFFFFFFFFF90FFFFFFFFFFFFFFFFFFFFFFFFFF
  0
BLOCK_RECORD
  5
2FB
100
AcDbSymbolTableRecord
100
AcDbBlockTableRecord
  2
975011-750-10
1001
CONTENTBLOCKICON
1071
        0
1004
2800000020000000200000000100040000000000000200000000000000000000000000000000000000000000000080000080000000808000800000008000800080800000C0C0C000808080000000FF0000FF000000FFFF00FF000000FF00FF00FFFF0000FFFFFF00FFFFFFFFFFFFFFFFFFFFFFFFFFFFFFFFFFFFFFFFFFFFFF
1004
FFFFFFFFFFFFFFFFFFFFFFFFFFFFFFFFFFFFFFFFFFFFFFFFFFFFFFFFFFFFFFFFFFFFFFFFFFFFFFFFFFFFFFFFFFFFFFFFFFFFFFFFFFFFFFFFFF0F0000000000000000000000000000009999999999999999999999999999999F9999999999FFFFFFFFFFFFFFFFFFFF90FFFFFFFFF9FFFFFFFFFFFFFFFFFFFF90FFFFFFFFF9FF
1004
FFFFFFFFFFFFFFFFFF90FFFFFFFFF9FFFFFFFFFFFFFFFFFFFF90FFFFFFFFF9FFFFFFFFFFFFFFFFFFFF90FFFFFFFFF9FFFFFFFFFFFFFFFFFFFF90FFFFFFFFF9FFFFFFFFFFFFFFFFFFFF90FFFFFFFFFB999999999999999999999BFFFFFFFFFBFBFBFFFBBFBFFFBFBFFFBBFFFFFFFFFBBFBFFFBFFFFFBFFFBFBFBBFFFFFFFFFB
1004
FFBFBFBFBFBFBFBBFFFFFBFFFFFFFFFBB000B00B000B0B000B0BBBFFFFFFFFF09999999999999999999990FFFFFFFFF0FFFFFFFFFFFFFFFFFFFF90FFFFFFFFF0900FFFFFFFFFFFFFFFFF90FFFFFFFFF09000FFFFFFFFFFFFFFFF90FFFFFFFFF0909FFFFFFFFFFFFFFFFF90FFFFFFFFF0000FFFFFFFFFFFFFFFFF90FFFFFFFF
1004
FFFFF000FFFFFFFFFFFFFF90FFFFFFFFFFFFFFF0FFFFFFFFFFFFFF90FFFFFFFFFFFFFFF00000000000000090FFFFFFFFFFFFFFFFFFFFFFFFFFFFFFFFFFFFFFFFFFFFFFFFFFFFFFFFFFFFFFFFFFFFFFFFFFFFFFFFFFFFFFFFFFFFFFFFFFFFFFFFFFFFFFFFFFFFFFFFFFFFFFFF
  0
BLOCK_RECORD
  5
310
100
AcDbSymbolTableRecord
100
AcDbBlockTableRecord
  2
975010-750-10
1001
CONTENTBLOCKICON
1071
        0
1004
2800000020000000200000000100040000000000000200000000000000000000000000000000000000000000000080000080000000808000800000008000800080800000C0C0C000808080000000FF0000FF000000FFFF00FF000000FF00FF00FFFF0000FFFFFF00FF0000000000000000000000000000FF00999999999999
1004
99999999999999990F0FFFFFFFFFFFFFFFFFFFFFFFFFFFF9900FFFFFFFFFFFFFFFFFFFFFFFFFFFF9900FFFFFFFFFFFFFFFFFFFFFFFFFFFF9900FFFFFFFFFFFFFFFFFFFFFFFFFFFF9900FFFFFFFFFFFFFFFFFFFFFFFFFFFF9900FFFFFFFFFFFFFFFFFFFFFFFFFFFF9900FFFFFFFFFFFFFFFFFFFFFFFFFFFF9900FFFFFFFFFFF
1004
FFFFFFFFFFFFFFFFF9900FFFFFFFFFFFFFFFFFFFFFFFFFFFF9909FFFFFFFFFFFFFFFFFFFFFFFFFFFF990B00000000000000000000000000009BBBFFFFFFFFBFFFFBFFBFFBFFBFFFFFFFBBFFBFFBFFFFFFFFBFFFFFBFFFFBFFBFBBFFFBFFFFBBFBFFBFFBFFFFFFFFBFFFBBBFFBFFBFFFFFFFFBFFFFBFFBFFFFFFBBFFFFBFFFF
1004
BFFBFFFFFFFFBFFFFBBFBBBBB0000B000B0000B00B00000B000BBBF099999999999999999999999999990F0999999999999999999999999999999F0FFFFFFFFFFFFFFFFFFFFFFFFFFFF9900F90009FFFFFFFFFFFFFFFFFFFFFF990090FF09FFFFFFFFFFFFFFFFFFFFFF990090FF09FFFFFFFFFFFFFFFFFFFFFF990090FF0FF
1004
FFFFFFFFFFFFFFFFFFFFF990990F0FFFFFFFFFFFFFFFFFFFFFFFF990F00FF0000FFFFFFFFFFFFFFFFFFFF990FFFFFFFF0FFFFFFFFFFFFFFFFFFFF990FFFFFFFF09FFFFFFFFFFFFFFFFFFF990FFFFFFFFF0999999999999999999990FFFFFFFFFFF0000000000000000000FFF
  0
BLOCK_RECORD
  5
376
100
AcDbSymbolTableRecord
100
AcDbBlockTableRecord
  2
SP41520
  0
BLOCK_RECORD
  5
37C
100
AcDbSymbolTableRecord
100
AcDbBlockTableRecord
  2
*X26
  0
BLOCK_RECORD
  5
391
100
AcDbSymbolTableRecord
100
AcDbBlockTableRecord
  2
*X27
  0
BLOCK_RECORD
  5
3B9
100
AcDbSymbolTableRecord
100
AcDbBlockTableRecord
  2
*X28
  0
BLOCK_RECORD
  5
3DB
100
AcDbSymbolTableRecord
100
AcDbBlockTableRecord
  2
SP75021-750-10
  0
BLOCK_RECORD
  5
3E5
100
AcDbSymbolTableRecord
100
AcDbBlockTableRecord
  2
SP01502020
  0
BLOCK_RECORD
  5
6F0
100
AcDbSymbolTableRecord
100
AcDbBlockTableRecord
  2
*D48
  0
BLOCK_RECORD
  5
6FC
100
AcDbSymbolTableRecord
100
AcDbBlockTableRecord
  2
*D49
  0
BLOCK_RECORD
  5
708
100
AcDbSymbolTableRecord
100
AcDbBlockTableRecord
  2
*D50
  0
BLOCK_RECORD
  5
714
100
AcDbSymbolTableRecord
100
AcDbBlockTableRecord
  2
*D51
  0
BLOCK_RECORD
  5
720
100
AcDbSymbolTableRecord
100
AcDbBlockTableRecord
  2
*D52
  0
BLOCK_RECORD
  5
72C
100
AcDbSymbolTableRecord
100
AcDbBlockTableRecord
  2
*D53
  0
BLOCK_RECORD
  5
738
100
AcDbSymbolTableRecord
100
AcDbBlockTableRecord
  2
*D54
  0
BLOCK_RECORD
  5
744
100
AcDbSymbolTableRecord
100
AcDbBlockTableRecord
  2
*D55
  0
BLOCK_RECORD
  5
750
100
AcDbSymbolTableRecord
100
AcDbBlockTableRecord
  2
*D56
  0
BLOCK_RECORD
  5
75C
100
AcDbSymbolTableRecord
100
AcDbBlockTableRecord
  2
*D57
  0
BLOCK_RECORD
  5
768
100
AcDbSymbolTableRecord
100
AcDbBlockTableRecord
  2
*D58
  0
BLOCK_RECORD
  5
774
100
AcDbSymbolTableRecord
100
AcDbBlockTableRecord
  2
*D59
  0
BLOCK_RECORD
  5
780
100
AcDbSymbolTableRecord
100
AcDbBlockTableRecord
  2
*D60
  0
BLOCK_RECORD
  5
78C
100
AcDbSymbolTableRecord
100
AcDbBlockTableRecord
  2
*D61
  0
BLOCK_RECORD
  5
798
100
AcDbSymbolTableRecord
100
AcDbBlockTableRecord
  2
*D62
  0
BLOCK_RECORD
  5
7A4
100
AcDbSymbolTableRecord
100
AcDbBlockTableRecord
  2
*D63
  0
BLOCK_RECORD
  5
7B0
100
AcDbSymbolTableRecord
100
AcDbBlockTableRecord
  2
*D64
  0
ENDTAB
  0
ENDSEC
  0
SECTION
  2
BLOCKS
  0
BLOCK
  5
3
100
AcDbEntity
  8
0
100
AcDbBlockBegin
  2
*MODEL_SPACE
 70
     2
 10
0.0
 20
0.0
 30
0.0
  3
*MODEL_SPACE
  1

  0
ENDBLK
  5
6
100
AcDbEntity
  8
0
100
AcDbBlockEnd
  0
BLOCK
  5
8
100
AcDbEntity
 67
     1
  8
0
100
AcDbBlockBegin
  2
*PAPER_SPACE
 70
     0
 10
0.0
 20
0.0
 30
0.0
  3
*PAPER_SPACE
  1

  0
ENDBLK
  5
9
100
AcDbEntity
 67
     1
  8
0
100
AcDbBlockEnd
  0
BLOCK
  5
A0
100
AcDbEntity
  8
0
100
AcDbBlockBegin
  2
SP40020
 70
     0
 10
0.0
 20
0.0
 30
0.0
  3
SP40020
  1

  0
LINE
  5
8E
100
AcDbEntity
  8
CENTRUM
100
AcDbLine
 10
-13.0
 20
34.06657
 30
0.0
 11
-13.0
 21
18.0
 31
0.0
  0
LINE
  5
91
100
AcDbEntity
  8
GLAS_MED_FOGNING
100
AcDbLine
 10
-16.0
 20
23.5
 30
0.0
 11
-16.0
 21
22.0
 31
0.0
  0
LINE
  5
92
100
AcDbEntity
  8
GLAS_MED_FOGNING
100
AcDbLine
 10
-15.5
 20
23.5
 30
0.0
 11
-15.5
 21
21.0
 31
0.0
  0
LINE
  5
93
100
AcDbEntity
  8
GLAS_MED_FOGNING
100
AcDbLine
 10
-10.5
 20
23.5
 30
0.0
 11
-10.5
 21
21.0
 31
0.0
  0
LINE
  5
94
100
AcDbEntity
  8
GLAS_MED_FOGNING
100
AcDbLine
 10
-10.0
 20
23.5
 30
0.0
 11
-10.0
 21
22.0
 31
0.0
  0
LINE
  5
95
100
AcDbEntity
  8
GLAS_MED_FOGNING
100
AcDbLine
 10
-10.5
 20
21.0
 30
0.0
 11
-15.5
 21
21.0
 31
0.0
  0
LINE
  5
96
100
AcDbEntity
  8
GLAS_MED_FOGNING
100
AcDbLine
 10
-10.0
 20
22.0
 30
0.0
 11
-16.0
 21
22.0
 31
0.0
  0
LINE
  5
97
100
AcDbEntity
  8
GLAS_MED_FOGNING
100
AcDbLine
 10
-16.0
 20
22.0
 30
0.0
 11
-15.5
 21
21.0
 31
0.0
  0
LINE
  5
98
100
AcDbEntity
  8
GLAS_MED_FOGNING
100
AcDbLine
 10
-10.0
 20
22.0
 30
0.0
 11
-10.5
 21
21.0
 31
0.0
  0
LINE
  5
99
100
AcDbEntity
  8
GLAS_MED_FOGNING
100
AcDbLine
 10
-9.267949
 20
26.0
 30
0.0
 11
-16.73205
 21
26.0
 31
0.0
  0
LINE
  5
9A
100
AcDbEntity
  8
GLAS_MED_FOGNING
100
AcDbLine
 10
-8.196152
 20
30.0
 30
0.0
 11
-17.803848
 21
30.0
 31
0.0
  0
ARC
  5
9B
100
AcDbEntity
  8
GLAS_MED_FOGNING
100
AcDbCircle
 10
-13.0
 20
18.928391
 30
0.0
 40
12.068864
100
AcDbArc
 50
66.544514
 51
113.455486
  0
LINE
  5
9C
100
AcDbEntity
  8
GLAS_MED_FOGNING
100
AcDbLine
 10
-17.803848
 20
30.0
 30
0.0
 11
-16.73205
 21
26.0
 31
0.0
  0
LINE
  5
9D
100
AcDbEntity
  8
GLAS_MED_FOGNING
100
AcDbLine
 10
-16.73205
 20
26.0
 30
0.0
 11
-16.73205
 21
25.0
 31
0.0
  0
LINE
  5
9E
100
AcDbEntity
  8
GLAS_MED_FOGNING
100
AcDbLine
 10
-8.196152
 20
30.0
 30
0.0
 11
-9.267949
 21
26.0
 31
0.0
  0
LINE
  5
9F
100
AcDbEntity
  8
GLAS_MED_FOGNING
100
AcDbLine
 10
-9.267949
 20
26.0
 30
0.0
 11
-9.267949
 21
25.0
 31
0.0
  0
ENDBLK
  5
A1
100
AcDbEntity
  8
0
100
AcDbBlockEnd
  0
BLOCK
  5
A6
100
AcDbEntity
  8
0
100
AcDbBlockBegin
  2
SP91520
 70
     0
 10
0.0
 20
0.0
 30
0.0
  3
SP91520
  1

  0
INSERT
  5
8C
100
AcDbEntity
  8
GLAS_MED_FOGNING
100
AcDbBlockReference
  2
SP40020
 10
5.5
 20
0.0
 30
0.0
  0
LWPOLYLINE
  5
A2
100
AcDbEntity
  8
STALPROFIL
100
AcDbPolyline
 90
       12
 70
     0
 43
1.25
 10
-2.02546
 20
29.838243
 10
-2.872606
 20
26.676553
 42
0.395246
 10
-1.75
 20
25.625
 42
0.414213
 10
-0.625
 20
26.749998
 10
-0.625
 20
43.0
 42
0.414214
 10
-2.0
 20
44.375
 10
-13.0
 20
44.375
 42
0.414214
 10
-14.375
 20
43.0
 10
-14.375
 20
26.749999
 42
0.414213
 10
-13.249964
 20
25.625
 42
0.395246
 10
-12.127394
 20
26.676553
 10
-12.97454
 20
29.838243
  0
LWPOLYLINE
  5
A4
100
AcDbEntity
  8
SPKONTUR
100
AcDbPolyline
 90
       13
 70
     0
 43
0.0
 10
-2.629165
 20
30.0
 10
-3.5
 20
26.7499
 42
0.41423
 10
-1.75
 20
25.0
 42
0.414213
 10
0.0
 20
26.749998
 10
0.0
 20
43.0
 42
0.414214
 10
-2.0
 20
45.0
 10
-7.5
 20
45.0
 10
-13.0
 20
45.0
 42
0.414214
 10
-15.0
 20
43.0
 10
-15.0
 20
26.749998
 42
0.414213
 10
-13.25
 20
25.0
 42
0.41423
 10
-11.5
 20
26.7499
 10
-12.370835
 20
30.0
  0
ENDBLK
  5
A7
100
AcDbEntity
  8
0
100
AcDbBlockEnd
  0
BLOCK
  5
75
100
AcDbEntity
  8
0
100
AcDbBlockBegin
  2
RAMA4
 70
     2
 10
0.0
 20
0.0
 30
0.0
  3
RAMA4
  1

  0
LINE
  5
39
100
AcDbEntity
  8
RAM
100
AcDbLine
 10
-0.000033
 20
573.999992
 30
0.0
 11
-0.000033
 21
-0.000008
 31
0.0
  0
LINE
  5
3A
100
AcDbEntity
  8
RAM
100
AcDbLine
 10
419.999967
 20
-0.000008
 30
0.0
 11
419.999967
 21
573.999992
 31
0.0
  0
LINE
  5
3B
100
AcDbEntity
  8
RAM
100
AcDbLine
 10
419.999967
 20
573.999992
 30
0.0
 11
-0.000033
 21
573.999992
 31
0.0
  0
LINE
  5
3C
100
AcDbEntity
  8
RAM
100
AcDbLine
 10
9.999967
 20
593.999992
 30
0.0
 11
9.999967
 21
573.999992
 31
0.0
  0
LINE
  5
3D
100
AcDbEntity
  8
RAM
100
AcDbLine
 10
55.999967
 20
573.999992
 30
0.0
 11
55.999967
 21
593.999992
 31
0.0
  0
LINE
  5
3E
100
AcDbEntity
  8
RAM
100
AcDbLine
 10
245.999967
 20
573.999992
 30
0.0
 11
245.999967
 21
593.999992
 31
0.0
  0
LINE
  5
3F
100
AcDbEntity
  8
RAM
100
AcDbLine
 10
-20.000033
 20
286.999992
 30
0.0
 11
-0.000033
 21
286.999992
 31
0.0
  0
LINE
  5
40
100
AcDbEntity
  8
RAM
100
AcDbLine
 10
439.999967
 20
286.999992
 30
0.0
 11
419.999967
 21
286.999992
 31
0.0
  0
LINE
  5
41
100
AcDbEntity
  8
RAM
100
AcDbLine
 10
249.999967
 20
19.999992
 30
0.0
 11
419.999967
 21
19.999992
 31
0.0
  0
LINE
  5
42
100
AcDbEntity
  8
RAM
100
AcDbLine
 10
-0.000033
 20
-0.000008
 30
0.0
 11
419.999967
 21
-0.000008
 31
0.0
  0
LINE
  5
43
100
AcDbEntity
  8
RAM
100
AcDbLine
 10
-0.000033
 20
33.999992
 30
0.0
 11
419.999967
 21
33.999992
 31
0.0
  0
LINE
  5
44
100
AcDbEntity
  8
RAM
100
AcDbLine
 10
-0.000033
 20
49.999992
 30
0.0
 11
419.999967
 21
49.999992
 31
0.0
  0
LINE
  5
45
100
AcDbEntity
  8
RAM
100
AcDbLine
 10
9.999967
 20
-20.000008
 30
0.0
 11
9.999967
 21
-0.000008
 31
0.0
  0
TEXT
  5
46
100
AcDbEntity
  8
RAMTEXT
 62
     6
100
AcDbText
 10
71.999967
 20
43.999992
 30
0.0
 40
3.6
  1
Kop.
 41
0.8
  7
ROMANS
100
AcDbText
  0
ATTDEF
  5
47
100
AcDbEntity
  8
RAMTEXT
 62
     6
100
AcDbText
 10
87.214155
 20
37.261701
 30
0.0
 40
4.5
  1
 
  7
ISO
 72
     1
 11
87.999967
 21
37.261701
 31
0.0
100
AcDbAttributeDefinition
  3
Kopierad
  2
COPIED
 70
     0
  0
ATTDEF
  5
48
100
AcDbEntity
  8
RAMTEXT
 62
     6
100
AcDbText
 10
51.214155
 20
37.261701
 30
0.0
 40
4.5
  1
 
  7
ISO
 72
     1
 11
51.999967
 21
37.261701
 31
0.0
100
AcDbAttributeDefinition
  3
Ritad av
  2
DOC_DESIGNER
 70
     0
  0
TEXT
  5
49
100
AcDbEntity
  8
TEXT
 62
     1
100
AcDbText
 10
17.762344
 20
10.346862
 30
0.0
 40
9.0
  1
STALPROFIL AB
 41
0.8
  7
ROMANS
100
AcDbText
  0
LINE
  5
4A
100
AcDbEntity
  8
RAM
100
AcDbLine
 10
-0.000033
 20
-0.000008
 30
0.0
 11
-0.000033
 21
49.999992
 31
0.0
  0
ATTDEF
  5
4B
100
AcDbEntity
  8
RAMTEXT
 62
     6
100
AcDbText
 10
3.941003
 20
5.47778
 30
0.0
 40
6.3
  1

  7
ISO
100
AcDbAttributeDefinition
  3
Firma
  2
LG_DESC_1
 70
     0
  0
TEXT
  5
4C
100
AcDbEntity
  8
RAMTEXT
 62
     6
100
AcDbText
 10
3.941003
 20
27.999992
 30
0.0
 40
3.6
  1
Firma
 41
0.8
  7
ROMANS
100
AcDbText
  0
LWPOLYLINE
  5
4D
100
AcDbEntity
  8
TEXT
 62
     1
100
AcDbPolyline
 90
       12
 70
     1
 43
0.8
 10
10.159602
 20
17.422598
 42
1.000001
 10
10.088892
 20
17.351887
 10
12.031175
 20
15.409604
 42
-0.414214
 10
12.031175
 20
11.803359
 10
9.861936
 20
9.63412
 42
-0.198912
 10
8.058814
 20
8.887243
 10
6.174247
 20
8.887243
 42
1.0
 10
6.174247
 20
8.787243
 10
9.135769
 20
8.787243
 42
0.198912
 10
9.171125
 20
8.801887
 10
13.940363
 20
13.571126
 42
0.414214
 10
13.940363
 20
13.641837
  0
LWPOLYLINE
  5
4E
100
AcDbEntity
  8
TEXT
 62
     1
100
AcDbPolyline
 90
       12
 70
     1
 43
1.3
 10
9.16653
 20
12.987243
 42
1.0
 10
10.085769
 20
13.906481
 10
8.143486
 20
15.848765
 42
-0.414214
 10
8.143486
 20
18.606481
 10
10.312725
 20
20.77572
 42
-0.198912
 10
11.691583
 20
21.346862
 10
13.57615
 20
21.346862
 42
1.0
 10
13.57615
 20
22.646862
 10
10.614627
 20
22.646862
 42
0.198912
 10
10.155008
 20
22.456481
 10
5.385769
 20
17.687243
 42
0.414214
 10
5.385769
 20
16.768004
  0
LWPOLYLINE
  5
4F
100
AcDbEntity
  8
TEXT
 62
     1
100
AcDbPolyline
 90
       12
 70
     1
 43
0.8
 10
9.590795
 20
13.411507
 42
1.000001
 10
9.661505
 20
13.482217
 10
7.719222
 20
15.424501
 42
-0.414214
 10
7.719222
 20
19.030745
 10
9.88846
 20
21.199984
 42
-0.198912
 10
11.691583
 20
21.946862
 10
13.57615
 20
21.946862
 42
1.0
 10
13.57615
 20
22.046862
 10
10.614627
 20
22.046862
 42
0.198912
 10
10.579272
 20
22.032217
 10
5.810033
 20
17.262978
 42
0.414214
 10
5.810033
 20
17.192268
  0
LWPOLYLINE
  5
50
100
AcDbEntity
  8
TEXT
 62
     1
100
AcDbPolyline
 90
       12
 70
     1
 43
1.3
 10
10.583866
 20
17.846862
 42
1.0
 10
9.664627
 20
16.927623
 10
11.606911
 20
14.98534
 42
-0.414214
 10
11.606911
 20
12.227623
 10
9.437672
 20
10.058384
 42
-0.198912
 10
8.058814
 20
9.487243
 10
6.174247
 20
9.487243
 42
1.0
 10
6.174247
 20
8.187243
 10
9.135769
 20
8.187243
 42
0.198912
 10
9.595389
 20
8.377623
 10
14.364627
 20
13.146862
 42
0.414214
 10
14.364627
 20
14.066101
  0
CIRCLE
  5
51
100
AcDbEntity
  8
TEXT
 62
     1
100
AcDbCircle
 10
33.196897
 20
21.642379
 30
0.0
 40
1.021132
  0
LINE
  5
52
100
AcDbEntity
  8
RAM
100
AcDbLine
 10
50.999967
 20
-10.000008
 30
0.0
 11
55.999967
 21
-0.000008
 31
0.0
  0
LINE
  5
53
100
AcDbEntity
  8
RAM
100
AcDbLine
 10
55.999967
 20
-0.000008
 30
0.0
 11
60.999967
 21
-10.000008
 31
0.0
  0
ATTDEF
  5
54
100
AcDbEntity
  8
RAMTEXT
 62
     6
100
AcDbText
 10
17.214155
 20
37.261701
 30
0.0
 40
4.5
  1
 
  7
ISO
 72
     1
 11
17.999967
 21
37.261701
 31
0.0
100
AcDbAttributeDefinition
  3
Konstrukt\U+0094r
  2
DOC_DESIGNER
 70
     0
  0
TEXT
  5
55
100
AcDbEntity
  8
RAMTEXT
 62
     6
100
AcDbText
 10
1.999967
 20
43.999992
 30
0.0
 40
3.6
  1
Konstr.
 41
0.8
  7
ROMANS
100
AcDbText
  0
LINE
  5
56
100
AcDbEntity
  8
RAM
100
AcDbLine
 10
-0.000033
 20
49.999992
 30
0.0
 11
-0.000033
 21
63.999992
 31
0.0
  0
TEXT
  5
57
100
AcDbEntity
  8
RAMTEXT
 62
     6
100
AcDbText
 10
37.999967
 20
43.999992
 30
0.0
 40
3.6
  1
Ritad
 41
0.8
  7
ROMANS
100
AcDbText
  0
LINE
  5
58
100
AcDbEntity
  8
RAM
100
AcDbLine
 10
69.999967
 20
49.999992
 30
0.0
 11
69.999967
 21
33.999992
 31
0.0
  0
LINE
  5
59
100
AcDbEntity
  8
RAM
100
AcDbLine
 10
34.999967
 20
49.999992
 30
0.0
 11
34.999967
 21
33.999992
 31
0.0
  0
LINE
  5
5A
100
AcDbEntity
  8
RAM
100
AcDbLine
 10
104.999967
 20
49.999992
 30
0.0
 11
104.999967
 21
-0.000008
 31
0.0
  0
ATTDEF
  5
5B
100
AcDbEntity
  8
RAMTEXT
 62
     6
100
AcDbText
 10
109.941003
 20
5.47778
 30
0.0
 40
6.3
  1

  7
ISO
100
AcDbAttributeDefinition
  3
Titelrad 2
  2
DOC_DESC2
 70
     0
  0
ATTDEF
  5
5C
100
AcDbEntity
  8
RAMTEXT
 62
     6
100
AcDbText
 10
109.941003
 20
17.47778
 30
0.0
 40
6.3
  1

  7
ISO
100
AcDbAttributeDefinition
  3
Titelrad 1 (av 2)
  2
DOC_DESC1
 70
     0
  0
TEXT
  5
5D
100
AcDbEntity
  8
RAMTEXT
 62
     6
100
AcDbText
 10
109.941003
 20
27.999992
 30
0.0
 40
3.6
  1
Titel
 41
0.8
  7
ROMANS
100
AcDbText
  0
ATTDEF
  5
5E
100
AcDbEntity
  8
RAMTEXT
 62
     6
100
AcDbText
 10
121.214155
 20
37.261701
 30
0.0
 40
4.5
  1
 
  7
ISO
 72
     1
 11
121.999967
 21
37.261701
 31
0.0
100
AcDbAttributeDefinition
  3
Kontrollerad
  2
CHECK
 70
     0
  0
TEXT
  5
5F
100
AcDbEntity
  8
RAMTEXT
 62
     6
100
AcDbText
 10
107.999967
 20
43.999992
 30
0.0
 40
3.6
  1
Kontr.
 41
0.8
  7
ROMANS
100
AcDbText
  0
TEXT
  5
60
100
AcDbEntity
  8
RAMTEXT
 62
     6
100
AcDbText
 10
141.999967
 20
43.999992
 30
0.0
 40
3.6
  1
Stand.
 41
0.8
  7
ROMANS
100
AcDbText
  0
ATTDEF
  5
61
100
AcDbEntity
  8
RAMTEXT
 62
     6
100
AcDbText
 10
157.214155
 20
37.261701
 30
0.0
 40
4.5
  1
 
  7
ISO
 72
     1
 11
157.999967
 21
37.261701
 31
0.0
100
AcDbAttributeDefinition
  3
Standard
  2
STAND
 70
     0
  0
LINE
  5
62
100
AcDbEntity
  8
RAM
100
AcDbLine
 10
139.999967
 20
49.999992
 30
0.0
 11
139.999967
 21
33.999992
 31
0.0
  0
TEXT
  5
63
100
AcDbEntity
  8
RAMTEXT
 62
     6
100
AcDbText
 10
251.999967
 20
13.999992
 30
0.0
 40
3.6
  1
Ritn.-nr
 41
0.8
  7
ROMANS
100
AcDbText
  0
TEXT
  5
64
100
AcDbEntity
  8
RAMTEXT
 62
     6
100
AcDbText
 10
251.999967
 20
27.999992
 30
0.0
 40
3.6
  1
Regist.nr
 41
0.8
  7
ROMANS
100
AcDbText
  0
TEXT
  5
65
100
AcDbEntity
  8
RAMTEXT
 62
     6
100
AcDbText
 10
251.999967
 20
43.999992
 30
0.0
 40
3.6
  1
Ersätter
 41
0.8
  7
ROMANS
100
AcDbText
  0
ATTDEF
  5
66
100
AcDbEntity
  8
RAMTEXT
 62
     6
100
AcDbText
 10
295.999967
 20
5.47778
 30
0.0
 40
6.3
  1

  7
ISO
 72
     1
 11
295.999967
 21
5.47778
 31
0.0
100
AcDbAttributeDefinition
  3
Ritningsnummer
  2
DOC_FILE_NAME
 70
     0
  0
LINE
  5
67
100
AcDbEntity
  8
RAM
100
AcDbLine
 10
249.999967
 20
49.999992
 30
0.0
 11
249.999967
 21
-0.000008
 31
0.0
  0
TEXT
  5
68
100
AcDbEntity
  8
RAMTEXT
 62
     6
100
AcDbText
 10
211.999967
 20
43.999992
 30
0.0
 40
3.6
  1
Skala
 41
0.8
  7
ROMANS
100
AcDbText
  0
TEXT
  5
69
100
AcDbEntity
  8
RAMTEXT
 62
     6
100
AcDbText
 10
177.999967
 20
43.999992
 30
0.0
 40
3.6
  1
Godk.
 41
0.8
  7
ROMANS
100
AcDbText
  0
ATTDEF
  5
6A
100
AcDbEntity
  8
RAMTEXT
 62
     6
100
AcDbText
 10
191.214155
 20
37.261701
 30
0.0
 40
4.5
  1
 
  7
ISO
 72
     1
 11
191.999967
 21
37.261701
 31
0.0
100
AcDbAttributeDefinition
  3
Godk\U+0084nd
  2
GODK
 70
     0
  0
LINE
  5
6B
100
AcDbEntity
  8
RAM
100
AcDbLine
 10
209.999967
 20
49.999992
 30
0.0
 11
209.999967
 21
33.999992
 31
0.0
  0
LINE
  5
6C
100
AcDbEntity
  8
RAM
100
AcDbLine
 10
174.999967
 20
49.999992
 30
0.0
 11
174.999967
 21
33.999992
 31
0.0
  0
ATTDEF
  5
6D
100
AcDbEntity
  8
RAMTEXT
 62
     6
100
AcDbText
 10
225.865247
 20
37.261701
 30
0.0
 40
4.5
  1
1:1
  7
ISO
 72
     1
 11
229.999967
 21
37.261701
 31
0.0
100
AcDbAttributeDefinition
  3
Skala
  2
SCALE
 70
     0
  0
LINE
  5
6E
100
AcDbEntity
  8
RAM
100
AcDbLine
 10
294.999967
 20
49.999992
 30
0.0
 11
294.999967
 21
19.999992
 31
0.0
  0
ATTDEF
  5
6F
100
AcDbEntity
  8
RAMTEXT
 62
     6
100
AcDbText
 10
317.999967
 20
22.032344
 30
0.0
 40
4.5
  1

  7
ISO
 72
     1
 11
317.999967
 21
22.032344
 31
0.0
100
AcDbAttributeDefinition
  3
Datum
  2
DOC_LASTEDIT_DATE
 70
     0
  0
TEXT
  5
70
100
AcDbEntity
  8
RAMTEXT
 62
     6
100
AcDbText
 10
297.999967
 20
27.999992
 30
0.0
 40
3.6
  1
Dat.
 41
0.8
  7
ROMANS
100
AcDbText
  0
ATTDEF
  5
71
100
AcDbEntity
  8
RAMTEXT
 62
     6
100
AcDbText
 10
271.999967
 20
22.032344
 30
0.0
 40
4.5
  1

  7
ISO
 72
     1
 11
271.999967
 21
22.032344
 31
0.0
100
AcDbAttributeDefinition
  3
Registernummer
  2
REG
 70
     0
  0
TEXT
  5
72
100
AcDbEntity
  8
RAMTEXT
 62
     6
100
AcDbText
 10
297.999967
 20
43.999992
 30
0.0
 40
3.6
  1
Ersatt av
 41
0.8
  7
ROMANS
100
AcDbText
  0
ATTDEF
  5
73
100
AcDbEntity
  8
RAMTEXT
 62
     6
100
AcDbText
 10
317.214155
 20
37.261701
 30
0.0
 40
4.5
  1
 
  7
ISO
 72
     1
 11
317.999967
 21
37.261701
 31
0.0
100
AcDbAttributeDefinition
  3
Ersatt av
  2
REPL_BY
 70
     0
  0
ATTDEF
  5
74
100
AcDbEntity
  8
RAMTEXT
 62
     6
100
AcDbText
 10
271.214155
 20
37.261701
 30
0.0
 40
4.5
  1
 
  7
ISO
 72
     1
 11
271.999967
 21
37.261701
 31
0.0
100
AcDbAttributeDefinition
  3
Ers\U+0084tter
  2
REPL
 70
     0
  0
ENDBLK
  5
76
100
AcDbEntity
  8
0
100
AcDbBlockEnd
  0
BLOCK
  5
D9
100
AcDbEntity
  8
0
100
AcDbBlockBegin
  2
*X5
 70
     1
 10
0.0
 20
0.0
 30
0.0
  3
*X5
  1

  0
LINE
  5
BA
100
AcDbEntity
  8
0
 62
     0
100
AcDbLine
 10
-21.146165
 20
-6.412563
 30
0.0
 11
-22.466847
 21
-3.580351
 31
0.0
  0
LINE
  5
BB
100
AcDbEntity
  8
0
 62
     0
100
AcDbLine
 10
-23.787529
 20
-0.748139
 30
0.0
 11
-25.108211
 21
2.084073
 31
0.0
  0
LINE
  5
BC
100
AcDbEntity
  8
0
 62
     0
100
AcDbLine
 10
-26.428893
 20
4.916285
 30
0.0
 11
-27.749575
 21
7.748497
 31
0.0
  0
LINE
  5
BD
100
AcDbEntity
  8
0
 62
     0
100
AcDbLine
 10
-29.070257
 20
10.580708
 30
0.0
 11
-30.0
 21
12.574548
 31
0.0
  0
LINE
  5
BE
100
AcDbEntity
  8
0
 62
     0
100
AcDbLine
 10
-20.016331
 20
-16.22988
 30
0.0
 11
-21.337013
 21
-13.397668
 31
0.0
  0
LINE
  5
BF
100
AcDbEntity
  8
0
 62
     0
100
AcDbLine
 10
-22.657695
 20
-10.565457
 30
0.0
 11
-23.978377
 21
-7.733245
 31
0.0
  0
LINE
  5
C0
100
AcDbEntity
  8
0
 62
     0
100
AcDbLine
 10
-25.299059
 20
-4.901033
 30
0.0
 11
-26.619741
 21
-2.068821
 31
0.0
  0
LINE
  5
C1
100
AcDbEntity
  8
0
 62
     0
100
AcDbLine
 10
-27.940423
 20
0.763391
 30
0.0
 11
-29.261105
 21
3.595603
 31
0.0
  0
LINE
  5
C2
100
AcDbEntity
  8
0
 62
     0
100
AcDbLine
 10
-20.0
 20
-23.659281
 30
0.0
 11
-20.207178
 21
-23.214986
 31
0.0
  0
LINE
  5
C3
100
AcDbEntity
  8
0
 62
     0
100
AcDbLine
 10
-21.52786
 20
-20.382774
 30
0.0
 11
-22.848542
 21
-17.550562
 31
0.0
  0
LINE
  5
C4
100
AcDbEntity
  8
0
 62
     0
100
AcDbLine
 10
-24.169224
 20
-14.71835
 30
0.0
 11
-25.489907
 21
-11.886139
 31
0.0
  0
LINE
  5
C5
100
AcDbEntity
  8
0
 62
     0
100
AcDbLine
 10
-26.810589
 20
-9.053927
 30
0.0
 11
-28.131271
 21
-6.221715
 31
0.0
  0
LINE
  5
C6
100
AcDbEntity
  8
0
 62
     0
100
AcDbLine
 10
-29.451953
 20
-3.389503
 30
0.0
 11
-30.0
 21
-2.214212
 31
0.0
  0
LINE
  5
C7
100
AcDbEntity
  8
0
 62
     0
100
AcDbLine
 10
-23.03939
 20
-24.535668
 30
0.0
 11
-24.360072
 21
-21.703456
 31
0.0
  0
LINE
  5
C8
100
AcDbEntity
  8
0
 62
     0
100
AcDbLine
 10
-25.680754
 20
-18.871244
 30
0.0
 11
-27.001436
 21
-16.039033
 31
0.0
  0
LINE
  5
C9
100
AcDbEntity
  8
0
 62
     0
100
AcDbLine
 10
-28.322118
 20
-13.206821
 30
0.0
 11
-29.6428
 21
-10.374609
 31
0.0
  0
LINE
  5
CA
100
AcDbEntity
  8
0
 62
     0
100
AcDbLine
 10
-27.192284
 20
-23.024138
 30
0.0
 11
-28.512966
 21
-20.191926
 31
0.0
  0
LINE
  5
CB
100
AcDbEntity
  8
0
 62
     0
100
AcDbLine
 10
-29.833648
 20
-17.359715
 30
0.0
 11
-30.0
 21
-17.002972
 31
0.0
  0
LINE
  5
CC
100
AcDbEntity
  8
0
 62
     0
100
AcDbLine
 10
-29.718981
 20
-25.0
 30
0.0
 11
-30.0
 21
-24.397352
 31
0.0
  0
LINE
  5
CD
100
AcDbEntity
  8
0
 62
     0
100
AcDbLine
 10
-20.0
 20
-1.476141
 30
0.0
 11
-20.955317
 21
0.572543
 31
0.0
  0
LINE
  5
CE
100
AcDbEntity
  8
0
 62
     0
100
AcDbLine
 10
-22.275999
 20
3.404755
 30
0.0
 11
-23.596681
 21
6.236967
 31
0.0
  0
LINE
  5
CF
100
AcDbEntity
  8
0
 62
     0
100
AcDbLine
 10
-24.917363
 20
9.069179
 30
0.0
 11
-26.238045
 21
11.90139
 31
0.0
  0
LINE
  5
D0
100
AcDbEntity
  8
0
 62
     0
100
AcDbLine
 10
-27.558728
 20
14.733602
 30
0.0
 11
-28.87941
 21
17.565814
 31
0.0
  0
LINE
  5
D1
100
AcDbEntity
  8
0
 62
     0
100
AcDbLine
 10
-20.76447
 20
7.557649
 30
0.0
 11
-22.085152
 21
10.389861
 31
0.0
  0
LINE
  5
D2
100
AcDbEntity
  8
0
 62
     0
100
AcDbLine
 10
-23.405834
 20
13.222073
 30
0.0
 11
-24.726516
 21
16.054284
 31
0.0
  0
LINE
  5
D3
100
AcDbEntity
  8
0
 62
     0
100
AcDbLine
 10
-26.047198
 20
18.886496
 30
0.0
 11
-27.36788
 21
21.718708
 31
0.0
  0
LINE
  5
D4
100
AcDbEntity
  8
0
 62
     0
100
AcDbLine
 10
-28.688562
 20
24.55092
 30
0.0
 11
-28.897971
 21
25.0
 31
0.0
  0
LINE
  5
D5
100
AcDbEntity
  8
0
 62
     0
100
AcDbLine
 10
-20.0
 20
13.312619
 30
0.0
 11
-20.573622
 21
14.542755
 31
0.0
  0
LINE
  5
D6
100
AcDbEntity
  8
0
 62
     0
100
AcDbLine
 10
-21.894304
 20
17.374966
 30
0.0
 11
-23.214986
 21
20.207178
 31
0.0
  0
LINE
  5
D7
100
AcDbEntity
  8
0
 62
     0
100
AcDbLine
 10
-24.535668
 20
23.03939
 30
0.0
 11
-25.449915
 21
25.0
 31
0.0
  0
LINE
  5
D8
100
AcDbEntity
  8
0
 62
     0
100
AcDbLine
 10
-20.382774
 20
21.52786
 30
0.0
 11
-21.703456
 21
24.360072
 31
0.0
  0
ENDBLK
  5
DA
100
AcDbEntity
  8
0
100
AcDbBlockEnd
  0
BLOCK
  5
1B0
100
AcDbEntity
  8
0
100
AcDbBlockBegin
  2
SP975021-750-10
 70
     0
 10
0.0
 20
0.0
 30
0.0
  3
SP975021-750-10
  1

  0
LWPOLYLINE
  5
1A9
100
AcDbEntity
  8
SPKONTUR
100
AcDbPolyline
 90
       11
 70
     1
 43
0.0
 10
-46.4
 20
25.0
 10
-31.8
 20
25.0
 42
-0.414214
 10
-30.0
 20
23.2
 10
-30.0
 20
-23.2
 42
-0.414214
 10
-31.8
 20
-25.0
 10
-48.2
 20
-25.0
 42
-0.414214
 10
-50.0
 20
-23.2
 10
-50.0
 20
43.2
 42
-0.414214
 10
-48.2
 20
45.0
 10
-48.199
 20
45.0
 42
-0.414214
 10
-46.4
 20
43.201
  0
LWPOLYLINE
  5
1AA
100
AcDbEntity
  8
STALPROFIL
100
AcDbPolyline
 90
       11
 70
     1
 43
1.8
 10
-46.4
 20
24.1
 10
-31.8
 20
24.1
 42
-0.414214
 10
-30.9
 20
23.2
 10
-30.9
 20
-23.2
 42
-0.414214
 10
-31.8
 20
-24.1
 10
-48.2
 20
-24.1
 42
-0.414214
 10
-49.1
 20
-23.2
 10
-49.1
 20
43.2
 42
-0.414214
 10
-48.199
 20
44.1
 42
-0.414214
 10
-47.3
 20
43.201
 10
-47.3
 20
25.0
 42
0.414214
  0
INSERT
  5
1AB
100
AcDbEntity
  8
GLAS_MED_FOGNING
100
AcDbBlockReference
  2
*X5
 10
0.0
 20
0.0
 30
0.0
1001
ACAD
1000
HATCH
1002
{
1070
    16
1000
DASH
1040
25.0
1040
2.007129
1002
}
  0
LWPOLYLINE
  5
1AC
100
AcDbEntity
  8
SPKONTUR
100
AcDbPolyline
 90
        8
 70
     1
 43
0.0
 10
-20.0
 20
23.2
 42
-0.414214
 10
-18.2
 20
25.0
 10
-1.8
 20
25.0
 42
-0.414214
 10
0.0
 20
23.2
 10
0.0
 20
-23.2
 42
-0.414214
 10
-1.8
 20
-25.0
 10
-18.2
 20
-25.0
 42
-0.414214
 10
-20.0
 20
-23.2
  0
LWPOLYLINE
  5
1AD
100
AcDbEntity
  8
STALPROFIL
100
AcDbPolyline
 90
        8
 70
     1
 43
1.8
 10
-19.1
 20
23.2
 42
-0.414214
 10
-18.2
 20
24.1
 10
-1.8
 20
24.1
 42
-0.414214
 10
-0.9
 20
23.2
 10
-0.9
 20
-23.2
 42
-0.414214
 10
-1.8
 20
-24.1
 10
-18.2
 20
-24.1
 42
-0.414214
 10
-19.1
 20
-23.2
  0
LWPOLYLINE
  5
1AE
100
AcDbEntity
  8
GLAS_MED_FOGNING
100
AcDbPolyline
 90
        4
 70
     0
 43
0.0
 10
-20.0
 20
-23.2
 10
-20.0
 20
-25.0
 10
-30.0
 20
-25.0
 10
-30.0
 20
-23.2
  0
LWPOLYLINE
  5
1AF
100
AcDbEntity
  8
GLAS_MED_FOGNING
100
AcDbPolyline
 90
        4
 70
     0
 43
0.0
 10
-20.0
 20
23.2
 10
-20.0
 20
25.0
 10
-30.0
 20
25.0
 10
-30.0
 20
23.2
  0
ENDBLK
  5
1B1
100
AcDbEntity
  8
0
100
AcDbBlockEnd
  0
BLOCK
  5
2E6
100
AcDbEntity
  8
0
100
AcDbBlockBegin
  2
SP95011
 70
     0
 10
0.0
 20
0.0
 30
0.0
  3
SP95011
  1

  0
LWPOLYLINE
  5
2E7
100
AcDbEntity
  8
STALPROFIL
100
AcDbPolyline
 90
       27
 70
     1
 43
1.5
 10
-23.5
 20
-6.75
 42
-0.414214
 10
-22.75
 20
-7.5
 10
-22.75
 20
-12.0
 42
0.414214
 10
-20.5
 20
-14.25
 10
-18.5
 20
-14.25
 42
0.414214
 10
-16.25
 20
-12.0
 42
0.198912
 10
-16.90901
 20
-10.40901
 10
-17.59099
 20
-9.727029
 42
-0.198912
 10
-18.25
 20
-8.136039
 10
-18.25
 20
-8.0
 42
-0.414214
 10
-16.0
 20
-5.75
 10
-13.5
 20
-5.75
 42
0.414214
 10
-11.25
 20
-3.5
 10
-11.25
 20
-3.0
 42
-0.414214
 10
-9.0
 20
-0.75
 10
22.5
 20
-0.75
 42
-0.414214
 10
24.25
 20
-2.5
 10
24.25
 20
-47.5
 42
-0.414214
 10
22.5
 20
-49.25
 10
-43.501
 20
-49.25
 42
-0.414214
 10
-44.25
 20
-48.501
 10
-44.25
 20
-48.5
 42
-0.414214
 10
-43.5
 20
-47.75
 10
-26.5
 20
-47.75
 42
0.414214
 10
-24.25
 20
-45.5
 10
-24.25
 20
-7.499
 42
-0.414214
 10
-23.501
 20
-6.75
  0
LWPOLYLINE
  5
2E8
100
AcDbEntity
  8
SPKONTUR
100
AcDbPolyline
 90
       28
 70
     1
 43
0.0
 10
-23.5
 20
-6.0
 42
-0.414214
 10
-22.0
 20
-7.5
 10
-22.0
 20
-12.0
 42
0.414214
 10
-20.5
 20
-13.5
 10
-18.5
 20
-13.5
 42
0.414214
 10
-17.0
 20
-12.0
 42
0.198912
 10
-17.43934
 20
-10.93934
 10
-18.12132
 20
-10.257359
 42
-0.198912
 10
-19.0
 20
-8.136039
 10
-19.0
 20
-8.0
 42
-0.414214
 10
-16.0
 20
-5.0
 10
-13.5
 20
-5.0
 42
0.414214
 10
-12.0
 20
-3.5
 10
-12.0
 20
-3.0
 42
-0.414214
 10
-9.0
 20
0.0
 10
22.5
 20
0.0
 42
-0.414214
 10
25.0
 20
-2.5
 10
25.0
 20
-47.5
 42
-0.414214
 10
22.5
 20
-50.0
 10
-43.501
 20
-50.0
 42
-0.414214
 10
-45.0
 20
-48.501
 10
-45.0
 20
-48.5
 42
-0.414214
 10
-43.5
 20
-47.0
 10
-26.5
 20
-47.0
 42
0.414214
 10
-25.0
 20
-45.5
 10
-25.0
 20
-13.5
 10
-25.0
 20
-7.499
 42
-0.414214
 10
-23.501
 20
-6.0
  0
ENDBLK
  5
2E9
100
AcDbEntity
  8
0
100
AcDbBlockEnd
  0
BLOCK
  5
2EE
100
AcDbEntity
  8
0
100
AcDbBlockBegin
  2
SP95021
 70
     0
 10
0.0
 20
0.0
 30
0.0
  3
SP95021
  1

  0
LWPOLYLINE
  5
2EC
100
AcDbEntity
  8
SPKONTUR
100
AcDbPolyline
 90
       12
 70
     1
 43
0.0
 10
-47.0
 20
43.501
 10
-47.0
 20
26.5
 42
0.414214
 10
-45.5
 20
25.0
 10
-2.5
 20
25.0
 42
-0.414214
 10
0.0
 20
22.5
 10
0.0
 20
-22.5
 42
-0.414214
 10
-2.5
 20
-25.0
 10
-47.5
 20
-25.0
 42
-0.414214
 10
-50.0
 20
-22.5
 10
-50.0
 20
43.5
 42
-0.414214
 10
-48.5
 20
45.0
 10
-48.499
 20
45.0
 42
-0.414214
  0
LWPOLYLINE
  5
2ED
100
AcDbEntity
  8
STALPROFIL
100
AcDbPolyline
 90
       11
 70
     1
 43
1.5
 10
-47.75
 20
43.501
 10
-47.75
 20
26.5
 42
0.414214
 10
-45.5
 20
24.25
 10
-2.5
 20
24.25
 42
-0.414214
 10
-0.75
 20
22.5
 10
-0.75
 20
-22.5
 42
-0.414214
 10
-2.5
 20
-24.25
 10
-47.5
 20
-24.25
 42
-0.414214
 10
-49.25
 20
-22.5
 10
-49.25
 20
43.5
 42
-0.414214
 10
-48.499
 20
44.25
 42
-0.414214
  0
ENDBLK
  5
2EF
100
AcDbEntity
  8
0
100
AcDbBlockEnd
  0
BLOCK
  5
2FC
100
AcDbEntity
  8
0
100
AcDbBlockBegin
  2
975011-750-10
 70
     0
 10
0.0
 20
0.0
 30
0.0
  3
975011-750-10
  1

  0
LWPOLYLINE
  5
2FD
100
AcDbEntity
  8
STALPROFIL
100
AcDbPolyline
 90
       22
 70
     1
 43
1.8
 10
-17.5
 20
-8.114719
 10
-17.5
 20
-8.1
 42
-0.414214
 10
-15.9
 20
-6.5
 10
-13.8
 20
-6.5
 42
0.414214
 10
-11.1
 20
-3.8
 10
-11.1
 20
-3.6
 42
-0.414214
 10
-8.4
 20
-0.9
 10
23.2
 20
-0.9
 42
-0.414214
 10
24.1
 20
-1.8
 10
24.1
 20
-18.2
 42
-0.414214
 10
23.2
 20
-19.1
 10
-23.2
 20
-19.1
 42
-0.414214
 10
-24.1
 20
-18.2
 10
-24.1
 20
-7.9
 42
-0.414214
 10
-23.199
 20
-7.0
 42
-0.414214
 10
-22.3
 20
-7.899
 10
-22.3
 20
-12.6
 42
0.414214
 10
-19.6
 20
-15.3
 10
-18.2
 20
-15.3
 42
0.414214
 10
-15.5
 20
-12.6
 42
0.198912
 10
-16.642284
 20
-9.842284
 10
-16.884924
 20
-9.599643
 42
-0.198912
  0
LWPOLYLINE
  5
2FE
100
AcDbEntity
  8
SPKONTUR
100
AcDbPolyline
 90
       25
 70
     0
 43
0.0
 10
-18.4
 20
-8.1
 10
-18.4
 20
-8.114719
 10
-18.4
 20
-8.1
 42
-0.414214
 10
-15.9
 20
-5.6
 10
-13.8
 20
-5.6
 42
0.414214
 10
-12.0
 20
-3.8
 10
-12.0
 20
-3.6
 42
-0.414214
 10
-8.4
 20
0.0
 10
23.2
 20
0.0
 42
-0.414214
 10
25.0
 20
-1.8
 10
25.0
 20
-18.2
 42
-0.414214
 10
23.2
 20
-20.0
 10
-23.2
 20
-20.0
 42
-0.414214
 10
-25.0
 20
-18.2
 10
-25.0
 20
-7.9
 42
-0.414214
 10
-23.2
 20
-6.1
 10
-23.199
 20
-6.1
 42
-0.414214
 10
-21.4
 20
-7.899
 10
-21.4
 20
-12.6
 42
0.414214
 10
-19.6
 20
-14.4
 10
-18.2
 20
-14.4
 42
0.414214
 10
-16.4
 20
-12.6
 42
0.198912
 10
-17.27868
 20
-10.47868
 10
-17.52132
 20
-10.236039
 42
-0.198912
 10
-18.4
 20
-8.114719
  0
INSERT
  5
2FF
100
AcDbEntity
  8
GLAS_MED_FOGNING
100
AcDbBlockReference
  2
*X5
 10
0.0
 20
0.0
 30
0.0
 50
90.0
1001
ACAD
1000
HATCH
1002
{
1070
    16
1000
DASH
1040
25.0
1040
2.007129
1002
}
  0
LWPOLYLINE
  5
300
100
AcDbEntity
  8
SPKONTUR
100
AcDbPolyline
 90
       11
 70
     1
 43
0.0
 10
-25.0
 20
-46.4
 10
-25.0
 20
-31.8
 42
-0.414214
 10
-23.2
 20
-30.0
 10
23.2
 20
-30.0
 42
-0.414214
 10
25.0
 20
-31.8
 10
25.0
 20
-48.2
 42
-0.414214
 10
23.2
 20
-50.0
 10
-43.2
 20
-50.0
 42
-0.414214
 10
-45.0
 20
-48.2
 10
-45.0
 20
-48.199
 42
-0.414214
 10
-43.201
 20
-46.4
  0
LWPOLYLINE
  5
301
100
AcDbEntity
  8
STALPROFIL
100
AcDbPolyline
 90
       11
 70
     1
 43
1.8
 10
-24.1
 20
-46.4
 10
-24.1
 20
-31.8
 42
-0.414214
 10
-23.2
 20
-30.9
 10
23.2
 20
-30.9
 42
-0.414214
 10
24.1
 20
-31.8
 10
24.1
 20
-48.2
 42
-0.414214
 10
23.2
 20
-49.1
 10
-43.2
 20
-49.1
 42
-0.414214
 10
-44.1
 20
-48.199
 42
-0.414214
 10
-43.201
 20
-47.3
 10
-25.0
 20
-47.3
 42
0.414214
  0
LWPOLYLINE
  5
302
100
AcDbEntity
  8
GLAS_MED_FOGNING
100
AcDbPolyline
 90
        4
 70
     0
 43
0.0
 10
-23.2
 20
-20.0
 10
-25.0
 20
-20.0
 10
-25.0
 20
-30.0
 10
-23.2
 20
-30.0
  0
LWPOLYLINE
  5
303
100
AcDbEntity
  8
GLAS_MED_FOGNING
100
AcDbPolyline
 90
        4
 70
     0
 43
0.0
 10
23.2
 20
-20.0
 10
25.0
 20
-20.0
 10
25.0
 20
-30.0
 10
23.2
 20
-30.0
  0
ENDBLK
  5
304
100
AcDbEntity
  8
0
100
AcDbBlockEnd
  0
BLOCK
  5
311
100
AcDbEntity
  8
0
100
AcDbBlockBegin
  2
975010-750-10
 70
     0
 10
0.0
 20
0.0
 30
0.0
  3
975010-750-10
  1

  0
LWPOLYLINE
  5
312
100
AcDbEntity
  8
GLAS_MED_FOGNING
100
AcDbPolyline
 90
        4
 70
     0
 43
0.0
 10
-23.2
 20
-20.0
 10
-25.0
 20
-20.0
 10
-25.0
 20
-30.0
 10
-23.2
 20
-30.0
  0
LWPOLYLINE
  5
313
100
AcDbEntity
  8
STALPROFIL
100
AcDbPolyline
 90
       22
 70
     1
 43
1.8
 10
-17.5
 20
-8.114719
 10
-17.5
 20
-8.1
 42
-0.414214
 10
-15.9
 20
-6.5
 10
-13.8
 20
-6.5
 42
0.414214
 10
-11.1
 20
-3.8
 10
-11.1
 20
-3.6
 42
-0.414214
 10
-8.4
 20
-0.9
 10
23.2
 20
-0.9
 42
-0.414214
 10
24.1
 20
-1.8
 10
24.1
 20
-18.2
 42
-0.414214
 10
23.2
 20
-19.1
 10
-23.2
 20
-19.1
 42
-0.414214
 10
-24.1
 20
-18.2
 10
-24.1
 20
-7.9
 42
-0.414214
 10
-23.199
 20
-7.0
 42
-0.414214
 10
-22.3
 20
-7.899
 10
-22.3
 20
-12.6
 42
0.414214
 10
-19.6
 20
-15.3
 10
-18.2
 20
-15.3
 42
0.414214
 10
-15.5
 20
-12.6
 42
0.198912
 10
-16.642284
 20
-9.842284
 10
-16.884924
 20
-9.599643
 42
-0.198912
  0
LWPOLYLINE
  5
314
100
AcDbEntity
  8
SPKONTUR
100
AcDbPolyline
 90
       25
 70
     0
 43
0.0
 10
-18.4
 20
-8.1
 10
-18.4
 20
-8.114719
 10
-18.4
 20
-8.1
 42
-0.414214
 10
-15.9
 20
-5.6
 10
-13.8
 20
-5.6
 42
0.414214
 10
-12.0
 20
-3.8
 10
-12.0
 20
-3.6
 42
-0.414214
 10
-8.4
 20
0.0
 10
23.2
 20
0.0
 42
-0.414214
 10
25.0
 20
-1.8
 10
25.0
 20
-18.2
 42
-0.414214
 10
23.2
 20
-20.0
 10
-23.2
 20
-20.0
 42
-0.414214
 10
-25.0
 20
-18.2
 10
-25.0
 20
-7.9
 42
-0.414214
 10
-23.2
 20
-6.1
 10
-23.199
 20
-6.1
 42
-0.414214
 10
-21.4
 20
-7.899
 10
-21.4
 20
-12.6
 42
0.414214
 10
-19.6
 20
-14.4
 10
-18.2
 20
-14.4
 42
0.414214
 10
-16.4
 20
-12.6
 42
0.198912
 10
-17.27868
 20
-10.47868
 10
-17.52132
 20
-10.236039
 42
-0.198912
 10
-18.4
 20
-8.114719
  0
INSERT
  5
315
100
AcDbEntity
  8
GLAS_MED_FOGNING
100
AcDbBlockReference
  2
*X5
 10
0.0
 20
0.0
 30
0.0
 50
90.0
1001
ACAD
1000
HATCH
1002
{
1070
    16
1000
DASH
1040
25.0
1040
2.007129
1002
}
  0
LWPOLYLINE
  5
316
100
AcDbEntity
  8
STALPROFIL
100
AcDbPolyline
 90
        8
 70
     1
 43
1.8
 10
-23.2
 20
-49.1
 42
-0.414214
 10
-24.1
 20
-48.2
 10
-24.1
 20
-31.8
 42
-0.414214
 10
-23.2
 20
-30.9
 10
23.2
 20
-30.9
 42
-0.414214
 10
24.1
 20
-31.8
 10
24.1
 20
-48.2
 42
-0.414214
 10
23.2
 20
-49.1
  0
LWPOLYLINE
  5
317
100
AcDbEntity
  8
SPKONTUR
100
AcDbPolyline
 90
        8
 70
     1
 43
0.0
 10
-23.2
 20
-50.0
 42
-0.414214
 10
-25.0
 20
-48.2
 10
-25.0
 20
-31.8
 42
-0.414214
 10
-23.2
 20
-30.0
 10
23.2
 20
-30.0
 42
-0.414214
 10
25.0
 20
-31.8
 10
25.0
 20
-48.2
 42
-0.414214
 10
23.2
 20
-50.0
  0
LWPOLYLINE
  5
318
100
AcDbEntity
  8
GLAS_MED_FOGNING
100
AcDbPolyline
 90
        4
 70
     0
 43
0.0
 10
23.2
 20
-20.0
 10
25.0
 20
-20.0
 10
25.0
 20
-30.0
 10
23.2
 20
-30.0
  0
ENDBLK
  5
319
100
AcDbEntity
  8
0
100
AcDbBlockEnd
  0
BLOCK
  5
37A
100
AcDbEntity
  8
0
100
AcDbBlockBegin
  2
SP41520
 70
     0
 10
0.0
 20
0.0
 30
0.0
  3
SP41520
  1

  0
INSERT
  5
377
100
AcDbEntity
  8
GLAS_MED_FOGNING
100
AcDbBlockReference
  2
SP40020
 10
5.5
 20
0.0
 30
0.0
  0
LWPOLYLINE
  5
378
100
AcDbEntity
  8
STALPROFIL
100
AcDbPolyline
 90
       12
 70
     0
 43
1.25
 10
-2.02546
 20
29.838243
 10
-2.872606
 20
26.676553
 42
0.395246
 10
-1.75
 20
25.625
 42
0.414213
 10
-0.625
 20
26.749998
 10
-0.625
 20
43.0
 42
0.414214
 10
-2.0
 20
44.375
 10
-13.0
 20
44.375
 42
0.414214
 10
-14.375
 20
43.0
 10
-14.375
 20
26.749999
 42
0.414213
 10
-13.249964
 20
25.625
 42
0.395246
 10
-12.127394
 20
26.676553
 10
-12.97454
 20
29.838243
  0
LWPOLYLINE
  5
379
100
AcDbEntity
  8
SPKONTUR
100
AcDbPolyline
 90
       13
 70
     0
 43
0.0
 10
-2.629165
 20
30.0
 10
-3.5
 20
26.7499
 42
0.41423
 10
-1.75
 20
25.0
 42
0.414213
 10
0.0
 20
26.749998
 10
0.0
 20
43.0
 42
0.414214
 10
-2.0
 20
45.0
 10
-7.5
 20
45.0
 10
-13.0
 20
45.0
 42
0.414214
 10
-15.0
 20
43.0
 10
-15.0
 20
26.749998
 42
0.414213
 10
-13.25
 20
25.0
 42
0.41423
 10
-11.5
 20
26.7499
 10
-12.370835
 20
30.0
  0
ENDBLK
  5
37B
100
AcDbEntity
  8
0
100
AcDbBlockEnd
  0
BLOCK
  5
38F
100
AcDbEntity
  8
0
100
AcDbBlockBegin
  2
*X26
 70
     1
 10
0.0
 20
0.0
 30
0.0
  3
*X26
  1

  0
LINE
  5
37D
100
AcDbEntity
  8
0
 62
     0
100
AcDbLine
 10
-59.163263
 20
41.509483
 30
0.0
 11
-59.163263
 21
41.509483
 31
0.0
  0
LINE
  5
37E
100
AcDbEntity
  8
0
 62
     0
100
AcDbLine
 10
-56.584865
 20
43.487958
 30
0.0
 11
-56.584865
 21
43.487958
 31
0.0
  0
LINE
  5
37F
100
AcDbEntity
  8
0
 62
     0
100
AcDbLine
 10
-58.785303
 20
29.948541
 30
0.0
 11
-58.785303
 21
29.948541
 31
0.0
  0
LINE
  5
380
100
AcDbEntity
  8
0
 62
     0
100
AcDbLine
 10
-58.659316
 20
26.094893
 30
0.0
 11
-58.659316
 21
26.094893
 31
0.0
  0
LINE
  5
381
100
AcDbEntity
  8
0
 62
     0
100
AcDbLine
 10
-56.080918
 20
28.073368
 30
0.0
 11
-56.080918
 21
28.073368
 31
0.0
  0
LINE
  5
382
100
AcDbEntity
  8
0
 62
     0
100
AcDbLine
 10
-57.165758
 20
44.256996
 30
0.0
 11
-57.165758
 21
44.256996
 31
0.0
  0
LINE
  5
383
100
AcDbEntity
  8
0
 62
     0
100
AcDbLine
 10
-56.124741
 20
44.394049
 30
0.0
 11
-56.124741
 21
44.394049
 31
0.0
  0
LINE
  5
384
100
AcDbEntity
  8
0
 62
     0
100
AcDbLine
 10
-61.359856
 20
28.169929
 30
0.0
 11
-61.359856
 21
28.169929
 31
0.0
  0
LINE
  5
385
100
AcDbEntity
  8
0
 62
     0
100
AcDbLine
 10
-59.733886
 20
28.383992
 30
0.0
 11
-59.733886
 21
28.383992
 31
0.0
  0
LINE
  5
386
100
AcDbEntity
  8
0
 62
     0
100
AcDbLine
 10
-57.017327
 20
28.741634
 30
0.0
 11
-57.017327
 21
28.741634
 31
0.0
  0
LINE
  5
387
100
AcDbEntity
  8
0
 62
     0
100
AcDbLine
 10
-55.97631
 20
28.878687
 30
0.0
 11
-55.97631
 21
28.878687
 31
0.0
  0
LINE
  5
388
100
AcDbEntity
  8
0
 62
     0
100
AcDbLine
 10
-56.715696
 20
42.523035
 30
0.0
 11
-56.715696
 21
42.523035
 31
0.0
  0
LINE
  5
389
100
AcDbEntity
  8
0
 62
     0
100
AcDbLine
 10
-55.749526
 20
29.97
 30
0.0
 11
-55.749526
 21
29.97
 31
0.0
  0
LINE
  5
38A
100
AcDbEntity
  8
0
 62
     0
100
AcDbLine
 10
-61.134419
 20
29.421382
 30
0.0
 11
-61.134419
 21
29.421382
 31
0.0
  0
LINE
  5
38B
100
AcDbEntity
  8
0
 62
     0
100
AcDbLine
 10
-58.098209
 20
27.487104
 30
0.0
 11
-58.098209
 21
27.487104
 31
0.0
  0
LINE
  5
38C
100
AcDbEntity
  8
0
 62
     0
100
AcDbLine
 10
-57.663397
 20
43.320028
 30
0.0
 11
-57.663397
 21
43.320028
 31
0.0
  0
LINE
  5
38D
100
AcDbEntity
  8
0
 62
     0
100
AcDbLine
 10
-57.294758
 20
42.982232
 30
0.0
 11
-57.294758
 21
42.982232
 31
0.0
  0
LINE
  5
38E
100
AcDbEntity
  8
0
 62
     0
100
AcDbLine
 10
-55.554784
 20
41.38784
 30
0.0
 11
-55.554784
 21
41.38784
 31
0.0
  0
ENDBLK
  5
390
100
AcDbEntity
  8
0
100
AcDbBlockEnd
  0
BLOCK
  5
3B7
100
AcDbEntity
  8
0
100
AcDbBlockBegin
  2
*X27
 70
     1
 10
0.0
 20
0.0
 30
0.0
  3
*X27
  1

  0
LINE
  5
392
100
AcDbEntity
  8
0
 62
     0
100
AcDbLine
 10
-37.789989
 20
26.307209
 30
0.0
 11
-37.789989
 21
26.307209
 31
0.0
  0
LINE
  5
393
100
AcDbEntity
  8
0
 62
     0
100
AcDbLine
 10
-35.092588
 20
28.376998
 30
0.0
 11
-35.092588
 21
28.376998
 31
0.0
  0
LINE
  5
394
100
AcDbEntity
  8
0
 62
     0
100
AcDbLine
 10
-32.514189
 20
30.355473
 30
0.0
 11
-32.514189
 21
30.355473
 31
0.0
  0
LINE
  5
395
100
AcDbEntity
  8
0
 62
     0
100
AcDbLine
 10
-42.906168
 20
26.331747
 30
0.0
 11
-42.906168
 21
26.331747
 31
0.0
  0
LINE
  5
396
100
AcDbEntity
  8
0
 62
     0
100
AcDbLine
 10
-40.32777
 20
28.310222
 30
0.0
 11
-40.32777
 21
28.310222
 31
0.0
  0
LINE
  5
397
100
AcDbEntity
  8
0
 62
     0
100
AcDbLine
 10
-45.729557
 20
28.115606
 30
0.0
 11
-45.729557
 21
28.115606
 31
0.0
  0
LINE
  5
398
100
AcDbEntity
  8
0
 62
     0
100
AcDbLine
 10
-43.032155
 20
30.185395
 30
0.0
 11
-43.032155
 21
30.185395
 31
0.0
  0
LINE
  5
399
100
AcDbEntity
  8
0
 62
     0
100
AcDbLine
 10
-32.388203
 20
26.501825
 30
0.0
 11
-32.388203
 21
26.501825
 31
0.0
  0
LINE
  5
39A
100
AcDbEntity
  8
0
 62
     0
100
AcDbLine
 10
-44.406244
 20
25.223614
 30
0.0
 11
-44.406244
 21
25.223614
 31
0.0
  0
LINE
  5
39B
100
AcDbEntity
  8
0
 62
     0
100
AcDbLine
 10
-43.365227
 20
25.360666
 30
0.0
 11
-43.365227
 21
25.360666
 31
0.0
  0
LINE
  5
39C
100
AcDbEntity
  8
0
 62
     0
100
AcDbLine
 10
-41.739257
 20
25.574729
 30
0.0
 11
-41.739257
 21
25.574729
 31
0.0
  0
LINE
  5
39D
100
AcDbEntity
  8
0
 62
     0
100
AcDbLine
 10
-39.022698
 20
25.932371
 30
0.0
 11
-39.022698
 21
25.932371
 31
0.0
  0
LINE
  5
39E
100
AcDbEntity
  8
0
 62
     0
100
AcDbLine
 10
-37.981681
 20
26.069423
 30
0.0
 11
-37.981681
 21
26.069423
 31
0.0
  0
LINE
  5
39F
100
AcDbEntity
  8
0
 62
     0
100
AcDbLine
 10
-36.355712
 20
26.283486
 30
0.0
 11
-36.355712
 21
26.283486
 31
0.0
  0
LINE
  5
3A0
100
AcDbEntity
  8
0
 62
     0
100
AcDbLine
 10
-33.639153
 20
26.641128
 30
0.0
 11
-33.639153
 21
26.641128
 31
0.0
  0
LINE
  5
3A1
100
AcDbEntity
  8
0
 62
     0
100
AcDbLine
 10
-32.598136
 20
26.778181
 30
0.0
 11
-32.598136
 21
26.778181
 31
0.0
  0
LINE
  5
3A2
100
AcDbEntity
  8
0
 62
     0
100
AcDbLine
 10
-30.972166
 20
26.992244
 30
0.0
 11
-30.972166
 21
26.992244
 31
0.0
  0
LINE
  5
3A3
100
AcDbEntity
  8
0
 62
     0
100
AcDbLine
 10
-46.250236
 20
30.159149
 30
0.0
 11
-46.250236
 21
30.159149
 31
0.0
  0
LINE
  5
3A4
100
AcDbEntity
  8
0
 62
     0
100
AcDbLine
 10
-45.209219
 20
30.296201
 30
0.0
 11
-45.209219
 21
30.296201
 31
0.0
  0
LINE
  5
3A5
100
AcDbEntity
  8
0
 62
     0
100
AcDbLine
 10
-43.583249
 20
30.510264
 30
0.0
 11
-43.583249
 21
30.510264
 31
0.0
  0
LINE
  5
3A6
100
AcDbEntity
  8
0
 62
     0
100
AcDbLine
 10
-43.292959
 20
29.992636
 30
0.0
 11
-43.292959
 21
29.992636
 31
0.0
  0
LINE
  5
3A7
100
AcDbEntity
  8
0
 62
     0
100
AcDbLine
 10
-42.449568
 20
29.455337
 30
0.0
 11
-42.449568
 21
29.455337
 31
0.0
  0
LINE
  5
3A8
100
AcDbEntity
  8
0
 62
     0
100
AcDbLine
 10
-39.413358
 20
27.521058
 30
0.0
 11
-39.413358
 21
27.521058
 31
0.0
  0
LINE
  5
3A9
100
AcDbEntity
  8
0
 62
     0
100
AcDbLine
 10
-36.221284
 20
29.466655
 30
0.0
 11
-36.221284
 21
29.466655
 31
0.0
  0
LINE
  5
3AA
100
AcDbEntity
  8
0
 62
     0
100
AcDbLine
 10
-33.185075
 20
27.532376
 30
0.0
 11
-33.185075
 21
27.532376
 31
0.0
  0
LINE
  5
3AB
100
AcDbEntity
  8
0
 62
     0
100
AcDbLine
 10
-29.221135
 20
25.007068
 30
0.0
 11
-29.221135
 21
25.007068
 31
0.0
  0
LINE
  5
3AC
100
AcDbEntity
  8
0
 62
     0
100
AcDbLine
 10
-30.836392
 20
30.015272
 30
0.0
 11
-30.836392
 21
30.015272
 31
0.0
  0
LINE
  5
3AD
100
AcDbEntity
  8
0
 62
     0
100
AcDbLine
 10
-45.641642
 20
27.50974
 30
0.0
 11
-45.641642
 21
27.50974
 31
0.0
  0
LINE
  5
3AE
100
AcDbEntity
  8
0
 62
     0
100
AcDbLine
 10
-34.885457
 20
29.712457
 30
0.0
 11
-34.885457
 21
29.712457
 31
0.0
  0
LINE
  5
3AF
100
AcDbEntity
  8
0
 62
     0
100
AcDbLine
 10
-33.145483
 20
28.118064
 30
0.0
 11
-33.145483
 21
28.118064
 31
0.0
  0
LINE
  5
3B0
100
AcDbEntity
  8
0
 62
     0
100
AcDbLine
 10
-31.154834
 20
26.293971
 30
0.0
 11
-31.154834
 21
26.293971
 31
0.0
  0
LINE
  5
3B1
100
AcDbEntity
  8
0
 62
     0
100
AcDbLine
 10
-30.786195
 20
25.956176
 30
0.0
 11
-30.786195
 21
25.956176
 31
0.0
  0
LINE
  5
3B2
100
AcDbEntity
  8
0
 62
     0
100
AcDbLine
 10
-43.256998
 20
30.118995
 30
0.0
 11
-43.256998
 21
30.118995
 31
0.0
  0
LINE
  5
3B3
100
AcDbEntity
  8
0
 62
     0
100
AcDbLine
 10
-41.266349
 20
28.294901
 30
0.0
 11
-41.266349
 21
28.294901
 31
0.0
  0
LINE
  5
3B4
100
AcDbEntity
  8
0
 62
     0
100
AcDbLine
 10
-40.89771
 20
27.957106
 30
0.0
 11
-40.89771
 21
27.957106
 31
0.0
  0
LINE
  5
3B5
100
AcDbEntity
  8
0
 62
     0
100
AcDbLine
 10
-39.157736
 20
26.362713
 30
0.0
 11
-39.157736
 21
26.362713
 31
0.0
  0
LINE
  5
3B6
100
AcDbEntity
  8
0
 62
     0
100
AcDbLine
 10
-46.909964
 20
26.201755
 30
0.0
 11
-46.909964
 21
26.201755
 31
0.0
  0
ENDBLK
  5
3B8
100
AcDbEntity
  8
0
100
AcDbBlockEnd
  0
BLOCK
  5
3D9
100
AcDbEntity
  8
0
100
AcDbBlockBegin
  2
*X28
 70
     1
 10
0.0
 20
0.0
 30
0.0
  3
*X28
  1

  0
LINE
  5
3BA
100
AcDbEntity
  8
0
 62
     0
100
AcDbLine
 10
-21.146165
 20
-6.412563
 30
0.0
 11
-22.466847
 21
-3.580351
 31
0.0
  0
LINE
  5
3BB
100
AcDbEntity
  8
0
 62
     0
100
AcDbLine
 10
-23.787529
 20
-0.748139
 30
0.0
 11
-25.108211
 21
2.084073
 31
0.0
  0
LINE
  5
3BC
100
AcDbEntity
  8
0
 62
     0
100
AcDbLine
 10
-26.428893
 20
4.916285
 30
0.0
 11
-27.749575
 21
7.748497
 31
0.0
  0
LINE
  5
3BD
100
AcDbEntity
  8
0
 62
     0
100
AcDbLine
 10
-29.070257
 20
10.580708
 30
0.0
 11
-30.0
 21
12.574548
 31
0.0
  0
LINE
  5
3BE
100
AcDbEntity
  8
0
 62
     0
100
AcDbLine
 10
-20.016331
 20
-16.22988
 30
0.0
 11
-21.337013
 21
-13.397668
 31
0.0
  0
LINE
  5
3BF
100
AcDbEntity
  8
0
 62
     0
100
AcDbLine
 10
-22.657695
 20
-10.565457
 30
0.0
 11
-23.978377
 21
-7.733245
 31
0.0
  0
LINE
  5
3C0
100
AcDbEntity
  8
0
 62
     0
100
AcDbLine
 10
-25.299059
 20
-4.901033
 30
0.0
 11
-26.619741
 21
-2.068821
 31
0.0
  0
LINE
  5
3C1
100
AcDbEntity
  8
0
 62
     0
100
AcDbLine
 10
-27.940423
 20
0.763391
 30
0.0
 11
-29.261105
 21
3.595603
 31
0.0
  0
LINE
  5
3C2
100
AcDbEntity
  8
0
 62
     0
100
AcDbLine
 10
-20.0
 20
-23.659281
 30
0.0
 11
-20.207178
 21
-23.214986
 31
0.0
  0
LINE
  5
3C3
100
AcDbEntity
  8
0
 62
     0
100
AcDbLine
 10
-21.52786
 20
-20.382774
 30
0.0
 11
-22.848542
 21
-17.550562
 31
0.0
  0
LINE
  5
3C4
100
AcDbEntity
  8
0
 62
     0
100
AcDbLine
 10
-24.169224
 20
-14.71835
 30
0.0
 11
-25.489907
 21
-11.886139
 31
0.0
  0
LINE
  5
3C5
100
AcDbEntity
  8
0
 62
     0
100
AcDbLine
 10
-26.810589
 20
-9.053927
 30
0.0
 11
-28.131271
 21
-6.221715
 31
0.0
  0
LINE
  5
3C6
100
AcDbEntity
  8
0
 62
     0
100
AcDbLine
 10
-29.451953
 20
-3.389503
 30
0.0
 11
-30.0
 21
-2.214212
 31
0.0
  0
LINE
  5
3C7
100
AcDbEntity
  8
0
 62
     0
100
AcDbLine
 10
-23.03939
 20
-24.535668
 30
0.0
 11
-24.360072
 21
-21.703456
 31
0.0
  0
LINE
  5
3C8
100
AcDbEntity
  8
0
 62
     0
100
AcDbLine
 10
-25.680754
 20
-18.871244
 30
0.0
 11
-27.001436
 21
-16.039033
 31
0.0
  0
LINE
  5
3C9
100
AcDbEntity
  8
0
 62
     0
100
AcDbLine
 10
-28.322118
 20
-13.206821
 30
0.0
 11
-29.6428
 21
-10.374609
 31
0.0
  0
LINE
  5
3CA
100
AcDbEntity
  8
0
 62
     0
100
AcDbLine
 10
-27.192284
 20
-23.024138
 30
0.0
 11
-28.512966
 21
-20.191926
 31
0.0
  0
LINE
  5
3CB
100
AcDbEntity
  8
0
 62
     0
100
AcDbLine
 10
-29.833648
 20
-17.359715
 30
0.0
 11
-30.0
 21
-17.002972
 31
0.0
  0
LINE
  5
3CC
100
AcDbEntity
  8
0
 62
     0
100
AcDbLine
 10
-29.718981
 20
-25.0
 30
0.0
 11
-30.0
 21
-24.397352
 31
0.0
  0
LINE
  5
3CD
100
AcDbEntity
  8
0
 62
     0
100
AcDbLine
 10
-20.0
 20
-1.476141
 30
0.0
 11
-20.955317
 21
0.572543
 31
0.0
  0
LINE
  5
3CE
100
AcDbEntity
  8
0
 62
     0
100
AcDbLine
 10
-22.275999
 20
3.404755
 30
0.0
 11
-23.596681
 21
6.236967
 31
0.0
  0
LINE
  5
3CF
100
AcDbEntity
  8
0
 62
     0
100
AcDbLine
 10
-24.917363
 20
9.069179
 30
0.0
 11
-26.238045
 21
11.90139
 31
0.0
  0
LINE
  5
3D0
100
AcDbEntity
  8
0
 62
     0
100
AcDbLine
 10
-27.558728
 20
14.733602
 30
0.0
 11
-28.87941
 21
17.565814
 31
0.0
  0
LINE
  5
3D1
100
AcDbEntity
  8
0
 62
     0
100
AcDbLine
 10
-20.76447
 20
7.557649
 30
0.0
 11
-22.085152
 21
10.389861
 31
0.0
  0
LINE
  5
3D2
100
AcDbEntity
  8
0
 62
     0
100
AcDbLine
 10
-23.405834
 20
13.222073
 30
0.0
 11
-24.726516
 21
16.054284
 31
0.0
  0
LINE
  5
3D3
100
AcDbEntity
  8
0
 62
     0
100
AcDbLine
 10
-26.047198
 20
18.886496
 30
0.0
 11
-27.36788
 21
21.718708
 31
0.0
  0
LINE
  5
3D4
100
AcDbEntity
  8
0
 62
     0
100
AcDbLine
 10
-28.688562
 20
24.55092
 30
0.0
 11
-28.897971
 21
25.0
 31
0.0
  0
LINE
  5
3D5
100
AcDbEntity
  8
0
 62
     0
100
AcDbLine
 10
-20.0
 20
13.312619
 30
0.0
 11
-20.573622
 21
14.542755
 31
0.0
  0
LINE
  5
3D6
100
AcDbEntity
  8
0
 62
     0
100
AcDbLine
 10
-21.894304
 20
17.374966
 30
0.0
 11
-23.214986
 21
20.207178
 31
0.0
  0
LINE
  5
3D7
100
AcDbEntity
  8
0
 62
     0
100
AcDbLine
 10
-24.535668
 20
23.03939
 30
0.0
 11
-25.449915
 21
25.0
 31
0.0
  0
LINE
  5
3D8
100
AcDbEntity
  8
0
 62
     0
100
AcDbLine
 10
-20.382774
 20
21.52786
 30
0.0
 11
-21.703456
 21
24.360072
 31
0.0
  0
ENDBLK
  5
3DA
100
AcDbEntity
  8
0
100
AcDbBlockEnd
  0
BLOCK
  5
3E3
100
AcDbEntity
  8
0
100
AcDbBlockBegin
  2
SP75021-750-10
 70
     0
 10
0.0
 20
0.0
 30
0.0
  3
SP75021-750-10
  1

  0
LWPOLYLINE
  5
3DC
100
AcDbEntity
  8
SPKONTUR
100
AcDbPolyline
 90
       11
 70
     1
 43
0.0
 10
-46.4
 20
25.0
 10
-31.8
 20
25.0
 42
-0.414214
 10
-30.0
 20
23.2
 10
-30.0
 20
-23.2
 42
-0.414214
 10
-31.8
 20
-25.0
 10
-48.2
 20
-25.0
 42
-0.414214
 10
-50.0
 20
-23.2
 10
-50.0
 20
43.2
 42
-0.414214
 10
-48.2
 20
45.0
 10
-48.199
 20
45.0
 42
-0.414214
 10
-46.4
 20
43.201
  0
LWPOLYLINE
  5
3DD
100
AcDbEntity
  8
STALPROFIL
100
AcDbPolyline
 90
       11
 70
     1
 43
1.8
 10
-46.4
 20
24.1
 10
-31.8
 20
24.1
 42
-0.414214
 10
-30.9
 20
23.2
 10
-30.9
 20
-23.2
 42
-0.414214
 10
-31.8
 20
-24.1
 10
-48.2
 20
-24.1
 42
-0.414214
 10
-49.1
 20
-23.2
 10
-49.1
 20
43.2
 42
-0.414214
 10
-48.199
 20
44.1
 42
-0.414214
 10
-47.3
 20
43.201
 10
-47.3
 20
25.0
 42
0.414214
  0
INSERT
  5
3DE
100
AcDbEntity
  8
GLAS_MED_FOGNING
100
AcDbBlockReference
  2
*X28
 10
0.0
 20
0.0
 30
0.0
1001
ACAD
1000
HATCH
1002
{
1070
    16
1000
DASH
1040
25.0
1040
2.007129
1002
}
  0
LWPOLYLINE
  5
3DF
100
AcDbEntity
  8
SPKONTUR
100
AcDbPolyline
 90
        8
 70
     1
 43
0.0
 10
-20.0
 20
23.2
 42
-0.414214
 10
-18.2
 20
25.0
 10
-1.8
 20
25.0
 42
-0.414214
 10
0.0
 20
23.2
 10
0.0
 20
-23.2
 42
-0.414214
 10
-1.8
 20
-25.0
 10
-18.2
 20
-25.0
 42
-0.414214
 10
-20.0
 20
-23.2
  0
LWPOLYLINE
  5
3E0
100
AcDbEntity
  8
STALPROFIL
100
AcDbPolyline
 90
        8
 70
     1
 43
1.8
 10
-19.1
 20
23.2
 42
-0.414214
 10
-18.2
 20
24.1
 10
-1.8
 20
24.1
 42
-0.414214
 10
-0.9
 20
23.2
 10
-0.9
 20
-23.2
 42
-0.414214
 10
-1.8
 20
-24.1
 10
-18.2
 20
-24.1
 42
-0.414214
 10
-19.1
 20
-23.2
  0
LWPOLYLINE
  5
3E1
100
AcDbEntity
  8
GLAS_MED_FOGNING
100
AcDbPolyline
 90
        4
 70
     0
 43
0.0
 10
-20.0
 20
-23.2
 10
-20.0
 20
-25.0
 10
-30.0
 20
-25.0
 10
-30.0
 20
-23.2
  0
LWPOLYLINE
  5
3E2
100
AcDbEntity
  8
GLAS_MED_FOGNING
100
AcDbPolyline
 90
        4
 70
     0
 43
0.0
 10
-20.0
 20
23.2
 10
-20.0
 20
25.0
 10
-30.0
 20
25.0
 10
-30.0
 20
23.2
  0
ENDBLK
  5
3E4
100
AcDbEntity
  8
0
100
AcDbBlockEnd
  0
BLOCK
  5
3E8
100
AcDbEntity
  8
0
100
AcDbBlockBegin
  2
SP01502020
 70
     0
 10
0.0
 20
0.0
 30
0.0
  3
SP01502020
  1

  0
LWPOLYLINE
  5
3E6
100
AcDbEntity
  8
STALPROFIL
100
AcDbPolyline
 90
       11
 70
     1
 43
1.8
 10
-46.4
 20
9.1
 10
-1.8
 20
9.1
 42
-0.414214
 10
-0.9
 20
8.2
 10
-0.9
 20
-8.2
 42
-0.414214
 10
-1.8
 20
-9.1
 10
-48.2
 20
-9.1
 42
-0.414214
 10
-49.1
 20
-8.2
 10
-49.1
 20
28.2
 42
-0.414214
 10
-48.199
 20
29.1
 42
-0.414214
 10
-47.3
 20
28.201
 10
-47.3
 20
10.0
 42
0.414214
  0
LWPOLYLINE
  5
3E7
100
AcDbEntity
  8
SPKONTUR
100
AcDbPolyline
 90
       11
 70
     1
 43
0.0
 10
-46.4
 20
10.0
 10
-1.8
 20
10.0
 42
-0.414214
 10
0.0
 20
8.2
 10
0.0
 20
-8.2
 42
-0.414214
 10
-1.8
 20
-10.0
 10
-48.2
 20
-10.0
 42
-0.414214
 10
-50.0
 20
-8.2
 10
-50.0
 20
28.2
 42
-0.414214
 10
-48.2
 20
30.0
 10
-48.199
 20
30.0
 42
-0.414214
 10
-46.4
 20
28.201
  0
ENDBLK
  5
3E9
100
AcDbEntity
  8
0
100
AcDbBlockEnd
  0
BLOCK
  5
6FA
100
AcDbEntity
  8
0
100
AcDbBlockBegin
  2
*D48
 70
     1
 10
0.0
 20
0.0
 30
0.0
  3
*D48
  1

  0
LINE
  5
922
100
AcDbEntity
  8
DIMENSION
 62
     0
100
AcDbLine
 10
130.0
 20
424.375
 30
0.0
 11
130.0
 21
403.75
 31
0.0
  0
LINE
  5
923
100
AcDbEntity
  8
DIMENSION
 62
     0
100
AcDbLine
 10
200.0
 20
424.375
 30
0.0
 11
200.0
 21
403.75
 31
0.0
  0
LINE
  5
924
100
AcDbEntity
  8
DIMENSION
 62
     0
100
AcDbLine
 10
132.5
 20
405.0
 30
0.0
 11
197.5
 21
405.0
 31
0.0
  0
SOLID
  5
925
100
AcDbEntity
  8
DIMENSION
 62
     0
100
AcDbTrace
 10
132.5
 20
405.416667
 30
0.0
 11
132.5
 21
404.583333
 31
0.0
 12
130.0
 22
405.0
 32
0.0
 13
130.0
 23
405.0
 33
0.0
  0
SOLID
  5
926
100
AcDbEntity
  8
DIMENSION
 62
     0
100
AcDbTrace
 10
197.5
 20
405.416667
 30
0.0
 11
197.5
 21
404.583333
 31
0.0
 12
200.0
 22
405.0
 32
0.0
 13
200.0
 23
405.0
 33
0.0
  0
MTEXT
  5
927
100
AcDbEntity
  8
DIMENSION
 62
     6
100
AcDbMText
 10
165.0
 20
409.0
 30
0.0
 40
4.0
 41
0.0
 71
     5
 72
     1
  1
\A1;70
  7
ROMANS
  0
POINT
  5
928
100
AcDbEntity
  8
DEFPOINTS
 62
     0
100
AcDbPoint
 10
130.0
 20
425.0
 30
0.0
  0
POINT
  5
929
100
AcDbEntity
  8
DEFPOINTS
 62
     0
100
AcDbPoint
 10
200.0
 20
425.0
 30
0.0
  0
POINT
  5
92A
100
AcDbEntity
  8
DEFPOINTS
 62
     0
100
AcDbPoint
 10
200.0
 20
405.0
 30
0.0
  0
ENDBLK
  5
6FB
100
AcDbEntity
  8
0
100
AcDbBlockEnd
  0
BLOCK
  5
706
100
AcDbEntity
  8
0
100
AcDbBlockBegin
  2
*D49
 70
     1
 10
0.0
 20
0.0
 30
0.0
  3
*D49
  1

  0
LINE
  5
92B
100
AcDbEntity
  8
DIMENSION
 62
     0
100
AcDbLine
 10
140.0
 20
340.625
 30
0.0
 11
140.0
 21
356.25
 31
0.0
  0
LINE
  5
92C
100
AcDbEntity
  8
DIMENSION
 62
     0
100
AcDbLine
 10
190.0
 20
340.625
 30
0.0
 11
190.0
 21
356.25
 31
0.0
  0
LINE
  5
92D
100
AcDbEntity
  8
DIMENSION
 62
     0
100
AcDbLine
 10
142.5
 20
355.0
 30
0.0
 11
187.5
 21
355.0
 31
0.0
  0
SOLID
  5
92E
100
AcDbEntity
  8
DIMENSION
 62
     0
100
AcDbTrace
 10
142.5
 20
355.416667
 30
0.0
 11
142.5
 21
354.583333
 31
0.0
 12
140.0
 22
355.0
 32
0.0
 13
140.0
 23
355.0
 33
0.0
  0
SOLID
  5
92F
100
AcDbEntity
  8
DIMENSION
 62
     0
100
AcDbTrace
 10
187.5
 20
355.416667
 30
0.0
 11
187.5
 21
354.583333
 31
0.0
 12
190.0
 22
355.0
 32
0.0
 13
190.0
 23
355.0
 33
0.0
  0
MTEXT
  5
930
100
AcDbEntity
  8
DIMENSION
 62
     6
100
AcDbMText
 10
165.0
 20
359.0
 30
0.0
 40
4.0
 41
0.0
 71
     5
 72
     1
  1
\A1;50
  7
ROMANS
  0
POINT
  5
931
100
AcDbEntity
  8
DEFPOINTS
 62
     0
100
AcDbPoint
 10
140.0
 20
340.0
 30
0.0
  0
POINT
  5
932
100
AcDbEntity
  8
DEFPOINTS
 62
     0
100
AcDbPoint
 10
190.0
 20
340.0
 30
0.0
  0
POINT
  5
933
100
AcDbEntity
  8
DEFPOINTS
 62
     0
100
AcDbPoint
 10
190.0
 20
355.0
 30
0.0
  0
ENDBLK
  5
707
100
AcDbEntity
  8
0
100
AcDbBlockEnd
  0
BLOCK
  5
712
100
AcDbEntity
  8
0
100
AcDbBlockBegin
  2
*D50
 70
     1
 10
0.0
 20
0.0
 30
0.0
  3
*D50
  1

  0
LINE
  5
934
100
AcDbEntity
  8
DIMENSION
 62
     0
100
AcDbLine
 10
150.0
 20
475.625
 30
0.0
 11
150.0
 21
491.25
 31
0.0
  0
LINE
  5
935
100
AcDbEntity
  8
DIMENSION
 62
     0
100
AcDbLine
 10
200.0
 20
475.625
 30
0.0
 11
200.0
 21
491.25
 31
0.0
  0
LINE
  5
936
100
AcDbEntity
  8
DIMENSION
 62
     0
100
AcDbLine
 10
152.5
 20
490.0
 30
0.0
 11
197.5
 21
490.0
 31
0.0
  0
SOLID
  5
937
100
AcDbEntity
  8
DIMENSION
 62
     0
100
AcDbTrace
 10
152.5
 20
490.416667
 30
0.0
 11
152.5
 21
489.583333
 31
0.0
 12
150.0
 22
490.0
 32
0.0
 13
150.0
 23
490.0
 33
0.0
  0
SOLID
  5
938
100
AcDbEntity
  8
DIMENSION
 62
     0
100
AcDbTrace
 10
197.5
 20
490.416667
 30
0.0
 11
197.5
 21
489.583333
 31
0.0
 12
200.0
 22
490.0
 32
0.0
 13
200.0
 23
490.0
 33
0.0
  0
MTEXT
  5
939
100
AcDbEntity
  8
DIMENSION
 62
     6
100
AcDbMText
 10
175.0
 20
494.0
 30
0.0
 40
4.0
 41
0.0
 71
     5
 72
     1
  1
\A1;50
  7
ROMANS
  0
POINT
  5
93A
100
AcDbEntity
  8
DEFPOINTS
 62
     0
100
AcDbPoint
 10
150.0
 20
475.0
 30
0.0
  0
POINT
  5
93B
100
AcDbEntity
  8
DEFPOINTS
 62
     0
100
AcDbPoint
 10
200.0
 20
475.0
 30
0.0
  0
POINT
  5
93C
100
AcDbEntity
  8
DEFPOINTS
 62
     0
100
AcDbPoint
 10
200.0
 20
490.0
 30
0.0
  0
ENDBLK
  5
713
100
AcDbEntity
  8
0
100
AcDbBlockEnd
  0
BLOCK
  5
71E
100
AcDbEntity
  8
0
100
AcDbBlockBegin
  2
*D51
 70
     1
 10
0.0
 20
0.0
 30
0.0
  3
*D51
  1

  0
LINE
  5
93D
100
AcDbEntity
  8
DIMENSION
 62
     0
100
AcDbLine
 10
190.0
 20
340.625
 30
0.0
 11
190.0
 21
356.25
 31
0.0
  0
LINE
  5
93E
100
AcDbEntity
  8
DIMENSION
 62
     0
100
AcDbLine
 10
210.0
 20
340.625
 30
0.0
 11
210.0
 21
356.25
 31
0.0
  0
LINE
  5
93F
100
AcDbEntity
  8
DIMENSION
 62
     0
100
AcDbLine
 10
192.5
 20
355.0
 30
0.0
 11
207.5
 21
355.0
 31
0.0
  0
SOLID
  5
940
100
AcDbEntity
  8
DIMENSION
 62
     0
100
AcDbTrace
 10
192.5
 20
355.416667
 30
0.0
 11
192.5
 21
354.583333
 31
0.0
 12
190.0
 22
355.0
 32
0.0
 13
190.0
 23
355.0
 33
0.0
  0
SOLID
  5
941
100
AcDbEntity
  8
DIMENSION
 62
     0
100
AcDbTrace
 10
207.5
 20
355.416667
 30
0.0
 11
207.5
 21
354.583333
 31
0.0
 12
210.0
 22
355.0
 32
0.0
 13
210.0
 23
355.0
 33
0.0
  0
MTEXT
  5
942
100
AcDbEntity
  8
DIMENSION
 62
     6
100
AcDbMText
 10
200.0
 20
359.0
 30
0.0
 40
4.0
 41
0.0
 71
     5
 72
     1
  1
\A1;20
  7
ROMANS
  0
POINT
  5
943
100
AcDbEntity
  8
DEFPOINTS
 62
     0
100
AcDbPoint
 10
190.0
 20
340.0
 30
0.0
  0
POINT
  5
944
100
AcDbEntity
  8
DEFPOINTS
 62
     0
100
AcDbPoint
 10
210.0
 20
340.0
 30
0.0
  0
POINT
  5
945
100
AcDbEntity
  8
DEFPOINTS
 62
     0
100
AcDbPoint
 10
210.0
 20
355.0
 30
0.0
  0
ENDBLK
  5
71F
100
AcDbEntity
  8
0
100
AcDbBlockEnd
  0
BLOCK
  5
72A
100
AcDbEntity
  8
0
100
AcDbBlockBegin
  2
*D52
 70
     1
 10
0.0
 20
0.0
 30
0.0
  3
*D52
  1

  0
LINE
  5
946
100
AcDbEntity
  8
DIMENSION
 62
     0
100
AcDbLine
 10
200.0
 20
475.625
 30
0.0
 11
200.0
 21
491.25
 31
0.0
  0
LINE
  5
947
100
AcDbEntity
  8
DIMENSION
 62
     0
100
AcDbLine
 10
220.0
 20
475.625
 30
0.0
 11
220.0
 21
491.25
 31
0.0
  0
LINE
  5
948
100
AcDbEntity
  8
DIMENSION
 62
     0
100
AcDbLine
 10
202.5
 20
490.0
 30
0.0
 11
217.5
 21
490.0
 31
0.0
  0
SOLID
  5
949
100
AcDbEntity
  8
DIMENSION
 62
     0
100
AcDbTrace
 10
202.5
 20
490.416667
 30
0.0
 11
202.5
 21
489.583333
 31
0.0
 12
200.0
 22
490.0
 32
0.0
 13
200.0
 23
490.0
 33
0.0
  0
SOLID
  5
94A
100
AcDbEntity
  8
DIMENSION
 62
     0
100
AcDbTrace
 10
217.5
 20
490.416667
 30
0.0
 11
217.5
 21
489.583333
 31
0.0
 12
220.0
 22
490.0
 32
0.0
 13
220.0
 23
490.0
 33
0.0
  0
MTEXT
  5
94B
100
AcDbEntity
  8
DIMENSION
 62
     6
100
AcDbMText
 10
210.0
 20
494.0
 30
0.0
 40
4.0
 41
0.0
 71
     5
 72
     1
  1
\A1;20
  7
ROMANS
  0
POINT
  5
94C
100
AcDbEntity
  8
DEFPOINTS
 62
     0
100
AcDbPoint
 10
200.0
 20
475.0
 30
0.0
  0
POINT
  5
94D
100
AcDbEntity
  8
DEFPOINTS
 62
     0
100
AcDbPoint
 10
220.0
 20
475.0
 30
0.0
  0
POINT
  5
94E
100
AcDbEntity
  8
DEFPOINTS
 62
     0
100
AcDbPoint
 10
220.0
 20
490.0
 30
0.0
  0
ENDBLK
  5
72B
100
AcDbEntity
  8
0
100
AcDbBlockEnd
  0
BLOCK
  5
736
100
AcDbEntity
  8
0
100
AcDbBlockBegin
  2
*D53
 70
     1
 10
0.0
 20
0.0
 30
0.0
  3
*D53
  1

  0
LINE
  5
94F
100
AcDbEntity
  8
DIMENSION
 62
     0
100
AcDbLine
 10
260.0
 20
289.375
 30
0.0
 11
260.0
 21
268.75
 31
0.0
  0
LINE
  5
950
100
AcDbEntity
  8
DIMENSION
 62
     0
100
AcDbLine
 10
330.0
 20
289.375
 30
0.0
 11
330.0
 21
268.75
 31
0.0
  0
LINE
  5
951
100
AcDbEntity
  8
DIMENSION
 62
     0
100
AcDbLine
 10
262.5
 20
270.0
 30
0.0
 11
327.5
 21
270.0
 31
0.0
  0
SOLID
  5
952
100
AcDbEntity
  8
DIMENSION
 62
     0
100
AcDbTrace
 10
262.5
 20
270.416667
 30
0.0
 11
262.5
 21
269.583333
 31
0.0
 12
260.0
 22
270.0
 32
0.0
 13
260.0
 23
270.0
 33
0.0
  0
SOLID
  5
953
100
AcDbEntity
  8
DIMENSION
 62
     0
100
AcDbTrace
 10
327.5
 20
270.416667
 30
0.0
 11
327.5
 21
269.583333
 31
0.0
 12
330.0
 22
270.0
 32
0.0
 13
330.0
 23
270.0
 33
0.0
  0
MTEXT
  5
954
100
AcDbEntity
  8
DIMENSION
 62
     6
100
AcDbMText
 10
295.0
 20
274.0
 30
0.0
 40
4.0
 41
0.0
 71
     5
 72
     1
  1
\A1;70
  7
ROMANS
  0
POINT
  5
955
100
AcDbEntity
  8
DEFPOINTS
 62
     0
100
AcDbPoint
 10
260.0
 20
290.0
 30
0.0
  0
POINT
  5
956
100
AcDbEntity
  8
DEFPOINTS
 62
     0
100
AcDbPoint
 10
330.0
 20
290.0
 30
0.0
  0
POINT
  5
957
100
AcDbEntity
  8
DEFPOINTS
 62
     0
100
AcDbPoint
 10
330.0
 20
270.0
 30
0.0
  0
ENDBLK
  5
737
100
AcDbEntity
  8
0
100
AcDbBlockEnd
  0
BLOCK
  5
742
100
AcDbEntity
  8
0
100
AcDbBlockBegin
  2
*D54
 70
     1
 10
0.0
 20
0.0
 30
0.0
  3
*D54
  1

  0
LINE
  5
958
100
AcDbEntity
  8
DIMENSION
 62
     0
100
AcDbLine
 10
255.0
 20
424.375
 30
0.0
 11
255.0
 21
403.75
 31
0.0
  0
LINE
  5
959
100
AcDbEntity
  8
DIMENSION
 62
     0
100
AcDbLine
 10
325.0
 20
424.375
 30
0.0
 11
325.0
 21
403.75
 31
0.0
  0
LINE
  5
95A
100
AcDbEntity
  8
DIMENSION
 62
     0
100
AcDbLine
 10
257.5
 20
405.0
 30
0.0
 11
322.5
 21
405.0
 31
0.0
  0
SOLID
  5
95B
100
AcDbEntity
  8
DIMENSION
 62
     0
100
AcDbTrace
 10
257.5
 20
405.416667
 30
0.0
 11
257.5
 21
404.583333
 31
0.0
 12
255.0
 22
405.0
 32
0.0
 13
255.0
 23
405.0
 33
0.0
  0
SOLID
  5
95C
100
AcDbEntity
  8
DIMENSION
 62
     0
100
AcDbTrace
 10
322.5
 20
405.416667
 30
0.0
 11
322.5
 21
404.583333
 31
0.0
 12
325.0
 22
405.0
 32
0.0
 13
325.0
 23
405.0
 33
0.0
  0
MTEXT
  5
95D
100
AcDbEntity
  8
DIMENSION
 62
     6
100
AcDbMText
 10
290.0
 20
409.0
 30
0.0
 40
4.0
 41
0.0
 71
     5
 72
     1
  1
\A1;70
  7
ROMANS
  0
POINT
  5
95E
100
AcDbEntity
  8
DEFPOINTS
 62
     0
100
AcDbPoint
 10
255.0
 20
425.0
 30
0.0
  0
POINT
  5
95F
100
AcDbEntity
  8
DEFPOINTS
 62
     0
100
AcDbPoint
 10
325.0
 20
425.0
 30
0.0
  0
POINT
  5
960
100
AcDbEntity
  8
DEFPOINTS
 62
     0
100
AcDbPoint
 10
325.0
 20
405.0
 30
0.0
  0
ENDBLK
  5
743
100
AcDbEntity
  8
0
100
AcDbBlockEnd
  0
BLOCK
  5
74E
100
AcDbEntity
  8
0
100
AcDbBlockBegin
  2
*D55
 70
     1
 10
0.0
 20
0.0
 30
0.0
  3
*D55
  1

  0
LINE
  5
961
100
AcDbEntity
  8
DIMENSION
 62
     0
100
AcDbLine
 10
280.0
 20
340.625
 30
0.0
 11
280.0
 21
356.25
 31
0.0
  0
LINE
  5
962
100
AcDbEntity
  8
DIMENSION
 62
     0
100
AcDbLine
 10
330.0
 20
340.625
 30
0.0
 11
330.0
 21
356.25
 31
0.0
  0
LINE
  5
963
100
AcDbEntity
  8
DIMENSION
 62
     0
100
AcDbLine
 10
282.5
 20
355.0
 30
0.0
 11
327.5
 21
355.0
 31
0.0
  0
SOLID
  5
964
100
AcDbEntity
  8
DIMENSION
 62
     0
100
AcDbTrace
 10
282.5
 20
355.416667
 30
0.0
 11
282.5
 21
354.583333
 31
0.0
 12
280.0
 22
355.0
 32
0.0
 13
280.0
 23
355.0
 33
0.0
  0
SOLID
  5
965
100
AcDbEntity
  8
DIMENSION
 62
     0
100
AcDbTrace
 10
327.5
 20
355.416667
 30
0.0
 11
327.5
 21
354.583333
 31
0.0
 12
330.0
 22
355.0
 32
0.0
 13
330.0
 23
355.0
 33
0.0
  0
MTEXT
  5
966
100
AcDbEntity
  8
DIMENSION
 62
     6
100
AcDbMText
 10
305.0
 20
359.0
 30
0.0
 40
4.0
 41
0.0
 71
     5
 72
     1
  1
\A1;50
  7
ROMANS
  0
POINT
  5
967
100
AcDbEntity
  8
DEFPOINTS
 62
     0
100
AcDbPoint
 10
280.0
 20
340.0
 30
0.0
  0
POINT
  5
968
100
AcDbEntity
  8
DEFPOINTS
 62
     0
100
AcDbPoint
 10
330.0
 20
340.0
 30
0.0
  0
POINT
  5
969
100
AcDbEntity
  8
DEFPOINTS
 62
     0
100
AcDbPoint
 10
330.0
 20
355.0
 30
0.0
  0
ENDBLK
  5
74F
100
AcDbEntity
  8
0
100
AcDbBlockEnd
  0
BLOCK
  5
75A
100
AcDbEntity
  8
0
100
AcDbBlockBegin
  2
*D56
 70
     1
 10
0.0
 20
0.0
 30
0.0
  3
*D56
  1

  0
LINE
  5
96A
100
AcDbEntity
  8
DIMENSION
 62
     0
100
AcDbLine
 10
275.0
 20
475.625
 30
0.0
 11
275.0
 21
491.25
 31
0.0
  0
LINE
  5
96B
100
AcDbEntity
  8
DIMENSION
 62
     0
100
AcDbLine
 10
325.0
 20
475.625
 30
0.0
 11
325.0
 21
491.25
 31
0.0
  0
LINE
  5
96C
100
AcDbEntity
  8
DIMENSION
 62
     0
100
AcDbLine
 10
277.5
 20
490.0
 30
0.0
 11
322.5
 21
490.0
 31
0.0
  0
SOLID
  5
96D
100
AcDbEntity
  8
DIMENSION
 62
     0
100
AcDbTrace
 10
277.5
 20
490.416667
 30
0.0
 11
277.5
 21
489.583333
 31
0.0
 12
275.0
 22
490.0
 32
0.0
 13
275.0
 23
490.0
 33
0.0
  0
SOLID
  5
96E
100
AcDbEntity
  8
DIMENSION
 62
     0
100
AcDbTrace
 10
322.5
 20
490.416667
 30
0.0
 11
322.5
 21
489.583333
 31
0.0
 12
325.0
 22
490.0
 32
0.0
 13
325.0
 23
490.0
 33
0.0
  0
MTEXT
  5
96F
100
AcDbEntity
  8
DIMENSION
 62
     6
100
AcDbMText
 10
300.0
 20
494.0
 30
0.0
 40
4.0
 41
0.0
 71
     5
 72
     1
  1
\A1;50
  7
ROMANS
  0
POINT
  5
970
100
AcDbEntity
  8
DEFPOINTS
 62
     0
100
AcDbPoint
 10
275.0
 20
475.0
 30
0.0
  0
POINT
  5
971
100
AcDbEntity
  8
DEFPOINTS
 62
     0
100
AcDbPoint
 10
325.0
 20
475.0
 30
0.0
  0
POINT
  5
972
100
AcDbEntity
  8
DEFPOINTS
 62
     0
100
AcDbPoint
 10
325.0
 20
490.0
 30
0.0
  0
ENDBLK
  5
75B
100
AcDbEntity
  8
0
100
AcDbBlockEnd
  0
BLOCK
  5
766
100
AcDbEntity
  8
0
100
AcDbBlockBegin
  2
*D57
 70
     1
 10
0.0
 20
0.0
 30
0.0
  3
*D57
  1

  0
LINE
  5
973
100
AcDbEntity
  8
DIMENSION
 62
     0
100
AcDbLine
 10
330.0
 20
340.625
 30
0.0
 11
330.0
 21
356.25
 31
0.0
  0
LINE
  5
974
100
AcDbEntity
  8
DIMENSION
 62
     0
100
AcDbLine
 10
350.0
 20
340.625
 30
0.0
 11
350.0
 21
356.25
 31
0.0
  0
LINE
  5
975
100
AcDbEntity
  8
DIMENSION
 62
     0
100
AcDbLine
 10
332.5
 20
355.0
 30
0.0
 11
347.5
 21
355.0
 31
0.0
  0
SOLID
  5
976
100
AcDbEntity
  8
DIMENSION
 62
     0
100
AcDbTrace
 10
332.5
 20
355.416667
 30
0.0
 11
332.5
 21
354.583333
 31
0.0
 12
330.0
 22
355.0
 32
0.0
 13
330.0
 23
355.0
 33
0.0
  0
SOLID
  5
977
100
AcDbEntity
  8
DIMENSION
 62
     0
100
AcDbTrace
 10
347.5
 20
355.416667
 30
0.0
 11
347.5
 21
354.583333
 31
0.0
 12
350.0
 22
355.0
 32
0.0
 13
350.0
 23
355.0
 33
0.0
  0
MTEXT
  5
978
100
AcDbEntity
  8
DIMENSION
 62
     6
100
AcDbMText
 10
340.0
 20
359.0
 30
0.0
 40
4.0
 41
0.0
 71
     5
 72
     1
  1
\A1;20
  7
ROMANS
  0
POINT
  5
979
100
AcDbEntity
  8
DEFPOINTS
 62
     0
100
AcDbPoint
 10
330.0
 20
340.0
 30
0.0
  0
POINT
  5
97A
100
AcDbEntity
  8
DEFPOINTS
 62
     0
100
AcDbPoint
 10
350.0
 20
340.0
 30
0.0
  0
POINT
  5
97B
100
AcDbEntity
  8
DEFPOINTS
 62
     0
100
AcDbPoint
 10
350.0
 20
355.0
 30
0.0
  0
ENDBLK
  5
767
100
AcDbEntity
  8
0
100
AcDbBlockEnd
  0
BLOCK
  5
772
100
AcDbEntity
  8
0
100
AcDbBlockBegin
  2
*D58
 70
     1
 10
0.0
 20
0.0
 30
0.0
  3
*D58
  1

  0
LINE
  5
97C
100
AcDbEntity
  8
DIMENSION
 62
     0
100
AcDbLine
 10
325.0
 20
475.625
 30
0.0
 11
325.0
 21
491.25
 31
0.0
  0
LINE
  5
97D
100
AcDbEntity
  8
DIMENSION
 62
     0
100
AcDbLine
 10
345.0
 20
475.625
 30
0.0
 11
345.0
 21
491.25
 31
0.0
  0
LINE
  5
97E
100
AcDbEntity
  8
DIMENSION
 62
     0
100
AcDbLine
 10
327.5
 20
490.0
 30
0.0
 11
342.5
 21
490.0
 31
0.0
  0
SOLID
  5
97F
100
AcDbEntity
  8
DIMENSION
 62
     0
100
AcDbTrace
 10
327.5
 20
490.416667
 30
0.0
 11
327.5
 21
489.583333
 31
0.0
 12
325.0
 22
490.0
 32
0.0
 13
325.0
 23
490.0
 33
0.0
  0
SOLID
  5
980
100
AcDbEntity
  8
DIMENSION
 62
     0
100
AcDbTrace
 10
342.5
 20
490.416667
 30
0.0
 11
342.5
 21
489.583333
 31
0.0
 12
345.0
 22
490.0
 32
0.0
 13
345.0
 23
490.0
 33
0.0
  0
MTEXT
  5
981
100
AcDbEntity
  8
DIMENSION
 62
     6
100
AcDbMText
 10
335.0
 20
494.0
 30
0.0
 40
4.0
 41
0.0
 71
     5
 72
     1
  1
\A1;20
  7
ROMANS
  0
POINT
  5
982
100
AcDbEntity
  8
DEFPOINTS
 62
     0
100
AcDbPoint
 10
325.0
 20
475.0
 30
0.0
  0
POINT
  5
983
100
AcDbEntity
  8
DEFPOINTS
 62
     0
100
AcDbPoint
 10
345.0
 20
475.0
 30
0.0
  0
POINT
  5
984
100
AcDbEntity
  8
DEFPOINTS
 62
     0
100
AcDbPoint
 10
345.0
 20
490.0
 30
0.0
  0
ENDBLK
  5
773
100
AcDbEntity
  8
0
100
AcDbBlockEnd
  0
BLOCK
  5
77E
100
AcDbEntity
  8
0
100
AcDbBlockBegin
  2
*D59
 70
     1
 10
0.0
 20
0.0
 30
0.0
  3
*D59
  1

  0
LINE
  5
985
100
AcDbEntity
  8
DIMENSION
 62
     0
100
AcDbLine
 10
420.0
 20
289.375
 30
0.0
 11
420.0
 21
268.75
 31
0.0
  0
LINE
  5
986
100
AcDbEntity
  8
DIMENSION
 62
     0
100
AcDbLine
 10
460.0
 20
289.375
 30
0.0
 11
460.0
 21
268.75
 31
0.0
  0
LINE
  5
987
100
AcDbEntity
  8
DIMENSION
 62
     0
100
AcDbLine
 10
422.5
 20
270.0
 30
0.0
 11
457.5
 21
270.0
 31
0.0
  0
SOLID
  5
988
100
AcDbEntity
  8
DIMENSION
 62
     0
100
AcDbTrace
 10
422.5
 20
270.416667
 30
0.0
 11
422.5
 21
269.583333
 31
0.0
 12
420.0
 22
270.0
 32
0.0
 13
420.0
 23
270.0
 33
0.0
  0
SOLID
  5
989
100
AcDbEntity
  8
DIMENSION
 62
     0
100
AcDbTrace
 10
457.5
 20
270.416667
 30
0.0
 11
457.5
 21
269.583333
 31
0.0
 12
460.0
 22
270.0
 32
0.0
 13
460.0
 23
270.0
 33
0.0
  0
MTEXT
  5
98A
100
AcDbEntity
  8
DIMENSION
 62
     6
100
AcDbMText
 10
440.0
 20
274.0
 30
0.0
 40
4.0
 41
0.0
 71
     5
 72
     1
  1
\A1;40
  7
ROMANS
  0
POINT
  5
98B
100
AcDbEntity
  8
DEFPOINTS
 62
     0
100
AcDbPoint
 10
420.0
 20
290.0
 30
0.0
  0
POINT
  5
98C
100
AcDbEntity
  8
DEFPOINTS
 62
     0
100
AcDbPoint
 10
460.0
 20
290.0
 30
0.0
  0
POINT
  5
98D
100
AcDbEntity
  8
DEFPOINTS
 62
     0
100
AcDbPoint
 10
460.0
 20
270.0
 30
0.0
  0
ENDBLK
  5
77F
100
AcDbEntity
  8
0
100
AcDbBlockEnd
  0
BLOCK
  5
78A
100
AcDbEntity
  8
0
100
AcDbBlockBegin
  2
*D60
 70
     1
 10
0.0
 20
0.0
 30
0.0
  3
*D60
  1

  0
LINE
  5
98E
100
AcDbEntity
  8
DIMENSION
 62
     0
100
AcDbLine
 10
400.0
 20
424.375
 30
0.0
 11
400.0
 21
403.75
 31
0.0
  0
LINE
  5
98F
100
AcDbEntity
  8
DIMENSION
 62
     0
100
AcDbLine
 10
470.0
 20
424.375
 30
0.0
 11
470.0
 21
403.75
 31
0.0
  0
LINE
  5
990
100
AcDbEntity
  8
DIMENSION
 62
     0
100
AcDbLine
 10
402.5
 20
405.0
 30
0.0
 11
467.5
 21
405.0
 31
0.0
  0
SOLID
  5
991
100
AcDbEntity
  8
DIMENSION
 62
     0
100
AcDbTrace
 10
402.5
 20
405.416667
 30
0.0
 11
402.5
 21
404.583333
 31
0.0
 12
400.0
 22
405.0
 32
0.0
 13
400.0
 23
405.0
 33
0.0
  0
SOLID
  5
992
100
AcDbEntity
  8
DIMENSION
 62
     0
100
AcDbTrace
 10
467.5
 20
405.416667
 30
0.0
 11
467.5
 21
404.583333
 31
0.0
 12
470.0
 22
405.0
 32
0.0
 13
470.0
 23
405.0
 33
0.0
  0
MTEXT
  5
993
100
AcDbEntity
  8
DIMENSION
 62
     6
100
AcDbMText
 10
435.0
 20
409.0
 30
0.0
 40
4.0
 41
0.0
 71
     5
 72
     1
  1
\A1;70
  7
ROMANS
  0
POINT
  5
994
100
AcDbEntity
  8
DEFPOINTS
 62
     0
100
AcDbPoint
 10
400.0
 20
425.0
 30
0.0
  0
POINT
  5
995
100
AcDbEntity
  8
DEFPOINTS
 62
     0
100
AcDbPoint
 10
470.0
 20
425.0
 30
0.0
  0
POINT
  5
996
100
AcDbEntity
  8
DEFPOINTS
 62
     0
100
AcDbPoint
 10
470.0
 20
405.0
 30
0.0
  0
ENDBLK
  5
78B
100
AcDbEntity
  8
0
100
AcDbBlockEnd
  0
BLOCK
  5
796
100
AcDbEntity
  8
0
100
AcDbBlockBegin
  2
*D61
 70
     1
 10
0.0
 20
0.0
 30
0.0
  3
*D61
  1

  0
LINE
  5
997
100
AcDbEntity
  8
DIMENSION
 62
     0
100
AcDbLine
 10
420.0
 20
475.625
 30
0.0
 11
420.0
 21
491.25
 31
0.0
  0
LINE
  5
998
100
AcDbEntity
  8
DIMENSION
 62
     0
100
AcDbLine
 10
470.0
 20
475.625
 30
0.0
 11
470.0
 21
491.25
 31
0.0
  0
LINE
  5
999
100
AcDbEntity
  8
DIMENSION
 62
     0
100
AcDbLine
 10
422.5
 20
490.0
 30
0.0
 11
467.5
 21
490.0
 31
0.0
  0
SOLID
  5
99A
100
AcDbEntity
  8
DIMENSION
 62
     0
100
AcDbTrace
 10
422.5
 20
490.416667
 30
0.0
 11
422.5
 21
489.583333
 31
0.0
 12
420.0
 22
490.0
 32
0.0
 13
420.0
 23
490.0
 33
0.0
  0
SOLID
  5
99B
100
AcDbEntity
  8
DIMENSION
 62
     0
100
AcDbTrace
 10
467.5
 20
490.416667
 30
0.0
 11
467.5
 21
489.583333
 31
0.0
 12
470.0
 22
490.0
 32
0.0
 13
470.0
 23
490.0
 33
0.0
  0
MTEXT
  5
99C
100
AcDbEntity
  8
DIMENSION
 62
     6
100
AcDbMText
 10
445.0
 20
494.0
 30
0.0
 40
4.0
 41
0.0
 71
     5
 72
     1
  1
\A1;50
  7
ROMANS
  0
POINT
  5
99D
100
AcDbEntity
  8
DEFPOINTS
 62
     0
100
AcDbPoint
 10
420.0
 20
475.0
 30
0.0
  0
POINT
  5
99E
100
AcDbEntity
  8
DEFPOINTS
 62
     0
100
AcDbPoint
 10
470.0
 20
475.0
 30
0.0
  0
POINT
  5
99F
100
AcDbEntity
  8
DEFPOINTS
 62
     0
100
AcDbPoint
 10
470.0
 20
490.0
 30
0.0
  0
ENDBLK
  5
797
100
AcDbEntity
  8
0
100
AcDbBlockEnd
  0
BLOCK
  5
7A2
100
AcDbEntity
  8
0
100
AcDbBlockBegin
  2
*D62
 70
     1
 10
0.0
 20
0.0
 30
0.0
  3
*D62
  1

  0
LINE
  5
9A0
100
AcDbEntity
  8
DIMENSION
 62
     0
100
AcDbLine
 10
460.0
 20
340.625
 30
0.0
 11
460.0
 21
356.25
 31
0.0
  0
LINE
  5
9A1
100
AcDbEntity
  8
DIMENSION
 62
     0
100
AcDbLine
 10
480.0
 20
340.625
 30
0.0
 11
480.0
 21
356.25
 31
0.0
  0
LINE
  5
9A2
100
AcDbEntity
  8
DIMENSION
 62
     0
100
AcDbLine
 10
462.5
 20
355.0
 30
0.0
 11
477.5
 21
355.0
 31
0.0
  0
SOLID
  5
9A3
100
AcDbEntity
  8
DIMENSION
 62
     0
100
AcDbTrace
 10
462.5
 20
355.416667
 30
0.0
 11
462.5
 21
354.583333
 31
0.0
 12
460.0
 22
355.0
 32
0.0
 13
460.0
 23
355.0
 33
0.0
  0
SOLID
  5
9A4
100
AcDbEntity
  8
DIMENSION
 62
     0
100
AcDbTrace
 10
477.5
 20
355.416667
 30
0.0
 11
477.5
 21
354.583333
 31
0.0
 12
480.0
 22
355.0
 32
0.0
 13
480.0
 23
355.0
 33
0.0
  0
MTEXT
  5
9A5
100
AcDbEntity
  8
DIMENSION
 62
     6
100
AcDbMText
 10
470.0
 20
359.0
 30
0.0
 40
4.0
 41
0.0
 71
     5
 72
     1
  1
\A1;20
  7
ROMANS
  0
POINT
  5
9A6
100
AcDbEntity
  8
DEFPOINTS
 62
     0
100
AcDbPoint
 10
460.0
 20
340.0
 30
0.0
  0
POINT
  5
9A7
100
AcDbEntity
  8
DEFPOINTS
 62
     0
100
AcDbPoint
 10
480.0
 20
340.0
 30
0.0
  0
POINT
  5
9A8
100
AcDbEntity
  8
DEFPOINTS
 62
     0
100
AcDbPoint
 10
480.0
 20
355.0
 30
0.0
  0
ENDBLK
  5
7A3
100
AcDbEntity
  8
0
100
AcDbBlockEnd
  0
BLOCK
  5
7AE
100
AcDbEntity
  8
0
100
AcDbBlockBegin
  2
*D63
 70
     1
 10
0.0
 20
0.0
 30
0.0
  3
*D63
  1

  0
LINE
  5
9A9
100
AcDbEntity
  8
DIMENSION
 62
     0
100
AcDbLine
 10
440.0
 20
340.625
 30
0.0
 11
440.0
 21
356.25
 31
0.0
  0
LINE
  5
9AA
100
AcDbEntity
  8
DIMENSION
 62
     0
100
AcDbLine
 10
460.0
 20
340.625
 30
0.0
 11
460.0
 21
356.25
 31
0.0
  0
LINE
  5
9AB
100
AcDbEntity
  8
DIMENSION
 62
     0
100
AcDbLine
 10
442.5
 20
355.0
 30
0.0
 11
457.5
 21
355.0
 31
0.0
  0
SOLID
  5
9AC
100
AcDbEntity
  8
DIMENSION
 62
     0
100
AcDbTrace
 10
442.5
 20
355.416667
 30
0.0
 11
442.5
 21
354.583333
 31
0.0
 12
440.0
 22
355.0
 32
0.0
 13
440.0
 23
355.0
 33
0.0
  0
SOLID
  5
9AD
100
AcDbEntity
  8
DIMENSION
 62
     0
100
AcDbTrace
 10
457.5
 20
355.416667
 30
0.0
 11
457.5
 21
354.583333
 31
0.0
 12
460.0
 22
355.0
 32
0.0
 13
460.0
 23
355.0
 33
0.0
  0
MTEXT
  5
9AE
100
AcDbEntity
  8
DIMENSION
 62
     6
100
AcDbMText
 10
450.0
 20
359.0
 30
0.0
 40
4.0
 41
0.0
 71
     5
 72
     1
  1
\A1;20
  7
ROMANS
  0
POINT
  5
9AF
100
AcDbEntity
  8
DEFPOINTS
 62
     0
100
AcDbPoint
 10
440.0
 20
340.0
 30
0.0
  0
POINT
  5
9B0
100
AcDbEntity
  8
DEFPOINTS
 62
     0
100
AcDbPoint
 10
460.0
 20
340.0
 30
0.0
  0
POINT
  5
9B1
100
AcDbEntity
  8
DEFPOINTS
 62
     0
100
AcDbPoint
 10
460.0
 20
355.0
 30
0.0
  0
ENDBLK
  5
7AF
100
AcDbEntity
  8
0
100
AcDbBlockEnd
  0
BLOCK
  5
7BA
100
AcDbEntity
  8
0
100
AcDbBlockBegin
  2
*D64
 70
     1
 10
0.0
 20
0.0
 30
0.0
  3
*D64
  1

  0
LINE
  5
9B2
100
AcDbEntity
  8
DIMENSION
 62
     0
100
AcDbLine
 10
470.0
 20
475.625
 30
0.0
 11
470.0
 21
491.25
 31
0.0
  0
LINE
  5
9B3
100
AcDbEntity
  8
DIMENSION
 62
     0
100
AcDbLine
 10
490.0
 20
475.625
 30
0.0
 11
490.0
 21
491.25
 31
0.0
  0
LINE
  5
9B4
100
AcDbEntity
  8
DIMENSION
 62
     0
100
AcDbLine
 10
472.5
 20
490.0
 30
0.0
 11
487.5
 21
490.0
 31
0.0
  0
SOLID
  5
9B5
100
AcDbEntity
  8
DIMENSION
 62
     0
100
AcDbTrace
 10
472.5
 20
490.416667
 30
0.0
 11
472.5
 21
489.583333
 31
0.0
 12
470.0
 22
490.0
 32
0.0
 13
470.0
 23
490.0
 33
0.0
  0
SOLID
  5
9B6
100
AcDbEntity
  8
DIMENSION
 62
     0
100
AcDbTrace
 10
487.5
 20
490.416667
 30
0.0
 11
487.5
 21
489.583333
 31
0.0
 12
490.0
 22
490.0
 32
0.0
 13
490.0
 23
490.0
 33
0.0
  0
MTEXT
  5
9B7
100
AcDbEntity
  8
DIMENSION
 62
     6
100
AcDbMText
 10
480.0
 20
494.0
 30
0.0
 40
4.0
 41
0.0
 71
     5
 72
     1
  1
\A1;20
  7
ROMANS
  0
POINT
  5
9B8
100
AcDbEntity
  8
DEFPOINTS
 62
     0
100
AcDbPoint
 10
470.0
 20
475.0
 30
0.0
  0
POINT
  5
9B9
100
AcDbEntity
  8
DEFPOINTS
 62
     0
100
AcDbPoint
 10
490.0
 20
475.0
 30
0.0
  0
POINT
  5
9BA
100
AcDbEntity
  8
DEFPOINTS
 62
     0
100
AcDbPoint
 10
490.0
 20
490.0
 30
0.0
  0
ENDBLK
  5
7BB
100
AcDbEntity
  8
0
100
AcDbBlockEnd
  0
ENDSEC
  0
SECTION
  2
ENTITIES
  0
TEXT
  5
5D5
100
AcDbEntity
  8
TEXT
100
AcDbText
 10
110.377613
 20
644.60561
 30
0.0
 40
8.0
  1
PROFILES WITH ONE GLASS BEAD ON EACH SIDE AT THE GLASS CENTERED
 41
0.8
  7
ROMANT
100
AcDbText
  0
TEXT
  5
5D6
100
AcDbEntity
  8
TEXT
100
AcDbText
 10
102.685715
 20
620.205042
 30
0.0
 40
8.0
  1
 COULD BE SECURED WITH TYPE FIXING SCREW FOR EXTERN PARTIONS.
 41
0.8
  7
ROMANT
100
AcDbText
  0
TEXT
  5
5D7
100
AcDbEntity
  8
TEXT
100
AcDbText
 10
110.377613
 20
607.174933
 30
0.0
 40
8.0
  1
ALLOWED FOR REPLACING NORMAL GLAZING ACCORDING TO THE SAMPLES DRAWING.
 41
0.8
  7
ROMANT
100
AcDbText
  0
INSERT
  5
5D8
100
AcDbEntity
  8
GLAS_MED_FOGNING
100
AcDbBlockReference
 66
     1
  2
RAMA4
 10
94.375
 20
28.125
 30
0.0
 41
1.125
 42
1.125
 43
1.125
  0
ATTRIB
  5
5D9
100
AcDbEntity
  8
RAMTEXT
 62
     6
100
AcDbText
 10
192.445931
 20
70.044414
 30
0.0
 40
5.0625
  1
 
  7
ISO
 72
     1
 11
193.374963
 21
70.044414
 31
0.0
100
AcDbAttribute
  2
COPIED
 70
     0
  0
ATTRIB
  5
5DA
100
AcDbEntity
  8
RAMTEXT
 62
     6
100
AcDbText
 10
143.61782
 20
70.044414
 30
0.0
 40
5.0625
  1
 R.O
 41
0.8
  7
ROMANS
 72
     1
 11
152.874963
 21
70.044414
 31
0.0
100
AcDbAttribute
  2
DOC_DESIGNER
 70
     0
  0
ATTRIB
  5
5DB
100
AcDbEntity
  8
RAMTEXT
 62
     6
100
AcDbText
 10
98.808629
 20
34.287503
 30
0.0
 40
7.0875
  1

  7
ISO
100
AcDbAttribute
  2
LG_DESC_1
 70
     0
  0
ATTRIB
  5
5DC
100
AcDbEntity
  8
RAMTEXT
 62
     6
100
AcDbText
 10
113.695931
 20
70.044414
 30
0.0
 40
5.0625
  1
 
  7
ISO
 72
     1
 11
114.624963
 21
70.044414
 31
0.0
100
AcDbAttribute
  2
DOC_DESIGNER
 70
     0
  0
ATTRIB
  5
5DD
100
AcDbEntity
  8
RAMTEXT
 62
     6
100
AcDbText
 10
218.058629
 20
34.287503
 30
0.0
 40
6.5
  1
PROFILES WITH CENTERED GLAZING
 41
0.8
  7
ROMANS
100
AcDbAttribute
  2
DOC_DESC2
 70
     0
  0
ATTRIB
  5
5DE
100
AcDbEntity
  8
RAMTEXT
 62
     6
100
AcDbText
 10
218.058629
 20
47.787503
 30
0.0
 40
6.5
  1
SP 35000/SP 75000  EI-30/A-30
 41
0.8
  7
ROMANS
100
AcDbAttribute
  2
DOC_DESC1
 70
     0
  0
ATTRIB
  5
5DF
100
AcDbEntity
  8
RAMTEXT
 62
     6
100
AcDbText
 10
230.695931
 20
70.044414
 30
0.0
 40
5.0625
  1
 
  7
ISO
 72
     1
 11
231.624963
 21
70.044414
 31
0.0
100
AcDbAttribute
  2
CHECK
 70
     0
  0
ATTRIB
  5
5E0
100
AcDbEntity
  8
RAMTEXT
 62
     6
100
AcDbText
 10
271.195931
 20
70.044414
 30
0.0
 40
5.0625
  1
 
  7
ISO
 72
     1
 11
272.124963
 21
70.044414
 31
0.0
100
AcDbAttribute
  2
STAND
 70
     0
  0
ATTRIB
  5
5E1
100
AcDbEntity
  8
RAMTEXT
 62
     6
100
AcDbText
 10
410.364963
 20
34.287503
 30
0.0
 40
7.0875
  1
4-2538
 41
0.8
  7
ROMANS
 72
     1
 11
427.374963
 21
34.287503
 31
0.0
100
AcDbAttribute
  2
DOC_FILE_NAME
 70
     0
  0
ATTRIB
  5
5E2
100
AcDbEntity
  8
RAMTEXT
 62
     6
100
AcDbText
 10
309.445931
 20
70.044414
 30
0.0
 40
5.0625
  1
 
  7
ISO
 72
     1
 11
310.374963
 21
70.044414
 31
0.0
100
AcDbAttribute
  2
GODK
 70
     0
  0
ATTRIB
  5
5E3
100
AcDbEntity
  8
RAMTEXT
 62
     6
100
AcDbText
 10
345.121391
 20
70.044414
 30
0.0
 40
5.0625
  1
1;2,5
 41
0.8
  7
ROMANS
 72
     1
 11
353.124963
 21
70.044414
 31
0.0
100
AcDbAttribute
  2
SCALE
 70
     0
  0
ATTRIB
  5
5E4
100
AcDbEntity
  8
RAMTEXT
 62
     6
100
AcDbText
 10
435.539248
 20
52.911387
 30
0.0
 40
5.0625
  1
99-12-16
 41
0.8
  7
ROMANS
 72
     1
 11
452.124963
 21
52.911387
 31
0.0
100
AcDbAttribute
  2
DOC_LASTEDIT_DATE
 70
     0
  0
ATTRIB
  5
5E5
100
AcDbEntity
  8
RAMTEXT
 62
     6
100
AcDbText
 10
400.374963
 20
52.911387
 30
0.0
 40
5.0625
  1

  7
ISO
 72
     1
 11
400.374963
 21
52.911387
 31
0.0
100
AcDbAttribute
  2
REG
 70
     0
  0
ATTRIB
  5
5E6
100
AcDbEntity
  8
RAMTEXT
 62
     6
100
AcDbText
 10
451.195931
 20
70.044414
 30
0.0
 40
5.0625
  1
 
  7
ISO
 72
     1
 11
452.124963
 21
70.044414
 31
0.0
100
AcDbAttribute
  2
REPL_BY
 70
     0
  0
ATTRIB
  5
5E7
100
AcDbEntity
  8
RAMTEXT
 62
     6
100
AcDbText
 10
399.445931
 20
70.044414
 30
0.0
 40
5.0625
  1
 
  7
ISO
 72
     1
 11
400.374963
 21
70.044414
 31
0.0
100
AcDbAttribute
  2
REPL
 70
     0
  0
SEQEND
  5
5E8
100
AcDbEntity
  8
GLAS_MED_FOGNING
  0
TEXT
  5
5E9
100
AcDbEntity
  8
TEXT
100
AcDbText
 10
110.377613
 20
632.629776
 30
0.0
 40
8.0
  1
PLACED, SP 40000 ELLER SP 90000.
 41
0.8
  7
ROMANT
100
AcDbText
  0
TEXT
  5
5EA
100
AcDbEntity
  8
TEXT
100
AcDbText
 10
102.788993
 20
92.104121
 30
0.0
 40
4.5
  1
* MAY ALSO USE STAINLESS PROFILES AND GLAZING BEADS
 41
0.8
  7
ROMANS
100
AcDbText
  0
TEXT
  5
5EB
100
AcDbEntity
  8
TEXT
100
AcDbText
 10
141.442857
 20
280.906556
 30
0.0
 40
5.0
  1
%%USP 75010/750/10
 41
0.8
  7
ROMANS
 72
     1
 11
170.0
 21
280.906556
 31
0.0
100
AcDbText
  0
DIMENSION
  5
5EC
100
AcDbEntity
  8
DIMENSION
100
AcDbDimension
  2
*D48
 10
200.0
 20
405.0
 30
0.0
 11
165.0
 21
409.0
 31
0.0
 70
    32
  3
STANDARD
100
AcDbAlignedDimension
 13
130.0
 23
425.0
 33
0.0
 14
200.0
 24
425.0
 34
0.0
100
AcDbRotatedDimension
1001
ACAD
1000
DSTYLE
1002
{
1070
   270
1070
     8
1070
   270
1070
     8
1070
    41
1040
2.5
1070
    42
1040
0.625
1070
    43
1040
3.75
1070
    44
1040
1.25
1070
    73
1070
     0
1070
    74
1070
     0
1070
    77
1070
     1
1070
    78
1070
     8
1070
   140
1040
4.0
1070
   141
1040
2.5
1070
   143
1040
0.0394
1070
   147
1040
2.0
1070
   171
1070
     4
1070
   172
1070
     1
1070
   178
1070
     6
1070
   273
1070
     8
1070
   274
1070
     4
1070
   277
1070
     6
1070
   340
1005
1C
1002
}
  0
INSERT
  5
5ED
100
AcDbEntity
  8
0
100
AcDbBlockReference
  2
SP41520
 10
165.0
 20
305.0
 30
0.0
 41
-1.0
 50
270.0
  0
INSERT
  5
5EE
100
AcDbEntity
  8
0
100
AcDbBlockReference
  2
SP41520
 10
165.0
 20
325.0
 30
0.0
 50
270.0
  0
LWPOLYLINE
  5
5EF
100
AcDbEntity
  8
SPKONTUR
100
AcDbPolyline
 90
        8
 70
     1
 43
0.0
 10
141.8
 20
290.0
 42
-0.414214
 10
140.0
 20
291.8
 10
140.0
 20
308.2
 42
-0.414214
 10
141.8
 20
310.0
 10
188.2
 20
310.0
 42
-0.414214
 10
190.0
 20
308.2
 10
190.0
 20
291.8
 42
-0.414214
 10
188.2
 20
290.0
  0
LWPOLYLINE
  5
5F0
100
AcDbEntity
  8
STALPROFIL
100
AcDbPolyline
 90
        8
 70
     1
 43
1.8
 10
141.8
 20
290.9
 42
-0.414214
 10
140.9
 20
291.8
 10
140.9
 20
308.2
 42
-0.414214
 10
141.8
 20
309.1
 10
188.2
 20
309.1
 42
-0.414214
 10
189.1
 20
308.2
 10
189.1
 20
291.8
 42
-0.414214
 10
188.2
 20
290.9
  0
DIMENSION
  5
5F1
100
AcDbEntity
  8
DIMENSION
100
AcDbDimension
  2
*D49
 10
190.0
 20
355.0
 30
0.0
 11
165.0
 21
359.0
 31
0.0
 70
    32
  3
STANDARD
100
AcDbAlignedDimension
 13
140.0
 23
340.0
 33
0.0
 14
190.0
 24
340.0
 34
0.0
100
AcDbRotatedDimension
1001
ACAD
1000
DSTYLE
1002
{
1070
   270
1070
     8
1070
   270
1070
     8
1070
    41
1040
2.5
1070
    42
1040
0.625
1070
    43
1040
3.75
1070
    44
1040
1.25
1070
    73
1070
     0
1070
    74
1070
     0
1070
    77
1070
     1
1070
    78
1070
     8
1070
   140
1040
4.0
1070
   141
1040
2.5
1070
   143
1040
0.0394
1070
   147
1040
2.0
1070
   171
1070
     4
1070
   172
1070
     1
1070
   178
1070
     6
1070
   273
1070
     8
1070
   274
1070
     4
1070
   277
1070
     6
1070
   340
1005
1C
1002
}
  0
INSERT
  5
5F2
100
AcDbEntity
  8
GLAS_MED_FOGNING
100
AcDbBlockReference
  2
*X28
 10
165.0
 20
340.0
 30
0.0
 50
90.0
1001
ACAD
1000
HATCH
1002
{
1070
    16
1000
DASH
1040
25.0
1040
2.007129
1002
}
  0
LWPOLYLINE
  5
5F3
100
AcDbEntity
  8
SPKONTUR
100
AcDbPolyline
 90
       25
 70
     0
 43
0.0
 10
146.6
 20
331.9
 10
146.6
 20
331.885281
 10
146.6
 20
331.9
 42
-0.414214
 10
149.1
 20
334.4
 10
151.2
 20
334.4
 42
0.414214
 10
153.0
 20
336.2
 10
153.0
 20
336.4
 42
-0.414214
 10
156.6
 20
340.0
 10
188.2
 20
340.0
 42
-0.414214
 10
190.0
 20
338.2
 10
190.0
 20
321.8
 42
-0.414214
 10
188.2
 20
320.0
 10
141.8
 20
320.0
 42
-0.414214
 10
140.0
 20
321.8
 10
140.0
 20
332.1
 42
-0.414214
 10
141.8
 20
333.9
 10
141.801
 20
333.9
 42
-0.414214
 10
143.6
 20
332.101
 10
143.6
 20
327.4
 42
0.414214
 10
145.4
 20
325.6
 10
146.8
 20
325.6
 42
0.414214
 10
148.6
 20
327.4
 42
0.198912
 10
147.72132
 20
329.52132
 10
147.47868
 20
329.763961
 42
-0.198912
 10
146.6
 20
331.885281
  0
LWPOLYLINE
  5
5F4
100
AcDbEntity
  8
STALPROFIL
100
AcDbPolyline
 90
       22
 70
     1
 43
1.8
 10
147.5
 20
331.885281
 10
147.5
 20
331.9
 42
-0.414214
 10
149.1
 20
333.5
 10
151.2
 20
333.5
 42
0.414214
 10
153.9
 20
336.2
 10
153.9
 20
336.4
 42
-0.414214
 10
156.6
 20
339.1
 10
188.2
 20
339.1
 42
-0.414214
 10
189.1
 20
338.2
 10
189.1
 20
321.8
 42
-0.414214
 10
188.2
 20
320.9
 10
141.8
 20
320.9
 42
-0.414214
 10
140.9
 20
321.8
 10
140.9
 20
332.1
 42
-0.414214
 10
141.801
 20
333.0
 42
-0.414214
 10
142.7
 20
332.101
 10
142.7
 20
327.4
 42
0.414214
 10
145.4
 20
324.7
 10
146.8
 20
324.7
 42
0.414214
 10
149.5
 20
327.4
 42
0.198912
 10
148.357716
 20
330.157716
 10
148.115076
 20
330.400357
 42
-0.198912
  0
TEXT
  5
5F5
100
AcDbEntity
  8
TEXT
100
AcDbText
 10
160.171429
 20
443.0
 30
0.0
 40
5.0
  1
%%USP 35011
 41
0.8
  7
ROMANS
 72
     1
 11
175.0
 21
443.0
 31
0.0
100
AcDbText
  0
LWPOLYLINE
  5
5F6
100
AcDbEntity
  8
SPKONTUR
100
AcDbPolyline
 90
       28
 70
     1
 43
0.0
 10
151.5
 20
469.0
 42
-0.414214
 10
153.0
 20
467.5
 10
153.0
 20
463.0
 42
0.414214
 10
154.5
 20
461.5
 10
156.5
 20
461.5
 42
0.414214
 10
158.0
 20
463.0
 42
0.198912
 10
157.56066
 20
464.06066
 10
156.87868
 20
464.742641
 42
-0.198912
 10
156.0
 20
466.863961
 10
156.0
 20
467.0
 42
-0.414214
 10
159.0
 20
470.0
 10
161.5
 20
470.0
 42
0.414214
 10
163.0
 20
471.5
 10
163.0
 20
472.0
 42
-0.414214
 10
166.0
 20
475.0
 10
197.5
 20
475.0
 42
-0.414214
 10
200.0
 20
472.5
 10
200.0
 20
427.5
 42
-0.414214
 10
197.5
 20
425.0
 10
131.499
 20
425.0
 42
-0.414214
 10
130.0
 20
426.499
 10
130.0
 20
426.5
 42
-0.414214
 10
131.5
 20
428.0
 10
148.5
 20
428.0
 42
0.414214
 10
150.0
 20
429.5
 10
150.0
 20
461.5
 10
150.0
 20
467.501
 42
-0.414214
 10
151.499
 20
469.0
  0
LWPOLYLINE
  5
5F7
100
AcDbEntity
  8
STALPROFIL
100
AcDbPolyline
 90
       27
 70
     1
 43
1.5
 10
151.5
 20
468.25
 42
-0.414214
 10
152.25
 20
467.5
 10
152.25
 20
463.0
 42
0.414214
 10
154.5
 20
460.75
 10
156.5
 20
460.75
 42
0.414214
 10
158.75
 20
463.0
 42
0.198912
 10
158.09099
 20
464.59099
 10
157.40901
 20
465.272971
 42
-0.198912
 10
156.75
 20
466.863961
 10
156.75
 20
467.0
 42
-0.414214
 10
159.0
 20
469.25
 10
161.5
 20
469.25
 42
0.414214
 10
163.75
 20
471.5
 10
163.75
 20
472.0
 42
-0.414214
 10
166.0
 20
474.25
 10
197.5
 20
474.25
 42
-0.414214
 10
199.25
 20
472.5
 10
199.25
 20
427.5
 42
-0.414214
 10
197.5
 20
425.75
 10
131.499
 20
425.75
 42
-0.414214
 10
130.75
 20
426.499
 10
130.75
 20
426.5
 42
-0.414214
 10
131.5
 20
427.25
 10
148.5
 20
427.25
 42
0.414214
 10
150.75
 20
429.5
 10
150.75
 20
467.501
 42
-0.414214
 10
151.499
 20
468.25
  0
DIMENSION
  5
5F8
100
AcDbEntity
  8
DIMENSION
100
AcDbDimension
  2
*D50
 10
200.0
 20
490.0
 30
0.0
 11
175.0
 21
494.0
 31
0.0
 70
    32
  3
STANDARD
100
AcDbAlignedDimension
 13
150.0
 23
475.0
 33
0.0
 14
200.0
 24
475.0
 34
0.0
100
AcDbRotatedDimension
1001
ACAD
1000
DSTYLE
1002
{
1070
   270
1070
     8
1070
   270
1070
     8
1070
    41
1040
2.5
1070
    42
1040
0.625
1070
    43
1040
3.75
1070
    44
1040
1.25
1070
    73
1070
     0
1070
    74
1070
     0
1070
    77
1070
     1
1070
    78
1070
     8
1070
   140
1040
4.0
1070
   141
1040
2.5
1070
   143
1040
0.0394
1070
   147
1040
2.0
1070
   171
1070
     4
1070
   172
1070
     1
1070
   178
1070
     6
1070
   273
1070
     8
1070
   274
1070
     4
1070
   277
1070
     6
1070
   340
1005
1C
1002
}
  0
LWPOLYLINE
  5
5F9
100
AcDbEntity
  8
GLAS_MED_FOGNING
100
AcDbPolyline
 90
        4
 70
     0
 43
0.0
 10
141.8
 20
320.0
 10
140.0
 20
320.0
 10
140.0
 20
310.0
 10
141.8
 20
310.0
  0
INSERT
  5
5FA
100
AcDbEntity
  8
0
100
AcDbBlockReference
  2
SP41520
 10
175.0
 20
440.0
 30
0.0
 41
-1.0
 50
270.0
  0
LWPOLYLINE
  5
5FB
100
AcDbEntity
  8
CENTRUM
100
AcDbPolyline
 90
        4
 70
     0
 43
0.0
 10
232.5
 20
421.148262
 10
232.5
 20
462.0
 10
232.5
 20
468.0
 10
232.5
 20
477.0
  0
LINE
  5
5FC
100
AcDbEntity
  8
GLAS_MED_FOGNING
100
AcDbLine
 10
222.5
 20
319.568811
 30
0.0
 11
214.0
 21
319.568811
 31
0.0
  0
LINE
  5
5FD
100
AcDbEntity
  8
GLAS_MED_FOGNING
100
AcDbLine
 10
222.5
 20
309.522938
 30
0.0
 11
214.0
 21
309.522938
 31
0.0
  0
ARC
  5
5FE
100
AcDbEntity
  8
GLAS_MED_FOGNING
100
AcDbCircle
 10
216.351497
 20
303.18832
 30
0.0
 40
6.413645
100
AcDbArc
 50
93.644277
 51
182.474943
  0
ARC
  5
5FF
100
AcDbEntity
  8
GLAS_MED_FOGNING
100
AcDbCircle
 10
216.351497
 20
325.903428
 30
0.0
 40
6.413645
100
AcDbArc
 50
177.525057
 51
266.355723
  0
DIMENSION
  5
600
100
AcDbEntity
  8
DIMENSION
100
AcDbDimension
  2
*D51
 10
210.0
 20
355.0
 30
0.0
 11
200.0
 21
359.0
 31
0.0
 70
    32
  3
STANDARD
100
AcDbAlignedDimension
 13
190.0
 23
340.0
 33
0.0
 14
210.0
 24
340.0
 34
0.0
100
AcDbRotatedDimension
1001
ACAD
1000
DSTYLE
1002
{
1070
   270
1070
     8
1070
   270
1070
     8
1070
    41
1040
2.5
1070
    42
1040
0.625
1070
    43
1040
3.75
1070
    44
1040
1.25
1070
    73
1070
     0
1070
    74
1070
     0
1070
    77
1070
     1
1070
    78
1070
     8
1070
   140
1040
4.0
1070
   141
1040
2.5
1070
   143
1040
0.0394
1070
   147
1040
2.0
1070
   171
1070
     4
1070
   172
1070
     1
1070
   178
1070
     6
1070
   273
1070
     8
1070
   274
1070
     4
1070
   277
1070
     6
1070
   340
1005
1C
1002
}
  0
LINE
  5
601
100
AcDbEntity
  8
GLAS_MED_FOGNING
100
AcDbLine
 10
214.0
 20
319.568811
 30
0.0
 11
195.0
 21
319.568811
 31
0.0
  0
LINE
  5
602
100
AcDbEntity
  8
GLAS_MED_FOGNING
100
AcDbLine
 10
214.0
 20
309.522938
 30
0.0
 11
195.0
 21
309.522938
 31
0.0
  0
INSERT
  5
603
100
AcDbEntity
  8
GLAS_MED_FOGNING
100
AcDbBlockReference
  2
*X26
 10
165.0
 20
262.533941
 30
0.0
 50
270.0
1001
ACAD
1000
HATCH
1002
{
1070
    16
1000
AR-SAND
1040
2.0
1040
0.0
1002
}
  0
LINE
  5
604
100
AcDbEntity
  8
GLAS_MED_FOGNING
100
AcDbLine
 10
195.0
 20
309.522938
 30
0.0
 11
195.0
 21
319.568811
 31
0.0
  0
LINE
  5
605
100
AcDbEntity
  8
GLAS_MED_FOGNING
100
AcDbLine
 10
197.0
 20
319.568811
 30
0.0
 11
197.0
 21
325.568811
 31
0.0
  0
LINE
  5
606
100
AcDbEntity
  8
GLAS_MED_FOGNING
100
AcDbLine
 10
198.0
 20
319.568811
 30
0.0
 11
198.0
 21
325.568811
 31
0.0
  0
LINE
  5
607
100
AcDbEntity
  8
GLAS_MED_FOGNING
100
AcDbLine
 10
196.0
 20
319.568811
 30
0.0
 11
196.0
 21
325.568811
 31
0.0
  0
LINE
  5
608
100
AcDbEntity
  8
GLAS_MED_FOGNING
100
AcDbLine
 10
197.0
 20
304.522938
 30
0.0
 11
197.0
 21
309.522938
 31
0.0
  0
LINE
  5
609
100
AcDbEntity
  8
GLAS_MED_FOGNING
100
AcDbLine
 10
198.0
 20
304.522938
 30
0.0
 11
198.0
 21
309.522938
 31
0.0
  0
LINE
  5
60A
100
AcDbEntity
  8
GLAS_MED_FOGNING
100
AcDbLine
 10
196.0
 20
304.522938
 30
0.0
 11
196.0
 21
309.522938
 31
0.0
  0
INSERT
  5
60B
100
AcDbEntity
  8
GLAS_MED_FOGNING
100
AcDbBlockReference
  2
*X27
 10
165.0
 20
277.0
 30
0.0
 50
270.0
1001
ACAD
1000
HATCH
1002
{
1070
    16
1000
AR-SAND
1040
2.0
1040
0.0
1002
}
  0
LWPOLYLINE
  5
60C
100
AcDbEntity
  8
GLAS_MED_FOGNING
100
AcDbPolyline
 90
        4
 70
     0
 43
0.0
 10
188.2
 20
320.0
 10
190.0
 20
320.0
 10
190.0
 20
310.0
 10
188.2
 20
310.0
  0
LINE
  5
60D
100
AcDbEntity
  8
GLAS_MED_FOGNING
100
AcDbLine
 10
199.0
 20
319.568811
 30
0.0
 11
199.0
 21
325.568811
 31
0.0
  0
LINE
  5
60E
100
AcDbEntity
  8
GLAS_MED_FOGNING
100
AcDbLine
 10
200.0
 20
319.568811
 30
0.0
 11
200.0
 21
325.568811
 31
0.0
  0
LINE
  5
60F
100
AcDbEntity
  8
GLAS_MED_FOGNING
100
AcDbLine
 10
201.0
 20
319.568811
 30
0.0
 11
201.0
 21
325.568811
 31
0.0
  0
LINE
  5
610
100
AcDbEntity
  8
GLAS_MED_FOGNING
100
AcDbLine
 10
202.0
 20
319.568811
 30
0.0
 11
202.0
 21
325.568811
 31
0.0
  0
LINE
  5
611
100
AcDbEntity
  8
GLAS_MED_FOGNING
100
AcDbLine
 10
203.0
 20
319.568811
 30
0.0
 11
203.0
 21
325.568811
 31
0.0
  0
LINE
  5
612
100
AcDbEntity
  8
GLAS_MED_FOGNING
100
AcDbLine
 10
199.0
 20
304.522938
 30
0.0
 11
199.0
 21
309.522938
 31
0.0
  0
LINE
  5
613
100
AcDbEntity
  8
GLAS_MED_FOGNING
100
AcDbLine
 10
200.0
 20
304.522938
 30
0.0
 11
200.0
 21
309.522938
 31
0.0
  0
LINE
  5
614
100
AcDbEntity
  8
GLAS_MED_FOGNING
100
AcDbLine
 10
201.0
 20
304.522938
 30
0.0
 11
201.0
 21
309.522938
 31
0.0
  0
LINE
  5
615
100
AcDbEntity
  8
GLAS_MED_FOGNING
100
AcDbLine
 10
202.0
 20
304.522938
 30
0.0
 11
202.0
 21
309.522938
 31
0.0
  0
LINE
  5
616
100
AcDbEntity
  8
GLAS_MED_FOGNING
100
AcDbLine
 10
203.0
 20
304.522938
 30
0.0
 11
203.0
 21
309.522938
 31
0.0
  0
LINE
  5
617
100
AcDbEntity
  8
GLAS_MED_FOGNING
100
AcDbLine
 10
205.0
 20
319.568811
 30
0.0
 11
205.0
 21
325.568811
 31
0.0
  0
LINE
  5
618
100
AcDbEntity
  8
GLAS_MED_FOGNING
100
AcDbLine
 10
204.0
 20
319.568811
 30
0.0
 11
204.0
 21
325.568811
 31
0.0
  0
LINE
  5
619
100
AcDbEntity
  8
GLAS_MED_FOGNING
100
AcDbLine
 10
206.0
 20
319.568811
 30
0.0
 11
206.0
 21
325.568811
 31
0.0
  0
LINE
  5
61A
100
AcDbEntity
  8
GLAS_MED_FOGNING
100
AcDbLine
 10
204.0
 20
304.522938
 30
0.0
 11
204.0
 21
309.522938
 31
0.0
  0
LINE
  5
61B
100
AcDbEntity
  8
GLAS_MED_FOGNING
100
AcDbLine
 10
205.0
 20
304.522938
 30
0.0
 11
205.0
 21
309.522938
 31
0.0
  0
LINE
  5
61C
100
AcDbEntity
  8
GLAS_MED_FOGNING
100
AcDbLine
 10
206.0
 20
304.522938
 30
0.0
 11
206.0
 21
309.522938
 31
0.0
  0
HATCH
  5
61D
100
AcDbEntity
  8
GLAS_MED_FOGNING
100
AcDbHatch
 10
0.0
 20
0.0
 30
0.0
210
0.0
220
0.0
230
1.0
  2
AR-SAND
 70
     0
 71
     0
 91
        1
 92
        7
 72
     1
 73
     1
 93
       10
 10
210.3244169049093
 20
323.3620401312805
 42
0.0
 10
210.0154660416087
 20
324.8027520114192
 42
0.0
 10
205.9999999999995
 20
324.8027520114196
 42
0.0
 10
205.9999999999995
 20
319.5512457325562
 42
0.0
 10
215.1435195789959
 20
319.5512457325562
 42
0.0
 10
214.7621579604633
 20
319.6551859523015
 42
0.0
 10
214.4585187041538
 20
319.7755022848236
 42
-0.0388476704749722
 10
213.5333817739992
 20
320.1420855911787
 42
0.0
 10
212.7513084742163
 20
320.4519802745508
 42
0.0
 10
211.2258414182065
 20
321.8377247926641
 42
0.0
 97
        0
 75
     0
 76
     1
 52
0.0
 41
1.0
 77
     0
 78
     4
 53
37.5
 43
3115.0
 44
-2218.197248
 45
-0.0629933581096082
 46
1.926823769013158
 79
     6
 49
0.0
 49
-1.52
 49
0.0
 49
-1.7
 49
0.0
 49
-1.625
 53
7.5
 43
3115.0
 44
-2218.197248
 45
1.769776705267727
 46
2.82214606522974
 79
     6
 49
0.0
 49
-0.82
 49
0.0
 49
-1.37
 49
0.0
 49
-0.525
 53
327.5
 43
3113.77
 44
-2218.197248
 45
3.114141861751495
 46
0.0056590535369645
 79
     6
 49
0.0
 49
-0.5
 49
0.0
 49
-1.8
 49
0.0
 49
-2.35
 53
317.5
 43
3113.77
 44
-2218.197248
 45
3.006126604572293
 46
0.877675564934249
 79
     6
 49
0.0
 49
-0.25
 49
0.0
 49
-1.18
 49
0.0
 49
-1.35
 47
0.034644
 98
        1
 10
207.273483
 20
321.941653
  0
HATCH
  5
61E
100
AcDbEntity
  8
GLAS_MED_FOGNING
100
AcDbHatch
 10
0.0
 20
0.0
 30
0.0
210
0.0
220
0.0
230
1.0
  2
AR-SAND
 70
     0
 71
     0
 91
        1
 92
        7
 72
     1
 73
     1
 93
       10
 10
210.3244169049093
 20
305.7297085133518
 42
0.0
 10
210.0154660416087
 20
304.2889966332131
 42
0.0
 10
205.9999999999995
 20
304.2889966332127
 42
0.0
 10
205.9999999999995
 20
309.5405029120761
 42
0.0
 10
215.1435195789959
 20
309.5405029120761
 42
0.0
 10
214.7621579604633
 20
309.4365626923309
 42
0.0
 10
214.4585187041538
 20
309.3162463598086
 42
0.0388476704749722
 10
213.5333817739992
 20
308.9496630534536
 42
0.0
 10
212.7513084742163
 20
308.6397683700815
 42
0.0
 10
211.2258414182065
 20
307.2540238519682
 42
0.0
 97
        0
 75
     0
 76
     1
 52
0.0
 41
1.0
 77
     0
 78
     4
 53
322.5
 43
3115.0
 44
2847.288997
 45
-0.0629933581096082
 46
-1.926823769013158
 79
     6
 49
0.0
 49
-1.52
 49
0.0
 49
-1.7
 49
0.0
 49
-1.625
 53
352.5
 43
3115.0
 44
2847.288997
 45
1.769776705267727
 46
-2.82214606522974
 79
     6
 49
0.0
 49
-0.82
 49
0.0
 49
-1.37
 49
0.0
 49
-0.525
 53
32.5
 43
3113.77
 44
2847.288997
 45
3.114141861751495
 46
-0.0056590535369645
 79
     6
 49
0.0
 49
-0.5
 49
0.0
 49
-1.8
 49
0.0
 49
-2.35
 53
42.5
 43
3113.77
 44
2847.288997
 45
3.006126604572293
 46
-0.877675564934249
 79
     6
 49
0.0
 49
-0.25
 49
0.0
 49
-1.18
 49
0.0
 49
-1.35
 47
0.034644
 98
        1
 10
207.273483
 20
307.150096
  0
LWPOLYLINE
  5
61F
100
AcDbEntity
  8
CENTRUM
100
AcDbPolyline
 90
        4
 70
     0
 43
0.0
 10
222.5
 20
286.148262
 10
222.5
 20
327.0
 10
222.5
 20
333.0
 10
222.5
 20
342.0
  0
INSERT
  5
620
100
AcDbEntity
  8
GLAS_MED_FOGNING
100
AcDbBlockReference
  2
*X26
 10
175.0
 20
397.533941
 30
0.0
 50
270.0
1001
ACAD
1000
HATCH
1002
{
1070
    16
1000
AR-SAND
1040
2.0
1040
0.0
1002
}
  0
INSERT
  5
621
100
AcDbEntity
  8
0
100
AcDbBlockReference
  2
SP41520
 10
175.0
 20
460.0
 30
0.0
 50
270.0
  0
DIMENSION
  5
622
100
AcDbEntity
  8
DIMENSION
100
AcDbDimension
  2
*D52
 10
220.0
 20
490.0
 30
0.0
 11
210.0
 21
494.0
 31
0.0
 70
    32
  3
STANDARD
100
AcDbAlignedDimension
 13
200.0
 23
475.0
 33
0.0
 14
220.0
 24
475.0
 34
0.0
100
AcDbRotatedDimension
1001
ACAD
1000
DSTYLE
1002
{
1070
   270
1070
     8
1070
   270
1070
     8
1070
    41
1040
2.5
1070
    42
1040
0.625
1070
    43
1040
3.75
1070
    44
1040
1.25
1070
    73
1070
     0
1070
    74
1070
     0
1070
    77
1070
     1
1070
    78
1070
     8
1070
   140
1040
4.0
1070
   141
1040
2.5
1070
   143
1040
0.0394
1070
   147
1040
2.0
1070
   171
1070
     4
1070
   172
1070
     1
1070
   178
1070
     6
1070
   273
1070
     8
1070
   274
1070
     4
1070
   277
1070
     6
1070
   340
1005
1C
1002
}
  0
LINE
  5
623
100
AcDbEntity
  8
GLAS_MED_FOGNING
100
AcDbLine
 10
224.0
 20
444.522938
 30
0.0
 11
205.0
 21
444.522938
 31
0.0
  0
LINE
  5
624
100
AcDbEntity
  8
GLAS_MED_FOGNING
100
AcDbLine
 10
224.0
 20
454.568811
 30
0.0
 11
205.0
 21
454.568811
 31
0.0
  0
INSERT
  5
625
100
AcDbEntity
  8
GLAS_MED_FOGNING
100
AcDbBlockReference
  2
*X27
 10
175.0
 20
412.0
 30
0.0
 50
270.0
1001
ACAD
1000
HATCH
1002
{
1070
    16
1000
AR-SAND
1040
2.0
1040
0.0
1002
}
  0
LINE
  5
626
100
AcDbEntity
  8
GLAS_MED_FOGNING
100
AcDbLine
 10
214.0
 20
439.522938
 30
0.0
 11
214.0
 21
444.522938
 31
0.0
  0
LINE
  5
627
100
AcDbEntity
  8
GLAS_MED_FOGNING
100
AcDbLine
 10
213.0
 20
439.522938
 30
0.0
 11
213.0
 21
444.522938
 31
0.0
  0
LINE
  5
628
100
AcDbEntity
  8
GLAS_MED_FOGNING
100
AcDbLine
 10
206.0
 20
439.522938
 30
0.0
 11
206.0
 21
444.522938
 31
0.0
  0
LINE
  5
629
100
AcDbEntity
  8
GLAS_MED_FOGNING
100
AcDbLine
 10
212.0
 20
439.522938
 30
0.0
 11
212.0
 21
444.522938
 31
0.0
  0
LINE
  5
62A
100
AcDbEntity
  8
GLAS_MED_FOGNING
100
AcDbLine
 10
211.0
 20
439.522938
 30
0.0
 11
211.0
 21
444.522938
 31
0.0
  0
LINE
  5
62B
100
AcDbEntity
  8
GLAS_MED_FOGNING
100
AcDbLine
 10
210.0
 20
439.522938
 30
0.0
 11
210.0
 21
444.522938
 31
0.0
  0
LINE
  5
62C
100
AcDbEntity
  8
GLAS_MED_FOGNING
100
AcDbLine
 10
209.0
 20
439.522938
 30
0.0
 11
209.0
 21
444.522938
 31
0.0
  0
LINE
  5
62D
100
AcDbEntity
  8
GLAS_MED_FOGNING
100
AcDbLine
 10
208.0
 20
439.522938
 30
0.0
 11
208.0
 21
444.522938
 31
0.0
  0
LINE
  5
62E
100
AcDbEntity
  8
GLAS_MED_FOGNING
100
AcDbLine
 10
207.0
 20
439.522938
 30
0.0
 11
207.0
 21
444.522938
 31
0.0
  0
LINE
  5
62F
100
AcDbEntity
  8
GLAS_MED_FOGNING
100
AcDbLine
 10
214.0
 20
454.568811
 30
0.0
 11
214.0
 21
460.568811
 31
0.0
  0
LINE
  5
630
100
AcDbEntity
  8
GLAS_MED_FOGNING
100
AcDbLine
 10
213.0
 20
454.568811
 30
0.0
 11
213.0
 21
460.568811
 31
0.0
  0
LINE
  5
631
100
AcDbEntity
  8
GLAS_MED_FOGNING
100
AcDbLine
 10
206.0
 20
454.568811
 30
0.0
 11
206.0
 21
460.568811
 31
0.0
  0
LINE
  5
632
100
AcDbEntity
  8
GLAS_MED_FOGNING
100
AcDbLine
 10
212.0
 20
454.568811
 30
0.0
 11
212.0
 21
460.568811
 31
0.0
  0
LINE
  5
633
100
AcDbEntity
  8
GLAS_MED_FOGNING
100
AcDbLine
 10
211.0
 20
454.568811
 30
0.0
 11
211.0
 21
460.568811
 31
0.0
  0
LINE
  5
634
100
AcDbEntity
  8
GLAS_MED_FOGNING
100
AcDbLine
 10
210.0
 20
454.568811
 30
0.0
 11
210.0
 21
460.568811
 31
0.0
  0
LINE
  5
635
100
AcDbEntity
  8
GLAS_MED_FOGNING
100
AcDbLine
 10
208.0
 20
454.568811
 30
0.0
 11
208.0
 21
460.568811
 31
0.0
  0
LINE
  5
636
100
AcDbEntity
  8
GLAS_MED_FOGNING
100
AcDbLine
 10
209.0
 20
454.568811
 30
0.0
 11
209.0
 21
460.568811
 31
0.0
  0
LINE
  5
637
100
AcDbEntity
  8
GLAS_MED_FOGNING
100
AcDbLine
 10
207.0
 20
454.568811
 30
0.0
 11
207.0
 21
460.568811
 31
0.0
  0
LINE
  5
638
100
AcDbEntity
  8
GLAS_MED_FOGNING
100
AcDbLine
 10
205.0
 20
444.522938
 30
0.0
 11
205.0
 21
454.568811
 31
0.0
  0
LINE
  5
639
100
AcDbEntity
  8
GLAS_MED_FOGNING
100
AcDbLine
 10
232.5
 20
444.522938
 30
0.0
 11
224.0
 21
444.522938
 31
0.0
  0
LINE
  5
63A
100
AcDbEntity
  8
GLAS_MED_FOGNING
100
AcDbLine
 10
232.5
 20
454.568811
 30
0.0
 11
224.0
 21
454.568811
 31
0.0
  0
ARC
  5
63B
100
AcDbEntity
  8
GLAS_MED_FOGNING
100
AcDbCircle
 10
226.351497
 20
460.903428
 30
0.0
 40
6.413645
100
AcDbArc
 50
177.525057
 51
266.355723
  0
HATCH
  5
63C
100
AcDbEntity
  8
GLAS_MED_FOGNING
100
AcDbHatch
 10
0.0
 20
0.0
 30
0.0
210
0.0
220
0.0
230
1.0
  2
AR-SAND
 70
     0
 71
     0
 91
        1
 92
        7
 72
     1
 73
     1
 93
       10
 10
220.3244169049094
 20
440.7297085133518
 42
0.0
 10
220.0154660416087
 20
439.2889966332131
 42
0.0
 10
215.9999999999995
 20
439.2889966332127
 42
0.0
 10
215.9999999999995
 20
444.5405029120761
 42
0.0
 10
225.1435195789958
 20
444.5405029120761
 42
0.0
 10
224.7621579604633
 20
444.4365626923309
 42
0.0
 10
224.4585187041538
 20
444.3162463598087
 42
0.0388476704749722
 10
223.5333817739992
 20
443.9496630534535
 42
0.0
 10
222.7513084742163
 20
443.6397683700816
 42
0.0
 10
221.2258414182065
 20
442.2540238519681
 42
0.0
 97
        0
 75
     0
 76
     1
 52
0.0
 41
1.0
 77
     0
 78
     4
 53
322.5
 43
3125.0
 44
2982.288997
 45
-0.0629933581096082
 46
-1.926823769013158
 79
     6
 49
0.0
 49
-1.52
 49
0.0
 49
-1.7
 49
0.0
 49
-1.625
 53
352.5
 43
3125.0
 44
2982.288997
 45
1.769776705267727
 46
-2.82214606522974
 79
     6
 49
0.0
 49
-0.82
 49
0.0
 49
-1.37
 49
0.0
 49
-0.525
 53
32.5
 43
3123.77
 44
2982.288997
 45
3.114141861751495
 46
-0.0056590535369645
 79
     6
 49
0.0
 49
-0.5
 49
0.0
 49
-1.8
 49
0.0
 49
-2.35
 53
42.5
 43
3123.77
 44
2982.288997
 45
3.006126604572293
 46
-0.877675564934249
 79
     6
 49
0.0
 49
-0.25
 49
0.0
 49
-1.18
 49
0.0
 49
-1.35
 47
0.034644
 98
        1
 10
217.273483
 20
442.150096
  0
HATCH
  5
63D
100
AcDbEntity
  8
GLAS_MED_FOGNING
100
AcDbHatch
 10
0.0
 20
0.0
 30
0.0
210
0.0
220
0.0
230
1.0
  2
AR-SAND
 70
     0
 71
     0
 91
        1
 92
        7
 72
     1
 73
     1
 93
       10
 10
220.3244169049094
 20
458.3620401312805
 42
0.0
 10
220.0154660416087
 20
459.8027520114192
 42
0.0
 10
215.9999999999995
 20
459.8027520114197
 42
0.0
 10
215.9999999999995
 20
454.5512457325562
 42
0.0
 10
225.1435195789958
 20
454.5512457325562
 42
0.0
 10
224.7621579604633
 20
454.6551859523015
 42
0.0
 10
224.4585187041538
 20
454.7755022848236
 42
-0.0388476704749722
 10
223.5333817739992
 20
455.1420855911787
 42
0.0
 10
222.7513084742163
 20
455.4519802745508
 42
0.0
 10
221.2258414182065
 20
456.8377247926641
 42
0.0
 97
        0
 75
     0
 76
     1
 52
0.0
 41
1.0
 77
     0
 78
     4
 53
37.5
 43
3125.0
 44
-2083.197248
 45
-0.0629933581096082
 46
1.926823769013158
 79
     6
 49
0.0
 49
-1.52
 49
0.0
 49
-1.7
 49
0.0
 49
-1.625
 53
7.5
 43
3125.0
 44
-2083.197248
 45
1.769776705267727
 46
2.82214606522974
 79
     6
 49
0.0
 49
-0.82
 49
0.0
 49
-1.37
 49
0.0
 49
-0.525
 53
327.5
 43
3123.77
 44
-2083.197248
 45
3.114141861751495
 46
0.0056590535369645
 79
     6
 49
0.0
 49
-0.5
 49
0.0
 49
-1.8
 49
0.0
 49
-2.35
 53
317.5
 43
3123.77
 44
-2083.197248
 45
3.006126604572293
 46
0.877675564934249
 79
     6
 49
0.0
 49
-0.25
 49
0.0
 49
-1.18
 49
0.0
 49
-1.35
 47
0.034644
 98
        1
 10
217.273483
 20
456.941653
  0
LINE
  5
63E
100
AcDbEntity
  8
GLAS_MED_FOGNING
100
AcDbLine
 10
216.0
 20
439.522938
 30
0.0
 11
216.0
 21
444.522938
 31
0.0
  0
LINE
  5
63F
100
AcDbEntity
  8
GLAS_MED_FOGNING
100
AcDbLine
 10
215.0
 20
439.522938
 30
0.0
 11
215.0
 21
444.522938
 31
0.0
  0
LINE
  5
640
100
AcDbEntity
  8
GLAS_MED_FOGNING
100
AcDbLine
 10
216.0
 20
454.568811
 30
0.0
 11
216.0
 21
460.568811
 31
0.0
  0
LINE
  5
641
100
AcDbEntity
  8
GLAS_MED_FOGNING
100
AcDbLine
 10
215.0
 20
454.568811
 30
0.0
 11
215.0
 21
460.568811
 31
0.0
  0
ARC
  5
642
100
AcDbEntity
  8
GLAS_MED_FOGNING
100
AcDbCircle
 10
226.351497
 20
438.18832
 30
0.0
 40
6.413645
100
AcDbArc
 50
93.644277
 51
182.474943
  0
TEXT
  5
643
100
AcDbEntity
  8
TEXT
100
AcDbText
 10
266.442857
 20
280.383191
 30
0.0
 40
5.0
  1
%%USP 75021/750/10
 41
0.8
  7
ROMANS
 72
     1
 11
295.0
 21
280.383191
 31
0.0
100
AcDbText
  0
DIMENSION
  5
644
100
AcDbEntity
  8
DIMENSION
100
AcDbDimension
  2
*D53
 10
330.0
 20
270.0
 30
0.0
 11
295.0
 21
274.0
 31
0.0
 70
    32
  3
STANDARD
100
AcDbAlignedDimension
 13
260.0
 23
290.0
 33
0.0
 14
330.0
 24
290.0
 34
0.0
100
AcDbRotatedDimension
1001
ACAD
1000
DSTYLE
1002
{
1070
   270
1070
     8
1070
   270
1070
     8
1070
    41
1040
2.5
1070
    42
1040
0.625
1070
    43
1040
3.75
1070
    44
1040
1.25
1070
    73
1070
     0
1070
    74
1070
     0
1070
    77
1070
     1
1070
    78
1070
     8
1070
   140
1040
4.0
1070
   141
1040
2.5
1070
   143
1040
0.0394
1070
   147
1040
2.0
1070
   171
1070
     4
1070
   172
1070
     1
1070
   178
1070
     6
1070
   273
1070
     8
1070
   274
1070
     4
1070
   277
1070
     6
1070
   340
1005
1C
1002
}
  0
DIMENSION
  5
645
100
AcDbEntity
  8
DIMENSION
100
AcDbDimension
  2
*D54
 10
325.0
 20
405.0
 30
0.0
 11
290.0
 21
409.0
 31
0.0
 70
    32
  3
STANDARD
100
AcDbAlignedDimension
 13
255.0
 23
425.0
 33
0.0
 14
325.0
 24
425.0
 34
0.0
100
AcDbRotatedDimension
1001
ACAD
1000
DSTYLE
1002
{
1070
   270
1070
     8
1070
   270
1070
     8
1070
    41
1040
2.5
1070
    42
1040
0.625
1070
    43
1040
3.75
1070
    44
1040
1.25
1070
    73
1070
     0
1070
    74
1070
     0
1070
    77
1070
     1
1070
    78
1070
     8
1070
   140
1040
4.0
1070
   141
1040
2.5
1070
   143
1040
0.0394
1070
   147
1040
2.0
1070
   171
1070
     4
1070
   172
1070
     1
1070
   178
1070
     6
1070
   273
1070
     8
1070
   274
1070
     4
1070
   277
1070
     6
1070
   340
1005
1C
1002
}
  0
INSERT
  5
646
100
AcDbEntity
  8
0
100
AcDbBlockReference
  2
SP75021-750-10
 10
305.0
 20
340.0
 30
0.0
 50
90.0
  0
DIMENSION
  5
647
100
AcDbEntity
  8
DIMENSION
100
AcDbDimension
  2
*D55
 10
330.0
 20
355.0
 30
0.0
 11
305.0
 21
359.0
 31
0.0
 70
    32
  3
STANDARD
100
AcDbAlignedDimension
 13
280.0
 23
340.0
 33
0.0
 14
330.0
 24
340.0
 34
0.0
100
AcDbRotatedDimension
1001
ACAD
1000
DSTYLE
1002
{
1070
   270
1070
     8
1070
   270
1070
     8
1070
    41
1040
2.5
1070
    42
1040
0.625
1070
    43
1040
3.75
1070
    44
1040
1.25
1070
    73
1070
     0
1070
    74
1070
     0
1070
    77
1070
     1
1070
    78
1070
     8
1070
   140
1040
4.0
1070
   141
1040
2.5
1070
   143
1040
0.0394
1070
   147
1040
2.0
1070
   171
1070
     4
1070
   172
1070
     1
1070
   178
1070
     6
1070
   273
1070
     8
1070
   274
1070
     4
1070
   277
1070
     6
1070
   340
1005
1C
1002
}
  0
DIMENSION
  5
648
100
AcDbEntity
  8
DIMENSION
100
AcDbDimension
  2
*D56
 10
325.0
 20
490.0
 30
0.0
 11
300.0
 21
494.0
 31
0.0
 70
    32
  3
STANDARD
100
AcDbAlignedDimension
 13
275.0
 23
475.0
 33
0.0
 14
325.0
 24
475.0
 34
0.0
100
AcDbRotatedDimension
1001
ACAD
1000
DSTYLE
1002
{
1070
   270
1070
     8
1070
   270
1070
     8
1070
    41
1040
2.5
1070
    42
1040
0.625
1070
    43
1040
3.75
1070
    44
1040
1.25
1070
    73
1070
     0
1070
    74
1070
     0
1070
    77
1070
     1
1070
    78
1070
     8
1070
   140
1040
4.0
1070
   141
1040
2.5
1070
   143
1040
0.0394
1070
   147
1040
2.0
1070
   171
1070
     4
1070
   172
1070
     1
1070
   178
1070
     6
1070
   273
1070
     8
1070
   274
1070
     4
1070
   277
1070
     6
1070
   340
1005
1C
1002
}
  0
LWPOLYLINE
  5
649
100
AcDbEntity
  8
SPKONTUR
100
AcDbPolyline
 90
       28
 70
     1
 43
0.0
 10
276.5
 20
469.0
 42
-0.414214
 10
278.0
 20
467.5
 10
278.0
 20
463.0
 42
0.414214
 10
279.5
 20
461.5
 10
281.5
 20
461.5
 42
0.414214
 10
283.0
 20
463.0
 42
0.198912
 10
282.56066
 20
464.06066
 10
281.87868
 20
464.742641
 42
-0.198912
 10
281.0
 20
466.863961
 10
281.0
 20
467.0
 42
-0.414214
 10
284.0
 20
470.0
 10
286.5
 20
470.0
 42
0.414214
 10
288.0
 20
471.5
 10
288.0
 20
472.0
 42
-0.414214
 10
291.0
 20
475.0
 10
322.5
 20
475.0
 42
-0.414214
 10
325.0
 20
472.5
 10
325.0
 20
427.5
 42
-0.414214
 10
322.5
 20
425.0
 10
256.499
 20
425.0
 42
-0.414214
 10
255.0
 20
426.499
 10
255.0
 20
426.5
 42
-0.414214
 10
256.5
 20
428.0
 10
273.5
 20
428.0
 42
0.414214
 10
275.0
 20
429.5
 10
275.0
 20
461.5
 10
275.0
 20
467.501
 42
-0.414214
 10
276.499
 20
469.0
  0
LWPOLYLINE
  5
64A
100
AcDbEntity
  8
STALPROFIL
100
AcDbPolyline
 90
       27
 70
     1
 43
1.5
 10
276.5
 20
468.25
 42
-0.414214
 10
277.25
 20
467.5
 10
277.25
 20
463.0
 42
0.414214
 10
279.5
 20
460.75
 10
281.5
 20
460.75
 42
0.414214
 10
283.75
 20
463.0
 42
0.198912
 10
283.09099
 20
464.59099
 10
282.40901
 20
465.272971
 42
-0.198912
 10
281.75
 20
466.863961
 10
281.75
 20
467.0
 42
-0.414214
 10
284.0
 20
469.25
 10
286.5
 20
469.25
 42
0.414214
 10
288.75
 20
471.5
 10
288.75
 20
472.0
 42
-0.414214
 10
291.0
 20
474.25
 10
322.5
 20
474.25
 42
-0.414214
 10
324.25
 20
472.5
 10
324.25
 20
427.5
 42
-0.414214
 10
322.5
 20
425.75
 10
256.499
 20
425.75
 42
-0.414214
 10
255.75
 20
426.499
 10
255.75
 20
426.5
 42
-0.414214
 10
256.5
 20
427.25
 10
273.5
 20
427.25
 42
0.414214
 10
275.75
 20
429.5
 10
275.75
 20
467.501
 42
-0.414214
 10
276.499
 20
468.25
  0
TEXT
  5
64B
100
AcDbEntity
  8
TEXT
100
AcDbText
 10
285.171429
 20
443.0
 30
0.0
 40
5.0
  1
%%USP 35021
 41
0.8
  7
ROMANS
 72
     1
 11
300.0
 21
443.0
 31
0.0
100
AcDbText
  0
INSERT
  5
64C
100
AcDbEntity
  8
0
100
AcDbBlockReference
  2
SP41520
 10
300.0
 20
440.0
 30
0.0
 41
-1.0
 50
270.0
  0
LWPOLYLINE
  5
64D
100
AcDbEntity
  8
CENTRUM
100
AcDbPolyline
 90
        4
 70
     0
 43
0.0
 10
357.5
 20
421.148262
 10
357.5
 20
462.0
 10
357.5
 20
468.0
 10
357.5
 20
477.0
  0
INSERT
  5
64E
100
AcDbEntity
  8
0
100
AcDbBlockReference
  2
SP41520
 10
305.0
 20
305.0
 30
0.0
 41
-1.0
 50
270.0
  0
INSERT
  5
64F
100
AcDbEntity
  8
GLAS_MED_FOGNING
100
AcDbBlockReference
  2
*X26
 10
305.0
 20
262.533941
 30
0.0
 50
270.0
1001
ACAD
1000
HATCH
1002
{
1070
    16
1000
AR-SAND
1040
2.0
1040
0.0
1002
}
  0
INSERT
  5
650
100
AcDbEntity
  8
0
100
AcDbBlockReference
  2
SP41520
 10
305.0
 20
325.0
 30
0.0
 50
270.0
  0
DIMENSION
  5
651
100
AcDbEntity
  8
DIMENSION
100
AcDbDimension
  2
*D57
 10
350.0
 20
355.0
 30
0.0
 11
340.0
 21
359.0
 31
0.0
 70
    32
  3
STANDARD
100
AcDbAlignedDimension
 13
330.0
 23
340.0
 33
0.0
 14
350.0
 24
340.0
 34
0.0
100
AcDbRotatedDimension
1001
ACAD
1000
DSTYLE
1002
{
1070
   270
1070
     8
1070
   270
1070
     8
1070
    41
1040
2.5
1070
    42
1040
0.625
1070
    43
1040
3.75
1070
    44
1040
1.25
1070
    73
1070
     0
1070
    74
1070
     0
1070
    77
1070
     1
1070
    78
1070
     8
1070
   140
1040
4.0
1070
   141
1040
2.5
1070
   143
1040
0.0394
1070
   147
1040
2.0
1070
   171
1070
     4
1070
   172
1070
     1
1070
   178
1070
     6
1070
   273
1070
     8
1070
   274
1070
     4
1070
   277
1070
     6
1070
   340
1005
1C
1002
}
  0
LINE
  5
652
100
AcDbEntity
  8
GLAS_MED_FOGNING
100
AcDbLine
 10
354.0
 20
309.522938
 30
0.0
 11
335.0
 21
309.522938
 31
0.0
  0
LINE
  5
653
100
AcDbEntity
  8
GLAS_MED_FOGNING
100
AcDbLine
 10
354.0
 20
319.568811
 30
0.0
 11
335.0
 21
319.568811
 31
0.0
  0
LWPOLYLINE
  5
654
100
AcDbEntity
  8
GLAS_MED_FOGNING
100
AcDbPolyline
 90
        4
 70
     0
 43
0.0
 10
328.2
 20
320.0
 10
330.0
 20
320.0
 10
330.0
 20
310.0
 10
328.2
 20
310.0
  0
INSERT
  5
655
100
AcDbEntity
  8
GLAS_MED_FOGNING
100
AcDbBlockReference
  2
*X27
 10
305.0
 20
277.0
 30
0.0
 50
270.0
1001
ACAD
1000
HATCH
1002
{
1070
    16
1000
AR-SAND
1040
2.0
1040
0.0
1002
}
  0
LINE
  5
656
100
AcDbEntity
  8
GLAS_MED_FOGNING
100
AcDbLine
 10
336.0
 20
304.522938
 30
0.0
 11
336.0
 21
309.522938
 31
0.0
  0
LINE
  5
657
100
AcDbEntity
  8
GLAS_MED_FOGNING
100
AcDbLine
 10
337.0
 20
304.522938
 30
0.0
 11
337.0
 21
309.522938
 31
0.0
  0
LINE
  5
658
100
AcDbEntity
  8
GLAS_MED_FOGNING
100
AcDbLine
 10
336.0
 20
319.568811
 30
0.0
 11
336.0
 21
325.568811
 31
0.0
  0
LINE
  5
659
100
AcDbEntity
  8
GLAS_MED_FOGNING
100
AcDbLine
 10
337.0
 20
319.568811
 30
0.0
 11
337.0
 21
325.568811
 31
0.0
  0
LINE
  5
65A
100
AcDbEntity
  8
GLAS_MED_FOGNING
100
AcDbLine
 10
335.0
 20
309.522938
 30
0.0
 11
335.0
 21
319.568811
 31
0.0
  0
ARC
  5
65B
100
AcDbEntity
  8
GLAS_MED_FOGNING
100
AcDbCircle
 10
356.351497
 20
325.903428
 30
0.0
 40
6.413645
100
AcDbArc
 50
177.525057
 51
266.355723
  0
HATCH
  5
65C
100
AcDbEntity
  8
GLAS_MED_FOGNING
100
AcDbHatch
 10
0.0
 20
0.0
 30
0.0
210
0.0
220
0.0
230
1.0
  2
AR-SAND
 70
     0
 71
     0
 91
        1
 92
        7
 72
     1
 73
     1
 93
       10
 10
350.3244169049094
 20
305.7297085133518
 42
0.0
 10
350.0154660416087
 20
304.2889966332131
 42
0.0
 10
345.9999999999995
 20
304.2889966332127
 42
0.0
 10
345.9999999999995
 20
309.5405029120761
 42
0.0
 10
355.1435195789959
 20
309.5405029120761
 42
0.0
 10
354.7621579604633
 20
309.4365626923309
 42
0.0
 10
354.4585187041539
 20
309.3162463598086
 42
0.0388476704749722
 10
353.5333817739992
 20
308.9496630534536
 42
0.0
 10
352.7513084742163
 20
308.6397683700815
 42
0.0
 10
351.2258414182065
 20
307.2540238519682
 42
0.0
 97
        0
 75
     0
 76
     1
 52
0.0
 41
1.0
 77
     0
 78
     4
 53
322.5
 43
3255.0
 44
2847.288997
 45
-0.0629933581096082
 46
-1.926823769013158
 79
     6
 49
0.0
 49
-1.52
 49
0.0
 49
-1.7
 49
0.0
 49
-1.625
 53
352.5
 43
3255.0
 44
2847.288997
 45
1.769776705267727
 46
-2.82214606522974
 79
     6
 49
0.0
 49
-0.82
 49
0.0
 49
-1.37
 49
0.0
 49
-0.525
 53
32.5
 43
3253.77
 44
2847.288997
 45
3.114141861751495
 46
-0.0056590535369645
 79
     6
 49
0.0
 49
-0.5
 49
0.0
 49
-1.8
 49
0.0
 49
-2.35
 53
42.5
 43
3253.77
 44
2847.288997
 45
3.006126604572293
 46
-0.877675564934249
 79
     6
 49
0.0
 49
-0.25
 49
0.0
 49
-1.18
 49
0.0
 49
-1.35
 47
0.034644
 98
        1
 10
347.273483
 20
307.150096
  0
HATCH
  5
65D
100
AcDbEntity
  8
GLAS_MED_FOGNING
100
AcDbHatch
 10
0.0
 20
0.0
 30
0.0
210
0.0
220
0.0
230
1.0
  2
AR-SAND
 70
     0
 71
     0
 91
        1
 92
        7
 72
     1
 73
     1
 93
       10
 10
350.3244169049094
 20
323.3620401312805
 42
0.0
 10
350.0154660416087
 20
324.8027520114192
 42
0.0
 10
345.9999999999995
 20
324.8027520114196
 42
0.0
 10
345.9999999999995
 20
319.5512457325562
 42
0.0
 10
355.1435195789959
 20
319.5512457325562
 42
0.0
 10
354.7621579604633
 20
319.6551859523015
 42
0.0
 10
354.4585187041539
 20
319.7755022848236
 42
-0.0388476704749722
 10
353.5333817739992
 20
320.1420855911787
 42
0.0
 10
352.7513084742163
 20
320.4519802745508
 42
0.0
 10
351.2258414182065
 20
321.8377247926641
 42
0.0
 97
        0
 75
     0
 76
     1
 52
0.0
 41
1.0
 77
     0
 78
     4
 53
37.5
 43
3255.0
 44
-2218.197248
 45
-0.0629933581096082
 46
1.926823769013158
 79
     6
 49
0.0
 49
-1.52
 49
0.0
 49
-1.7
 49
0.0
 49
-1.625
 53
7.5
 43
3255.0
 44
-2218.197248
 45
1.769776705267727
 46
2.82214606522974
 79
     6
 49
0.0
 49
-0.82
 49
0.0
 49
-1.37
 49
0.0
 49
-0.525
 53
327.5
 43
3253.77
 44
-2218.197248
 45
3.114141861751495
 46
0.0056590535369645
 79
     6
 49
0.0
 49
-0.5
 49
0.0
 49
-1.8
 49
0.0
 49
-2.35
 53
317.5
 43
3253.77
 44
-2218.197248
 45
3.006126604572293
 46
0.877675564934249
 79
     6
 49
0.0
 49
-0.25
 49
0.0
 49
-1.18
 49
0.0
 49
-1.35
 47
0.034644
 98
        1
 10
347.273483
 20
321.941653
  0
ARC
  5
65E
100
AcDbEntity
  8
GLAS_MED_FOGNING
100
AcDbCircle
 10
356.351497
 20
303.18832
 30
0.0
 40
6.413645
100
AcDbArc
 50
93.644277
 51
182.474943
  0
LINE
  5
65F
100
AcDbEntity
  8
GLAS_MED_FOGNING
100
AcDbLine
 10
346.0
 20
304.522938
 30
0.0
 11
346.0
 21
309.522938
 31
0.0
  0
LINE
  5
660
100
AcDbEntity
  8
GLAS_MED_FOGNING
100
AcDbLine
 10
345.0
 20
304.522938
 30
0.0
 11
345.0
 21
309.522938
 31
0.0
  0
LINE
  5
661
100
AcDbEntity
  8
GLAS_MED_FOGNING
100
AcDbLine
 10
344.0
 20
304.522938
 30
0.0
 11
344.0
 21
309.522938
 31
0.0
  0
LINE
  5
662
100
AcDbEntity
  8
GLAS_MED_FOGNING
100
AcDbLine
 10
346.0
 20
319.568811
 30
0.0
 11
346.0
 21
325.568811
 31
0.0
  0
LINE
  5
663
100
AcDbEntity
  8
GLAS_MED_FOGNING
100
AcDbLine
 10
344.0
 20
319.568811
 30
0.0
 11
344.0
 21
325.568811
 31
0.0
  0
LINE
  5
664
100
AcDbEntity
  8
GLAS_MED_FOGNING
100
AcDbLine
 10
345.0
 20
319.568811
 30
0.0
 11
345.0
 21
325.568811
 31
0.0
  0
LINE
  5
665
100
AcDbEntity
  8
GLAS_MED_FOGNING
100
AcDbLine
 10
343.0
 20
304.522938
 30
0.0
 11
343.0
 21
309.522938
 31
0.0
  0
LINE
  5
666
100
AcDbEntity
  8
GLAS_MED_FOGNING
100
AcDbLine
 10
342.0
 20
304.522938
 30
0.0
 11
342.0
 21
309.522938
 31
0.0
  0
LINE
  5
667
100
AcDbEntity
  8
GLAS_MED_FOGNING
100
AcDbLine
 10
341.0
 20
304.522938
 30
0.0
 11
341.0
 21
309.522938
 31
0.0
  0
LINE
  5
668
100
AcDbEntity
  8
GLAS_MED_FOGNING
100
AcDbLine
 10
340.0
 20
304.522938
 30
0.0
 11
340.0
 21
309.522938
 31
0.0
  0
LINE
  5
669
100
AcDbEntity
  8
GLAS_MED_FOGNING
100
AcDbLine
 10
339.0
 20
304.522938
 30
0.0
 11
339.0
 21
309.522938
 31
0.0
  0
LINE
  5
66A
100
AcDbEntity
  8
GLAS_MED_FOGNING
100
AcDbLine
 10
338.0
 20
304.522938
 30
0.0
 11
338.0
 21
309.522938
 31
0.0
  0
LINE
  5
66B
100
AcDbEntity
  8
GLAS_MED_FOGNING
100
AcDbLine
 10
343.0
 20
319.568811
 30
0.0
 11
343.0
 21
325.568811
 31
0.0
  0
LINE
  5
66C
100
AcDbEntity
  8
GLAS_MED_FOGNING
100
AcDbLine
 10
342.0
 20
319.568811
 30
0.0
 11
342.0
 21
325.568811
 31
0.0
  0
LINE
  5
66D
100
AcDbEntity
  8
GLAS_MED_FOGNING
100
AcDbLine
 10
341.0
 20
319.568811
 30
0.0
 11
341.0
 21
325.568811
 31
0.0
  0
LINE
  5
66E
100
AcDbEntity
  8
GLAS_MED_FOGNING
100
AcDbLine
 10
340.0
 20
319.568811
 30
0.0
 11
340.0
 21
325.568811
 31
0.0
  0
LINE
  5
66F
100
AcDbEntity
  8
GLAS_MED_FOGNING
100
AcDbLine
 10
338.0
 20
319.568811
 30
0.0
 11
338.0
 21
325.568811
 31
0.0
  0
LINE
  5
670
100
AcDbEntity
  8
GLAS_MED_FOGNING
100
AcDbLine
 10
339.0
 20
319.568811
 30
0.0
 11
339.0
 21
325.568811
 31
0.0
  0
LINE
  5
671
100
AcDbEntity
  8
GLAS_MED_FOGNING
100
AcDbLine
 10
362.5
 20
309.522938
 30
0.0
 11
354.0
 21
309.522938
 31
0.0
  0
LINE
  5
672
100
AcDbEntity
  8
GLAS_MED_FOGNING
100
AcDbLine
 10
362.5
 20
319.568811
 30
0.0
 11
354.0
 21
319.568811
 31
0.0
  0
LWPOLYLINE
  5
673
100
AcDbEntity
  8
CENTRUM
100
AcDbPolyline
 90
        4
 70
     0
 43
0.0
 10
362.5
 20
286.148262
 10
362.5
 20
327.0
 10
362.5
 20
333.0
 10
362.5
 20
342.0
  0
LINE
  5
674
100
AcDbEntity
  8
GLAS_MED_FOGNING
100
AcDbLine
 10
349.0
 20
454.568811
 30
0.0
 11
330.0
 21
454.568811
 31
0.0
  0
LINE
  5
675
100
AcDbEntity
  8
GLAS_MED_FOGNING
100
AcDbLine
 10
349.0
 20
444.522938
 30
0.0
 11
330.0
 21
444.522938
 31
0.0
  0
DIMENSION
  5
676
100
AcDbEntity
  8
DIMENSION
100
AcDbDimension
  2
*D58
 10
345.0
 20
490.0
 30
0.0
 11
335.0
 21
494.0
 31
0.0
 70
    32
  3
STANDARD
100
AcDbAlignedDimension
 13
325.0
 23
475.0
 33
0.0
 14
345.0
 24
475.0
 34
0.0
100
AcDbRotatedDimension
1001
ACAD
1000
DSTYLE
1002
{
1070
   270
1070
     8
1070
   270
1070
     8
1070
    41
1040
2.5
1070
    42
1040
0.625
1070
    43
1040
3.75
1070
    44
1040
1.25
1070
    73
1070
     0
1070
    74
1070
     0
1070
    77
1070
     1
1070
    78
1070
     8
1070
   140
1040
4.0
1070
   141
1040
2.5
1070
   143
1040
0.0394
1070
   147
1040
2.0
1070
   171
1070
     4
1070
   172
1070
     1
1070
   178
1070
     6
1070
   273
1070
     8
1070
   274
1070
     4
1070
   277
1070
     6
1070
   340
1005
1C
1002
}
  0
INSERT
  5
677
100
AcDbEntity
  8
0
100
AcDbBlockReference
  2
SP41520
 10
300.0
 20
460.0
 30
0.0
 50
270.0
  0
INSERT
  5
678
100
AcDbEntity
  8
GLAS_MED_FOGNING
100
AcDbBlockReference
  2
*X26
 10
300.0
 20
397.533941
 30
0.0
 50
270.0
1001
ACAD
1000
HATCH
1002
{
1070
    16
1000
AR-SAND
1040
2.0
1040
0.0
1002
}
  0
LINE
  5
679
100
AcDbEntity
  8
GLAS_MED_FOGNING
100
AcDbLine
 10
330.0
 20
444.522938
 30
0.0
 11
330.0
 21
454.568811
 31
0.0
  0
LINE
  5
67A
100
AcDbEntity
  8
GLAS_MED_FOGNING
100
AcDbLine
 10
332.0
 20
454.568811
 30
0.0
 11
332.0
 21
460.568811
 31
0.0
  0
LINE
  5
67B
100
AcDbEntity
  8
GLAS_MED_FOGNING
100
AcDbLine
 10
334.0
 20
454.568811
 30
0.0
 11
334.0
 21
460.568811
 31
0.0
  0
LINE
  5
67C
100
AcDbEntity
  8
GLAS_MED_FOGNING
100
AcDbLine
 10
333.0
 20
454.568811
 30
0.0
 11
333.0
 21
460.568811
 31
0.0
  0
LINE
  5
67D
100
AcDbEntity
  8
GLAS_MED_FOGNING
100
AcDbLine
 10
335.0
 20
454.568811
 30
0.0
 11
335.0
 21
460.568811
 31
0.0
  0
LINE
  5
67E
100
AcDbEntity
  8
GLAS_MED_FOGNING
100
AcDbLine
 10
336.0
 20
454.568811
 30
0.0
 11
336.0
 21
460.568811
 31
0.0
  0
LINE
  5
67F
100
AcDbEntity
  8
GLAS_MED_FOGNING
100
AcDbLine
 10
337.0
 20
454.568811
 30
0.0
 11
337.0
 21
460.568811
 31
0.0
  0
LINE
  5
680
100
AcDbEntity
  8
GLAS_MED_FOGNING
100
AcDbLine
 10
331.0
 20
454.568811
 30
0.0
 11
331.0
 21
460.568811
 31
0.0
  0
LINE
  5
681
100
AcDbEntity
  8
GLAS_MED_FOGNING
100
AcDbLine
 10
332.0
 20
439.522938
 30
0.0
 11
332.0
 21
444.522938
 31
0.0
  0
LINE
  5
682
100
AcDbEntity
  8
GLAS_MED_FOGNING
100
AcDbLine
 10
333.0
 20
439.522938
 30
0.0
 11
333.0
 21
444.522938
 31
0.0
  0
LINE
  5
683
100
AcDbEntity
  8
GLAS_MED_FOGNING
100
AcDbLine
 10
334.0
 20
439.522938
 30
0.0
 11
334.0
 21
444.522938
 31
0.0
  0
LINE
  5
684
100
AcDbEntity
  8
GLAS_MED_FOGNING
100
AcDbLine
 10
335.0
 20
439.522938
 30
0.0
 11
335.0
 21
444.522938
 31
0.0
  0
LINE
  5
685
100
AcDbEntity
  8
GLAS_MED_FOGNING
100
AcDbLine
 10
336.0
 20
439.522938
 30
0.0
 11
336.0
 21
444.522938
 31
0.0
  0
LINE
  5
686
100
AcDbEntity
  8
GLAS_MED_FOGNING
100
AcDbLine
 10
337.0
 20
439.522938
 30
0.0
 11
337.0
 21
444.522938
 31
0.0
  0
LINE
  5
687
100
AcDbEntity
  8
GLAS_MED_FOGNING
100
AcDbLine
 10
331.0
 20
439.522938
 30
0.0
 11
331.0
 21
444.522938
 31
0.0
  0
INSERT
  5
688
100
AcDbEntity
  8
GLAS_MED_FOGNING
100
AcDbBlockReference
  2
*X27
 10
300.0
 20
412.0
 30
0.0
 50
270.0
1001
ACAD
1000
HATCH
1002
{
1070
    16
1000
AR-SAND
1040
2.0
1040
0.0
1002
}
  0
LINE
  5
689
100
AcDbEntity
  8
GLAS_MED_FOGNING
100
AcDbLine
 10
357.5
 20
454.568811
 30
0.0
 11
349.0
 21
454.568811
 31
0.0
  0
LINE
  5
68A
100
AcDbEntity
  8
GLAS_MED_FOGNING
100
AcDbLine
 10
357.5
 20
444.522938
 30
0.0
 11
349.0
 21
444.522938
 31
0.0
  0
ARC
  5
68B
100
AcDbEntity
  8
GLAS_MED_FOGNING
100
AcDbCircle
 10
351.351497
 20
438.18832
 30
0.0
 40
6.413645
100
AcDbArc
 50
93.644277
 51
182.474943
  0
LINE
  5
68C
100
AcDbEntity
  8
GLAS_MED_FOGNING
100
AcDbLine
 10
338.0
 20
454.568811
 30
0.0
 11
338.0
 21
460.568811
 31
0.0
  0
LINE
  5
68D
100
AcDbEntity
  8
GLAS_MED_FOGNING
100
AcDbLine
 10
340.0
 20
454.568811
 30
0.0
 11
340.0
 21
460.568811
 31
0.0
  0
LINE
  5
68E
100
AcDbEntity
  8
GLAS_MED_FOGNING
100
AcDbLine
 10
339.0
 20
454.568811
 30
0.0
 11
339.0
 21
460.568811
 31
0.0
  0
LINE
  5
68F
100
AcDbEntity
  8
GLAS_MED_FOGNING
100
AcDbLine
 10
341.0
 20
454.568811
 30
0.0
 11
341.0
 21
460.568811
 31
0.0
  0
LINE
  5
690
100
AcDbEntity
  8
GLAS_MED_FOGNING
100
AcDbLine
 10
338.0
 20
439.522938
 30
0.0
 11
338.0
 21
444.522938
 31
0.0
  0
LINE
  5
691
100
AcDbEntity
  8
GLAS_MED_FOGNING
100
AcDbLine
 10
339.0
 20
439.522938
 30
0.0
 11
339.0
 21
444.522938
 31
0.0
  0
LINE
  5
692
100
AcDbEntity
  8
GLAS_MED_FOGNING
100
AcDbLine
 10
340.0
 20
439.522938
 30
0.0
 11
340.0
 21
444.522938
 31
0.0
  0
LINE
  5
693
100
AcDbEntity
  8
GLAS_MED_FOGNING
100
AcDbLine
 10
341.0
 20
439.522938
 30
0.0
 11
341.0
 21
444.522938
 31
0.0
  0
HATCH
  5
694
100
AcDbEntity
  8
GLAS_MED_FOGNING
100
AcDbHatch
 10
0.0
 20
0.0
 30
0.0
210
0.0
220
0.0
230
1.0
  2
AR-SAND
 70
     0
 71
     0
 91
        1
 92
        7
 72
     1
 73
     1
 93
       10
 10
345.3244169049094
 20
458.3620401312805
 42
0.0
 10
345.0154660416087
 20
459.8027520114192
 42
0.0
 10
340.9999999999995
 20
459.8027520114197
 42
0.0
 10
340.9999999999995
 20
454.5512457325562
 42
0.0
 10
350.1435195789959
 20
454.5512457325562
 42
0.0
 10
349.7621579604633
 20
454.6551859523015
 42
0.0
 10
349.4585187041538
 20
454.7755022848236
 42
-0.0388476704749722
 10
348.5333817739992
 20
455.1420855911787
 42
0.0
 10
347.7513084742163
 20
455.4519802745508
 42
0.0
 10
346.2258414182065
 20
456.8377247926641
 42
0.0
 97
        0
 75
     0
 76
     1
 52
0.0
 41
1.0
 77
     0
 78
     4
 53
37.5
 43
3250.0
 44
-2083.197248
 45
-0.0629933581096082
 46
1.926823769013158
 79
     6
 49
0.0
 49
-1.52
 49
0.0
 49
-1.7
 49
0.0
 49
-1.625
 53
7.5
 43
3250.0
 44
-2083.197248
 45
1.769776705267727
 46
2.82214606522974
 79
     6
 49
0.0
 49
-0.82
 49
0.0
 49
-1.37
 49
0.0
 49
-0.525
 53
327.5
 43
3248.77
 44
-2083.197248
 45
3.114141861751495
 46
0.0056590535369645
 79
     6
 49
0.0
 49
-0.5
 49
0.0
 49
-1.8
 49
0.0
 49
-2.35
 53
317.5
 43
3248.77
 44
-2083.197248
 45
3.006126604572293
 46
0.877675564934249
 79
     6
 49
0.0
 49
-0.25
 49
0.0
 49
-1.18
 49
0.0
 49
-1.35
 47
0.034644
 98
        1
 10
342.273483
 20
456.941653
  0
HATCH
  5
695
100
AcDbEntity
  8
GLAS_MED_FOGNING
100
AcDbHatch
 10
0.0
 20
0.0
 30
0.0
210
0.0
220
0.0
230
1.0
  2
AR-SAND
 70
     0
 71
     0
 91
        1
 92
        7
 72
     1
 73
     1
 93
       10
 10
345.3244169049094
 20
440.7297085133518
 42
0.0
 10
345.0154660416087
 20
439.2889966332131
 42
0.0
 10
340.9999999999995
 20
439.2889966332127
 42
0.0
 10
340.9999999999995
 20
444.5405029120761
 42
0.0
 10
350.1435195789959
 20
444.5405029120761
 42
0.0
 10
349.7621579604633
 20
444.4365626923309
 42
0.0
 10
349.4585187041538
 20
444.3162463598087
 42
0.0388476704749722
 10
348.5333817739992
 20
443.9496630534535
 42
0.0
 10
347.7513084742163
 20
443.6397683700816
 42
0.0
 10
346.2258414182065
 20
442.2540238519681
 42
0.0
 97
        0
 75
     0
 76
     1
 52
0.0
 41
1.0
 77
     0
 78
     4
 53
322.5
 43
3250.0
 44
2982.288997
 45
-0.0629933581096082
 46
-1.926823769013158
 79
     6
 49
0.0
 49
-1.52
 49
0.0
 49
-1.7
 49
0.0
 49
-1.625
 53
352.5
 43
3250.0
 44
2982.288997
 45
1.769776705267727
 46
-2.82214606522974
 79
     6
 49
0.0
 49
-0.82
 49
0.0
 49
-1.37
 49
0.0
 49
-0.525
 53
32.5
 43
3248.77
 44
2982.288997
 45
3.114141861751495
 46
-0.0056590535369645
 79
     6
 49
0.0
 49
-0.5
 49
0.0
 49
-1.8
 49
0.0
 49
-2.35
 53
42.5
 43
3248.77
 44
2982.288997
 45
3.006126604572293
 46
-0.877675564934249
 79
     6
 49
0.0
 49
-0.25
 49
0.0
 49
-1.18
 49
0.0
 49
-1.35
 47
0.034644
 98
        1
 10
342.273483
 20
442.150096
  0
ARC
  5
696
100
AcDbEntity
  8
GLAS_MED_FOGNING
100
AcDbCircle
 10
351.351497
 20
460.903428
 30
0.0
 40
6.413645
100
AcDbArc
 50
177.525057
 51
266.355723
  0
LINE
  5
697
100
AcDbEntity
  8
GLAS_MED_FOGNING
100
AcDbLine
 10
492.5
 20
319.568811
 30
0.0
 11
484.0
 21
319.568811
 31
0.0
  0
LINE
  5
698
100
AcDbEntity
  8
GLAS_MED_FOGNING
100
AcDbLine
 10
492.5
 20
309.522938
 30
0.0
 11
484.0
 21
309.522938
 31
0.0
  0
ARC
  5
699
100
AcDbEntity
  8
GLAS_MED_FOGNING
100
AcDbCircle
 10
496.351497
 20
460.903428
 30
0.0
 40
6.413645
100
AcDbArc
 50
177.525057
 51
266.355723
  0
HATCH
  5
69A
100
AcDbEntity
  8
GLAS_MED_FOGNING
100
AcDbHatch
 10
0.0
 20
0.0
 30
0.0
210
0.0
220
0.0
230
1.0
  2
AR-SAND
 70
     0
 71
     0
 91
        1
 92
        7
 72
     1
 73
     1
 93
       10
 10
490.3244169049094
 20
440.7297085133518
 42
0.0
 10
490.0154660416087
 20
439.2889966332131
 42
0.0
 10
485.9999999999995
 20
439.2889966332127
 42
0.0
 10
485.9999999999995
 20
444.5405029120761
 42
0.0
 10
495.1435195789959
 20
444.5405029120761
 42
0.0
 10
494.7621579604633
 20
444.4365626923309
 42
0.0
 10
494.4585187041538
 20
444.3162463598087
 42
0.0388476704749722
 10
493.5333817739993
 20
443.9496630534535
 42
0.0
 10
492.7513084742163
 20
443.6397683700816
 42
0.0
 10
491.2258414182065
 20
442.2540238519681
 42
0.0
 97
        0
 75
     0
 76
     1
 52
0.0
 41
1.0
 77
     0
 78
     4
 53
322.5
 43
3395.0
 44
2982.288997
 45
-0.0629933581096082
 46
-1.926823769013158
 79
     6
 49
0.0
 49
-1.52
 49
0.0
 49
-1.7
 49
0.0
 49
-1.625
 53
352.5
 43
3395.0
 44
2982.288997
 45
1.769776705267727
 46
-2.82214606522974
 79
     6
 49
0.0
 49
-0.82
 49
0.0
 49
-1.37
 49
0.0
 49
-0.525
 53
32.5
 43
3393.77
 44
2982.288997
 45
3.114141861751495
 46
-0.0056590535369645
 79
     6
 49
0.0
 49
-0.5
 49
0.0
 49
-1.8
 49
0.0
 49
-2.35
 53
42.5
 43
3393.77
 44
2982.288997
 45
3.006126604572293
 46
-0.877675564934249
 79
     6
 49
0.0
 49
-0.25
 49
0.0
 49
-1.18
 49
0.0
 49
-1.35
 47
0.034644
 98
        1
 10
487.273483
 20
442.150096
  0
HATCH
  5
69B
100
AcDbEntity
  8
GLAS_MED_FOGNING
100
AcDbHatch
 10
0.0
 20
0.0
 30
0.0
210
0.0
220
0.0
230
1.0
  2
AR-SAND
 70
     0
 71
     0
 91
        1
 92
        7
 72
     1
 73
     1
 93
       10
 10
490.3244169049094
 20
458.3620401312805
 42
0.0
 10
490.0154660416087
 20
459.8027520114192
 42
0.0
 10
485.9999999999995
 20
459.8027520114197
 42
0.0
 10
485.9999999999995
 20
454.5512457325562
 42
0.0
 10
495.1435195789959
 20
454.5512457325562
 42
0.0
 10
494.7621579604633
 20
454.6551859523015
 42
0.0
 10
494.4585187041538
 20
454.7755022848236
 42
-0.0388476704749722
 10
493.5333817739993
 20
455.1420855911787
 42
0.0
 10
492.7513084742163
 20
455.4519802745508
 42
0.0
 10
491.2258414182065
 20
456.8377247926641
 42
0.0
 97
        0
 75
     0
 76
     1
 52
0.0
 41
1.0
 77
     0
 78
     4
 53
37.5
 43
3395.0
 44
-2083.197248
 45
-0.0629933581096082
 46
1.926823769013158
 79
     6
 49
0.0
 49
-1.52
 49
0.0
 49
-1.7
 49
0.0
 49
-1.625
 53
7.5
 43
3395.0
 44
-2083.197248
 45
1.769776705267727
 46
2.82214606522974
 79
     6
 49
0.0
 49
-0.82
 49
0.0
 49
-1.37
 49
0.0
 49
-0.525
 53
327.5
 43
3393.77
 44
-2083.197248
 45
3.114141861751495
 46
0.0056590535369645
 79
     6
 49
0.0
 49
-0.5
 49
0.0
 49
-1.8
 49
0.0
 49
-2.35
 53
317.5
 43
3393.77
 44
-2083.197248
 45
3.006126604572293
 46
0.877675564934249
 79
     6
 49
0.0
 49
-0.25
 49
0.0
 49
-1.18
 49
0.0
 49
-1.35
 47
0.034644
 98
        1
 10
487.273483
 20
456.941653
  0
ARC
  5
69C
100
AcDbEntity
  8
GLAS_MED_FOGNING
100
AcDbCircle
 10
496.351497
 20
438.18832
 30
0.0
 40
6.413645
100
AcDbArc
 50
93.644277
 51
182.474943
  0
LINE
  5
69D
100
AcDbEntity
  8
GLAS_MED_FOGNING
100
AcDbLine
 10
494.0
 20
444.522938
 30
0.0
 11
475.0
 21
444.522938
 31
0.0
  0
LINE
  5
69E
100
AcDbEntity
  8
GLAS_MED_FOGNING
100
AcDbLine
 10
494.0
 20
454.568811
 30
0.0
 11
475.0
 21
454.568811
 31
0.0
  0
DIMENSION
  5
69F
100
AcDbEntity
  8
DIMENSION
100
AcDbDimension
  2
*D59
 10
460.0
 20
270.0
 30
0.0
 11
440.0
 21
274.0
 31
0.0
 70
    32
  3
STANDARD
100
AcDbAlignedDimension
 13
420.0
 23
290.0
 33
0.0
 14
460.0
 24
290.0
 34
0.0
100
AcDbRotatedDimension
1001
ACAD
1000
DSTYLE
1002
{
1070
   270
1070
     8
1070
   270
1070
     8
1070
    41
1040
2.5
1070
    42
1040
0.625
1070
    43
1040
3.75
1070
    44
1040
1.25
1070
    73
1070
     0
1070
    74
1070
     0
1070
    77
1070
     1
1070
    78
1070
     8
1070
   140
1040
4.0
1070
   141
1040
2.5
1070
   143
1040
0.0394
1070
   147
1040
2.0
1070
   171
1070
     4
1070
   172
1070
     1
1070
   178
1070
     6
1070
   273
1070
     8
1070
   274
1070
     4
1070
   277
1070
     6
1070
   340
1005
1C
1002
}
  0
DIMENSION
  5
6A0
100
AcDbEntity
  8
DIMENSION
100
AcDbDimension
  2
*D60
 10
470.0
 20
405.0
 30
0.0
 11
435.0
 21
409.0
 31
0.0
 70
    32
  3
STANDARD
100
AcDbAlignedDimension
 13
400.0
 23
425.0
 33
0.0
 14
470.0
 24
425.0
 34
0.0
100
AcDbRotatedDimension
1001
ACAD
1000
DSTYLE
1002
{
1070
   270
1070
     8
1070
   270
1070
     8
1070
    41
1040
2.5
1070
    42
1040
0.625
1070
    43
1040
3.75
1070
    44
1040
1.25
1070
    73
1070
     0
1070
    74
1070
     0
1070
    77
1070
     1
1070
    78
1070
     8
1070
   140
1040
4.0
1070
   141
1040
2.5
1070
   143
1040
0.0394
1070
   147
1040
2.0
1070
   171
1070
     4
1070
   172
1070
     1
1070
   178
1070
     6
1070
   273
1070
     8
1070
   274
1070
     4
1070
   277
1070
     6
1070
   340
1005
1C
1002
}
  0
INSERT
  5
6A1
100
AcDbEntity
  8
0
100
AcDbBlockReference
  2
SP01502020
 10
450.0
 20
340.0
 30
0.0
 50
90.0
  0
LWPOLYLINE
  5
6A2
100
AcDbEntity
  8
STALPROFIL
100
AcDbPolyline
 90
       11
 70
     1
 43
1.8
 10
420.9
 20
428.6
 10
420.9
 20
443.2
 42
-0.414214
 10
421.8
 20
444.1
 10
468.2
 20
444.1
 42
-0.414214
 10
469.1
 20
443.2
 10
469.1
 20
426.8
 42
-0.414214
 10
468.2
 20
425.9
 10
401.8
 20
425.9
 42
-0.414214
 10
400.9
 20
426.801
 42
-0.414214
 10
401.799
 20
427.7
 10
420.0
 20
427.7
 42
0.414214
  0
LWPOLYLINE
  5
6A3
100
AcDbEntity
  8
SPKONTUR
100
AcDbPolyline
 90
       11
 70
     1
 43
0.0
 10
420.0
 20
428.6
 10
420.0
 20
443.2
 42
-0.414214
 10
421.8
 20
445.0
 10
468.2
 20
445.0
 42
-0.414214
 10
470.0
 20
443.2
 10
470.0
 20
426.8
 42
-0.414214
 10
468.2
 20
425.0
 10
401.8
 20
425.0
 42
-0.414214
 10
400.0
 20
426.8
 10
400.0
 20
426.801
 42
-0.414214
 10
401.799
 20
428.6
  0
INSERT
  5
6A4
100
AcDbEntity
  8
GLAS_MED_FOGNING
100
AcDbBlockReference
  2
*X28
 10
445.0
 20
475.0
 30
0.0
 50
90.0
1001
ACAD
1000
HATCH
1002
{
1070
    16
1000
DASH
1040
25.0
1040
2.007129
1002
}
  0
LWPOLYLINE
  5
6A5
100
AcDbEntity
  8
SPKONTUR
100
AcDbPolyline
 90
       25
 70
     0
 43
0.0
 10
426.6
 20
466.9
 10
426.6
 20
466.885281
 10
426.6
 20
466.9
 42
-0.414214
 10
429.1
 20
469.4
 10
431.2
 20
469.4
 42
0.414214
 10
433.0
 20
471.2
 10
433.0
 20
471.4
 42
-0.414214
 10
436.6
 20
475.0
 10
468.2
 20
475.0
 42
-0.414214
 10
470.0
 20
473.2
 10
470.0
 20
456.8
 42
-0.414214
 10
468.2
 20
455.0
 10
421.8
 20
455.0
 42
-0.414214
 10
420.0
 20
456.8
 10
420.0
 20
467.1
 42
-0.414214
 10
421.8
 20
468.9
 10
421.801
 20
468.9
 42
-0.414214
 10
423.6
 20
467.101
 10
423.6
 20
462.4
 42
0.414214
 10
425.4
 20
460.6
 10
426.8
 20
460.6
 42
0.414214
 10
428.6
 20
462.4
 42
0.198912
 10
427.72132
 20
464.52132
 10
427.47868
 20
464.763961
 42
-0.198912
 10
426.6
 20
466.885281
  0
LWPOLYLINE
  5
6A6
100
AcDbEntity
  8
STALPROFIL
100
AcDbPolyline
 90
       22
 70
     1
 43
1.8
 10
427.5
 20
466.885281
 10
427.5
 20
466.9
 42
-0.414214
 10
429.1
 20
468.5
 10
431.2
 20
468.5
 42
0.414214
 10
433.9
 20
471.2
 10
433.9
 20
471.4
 42
-0.414214
 10
436.6
 20
474.1
 10
468.2
 20
474.1
 42
-0.414214
 10
469.1
 20
473.2
 10
469.1
 20
456.8
 42
-0.414214
 10
468.2
 20
455.9
 10
421.8
 20
455.9
 42
-0.414214
 10
420.9
 20
456.8
 10
420.9
 20
467.1
 42
-0.414214
 10
421.801
 20
468.0
 42
-0.414214
 10
422.7
 20
467.101
 10
422.7
 20
462.4
 42
0.414214
 10
425.4
 20
459.7
 10
426.8
 20
459.7
 42
0.414214
 10
429.5
 20
462.4
 42
0.198912
 10
428.357716
 20
465.157716
 10
428.115076
 20
465.400357
 42
-0.198912
  0
DIMENSION
  5
6A7
100
AcDbEntity
  8
DIMENSION
100
AcDbDimension
  2
*D61
 10
470.0
 20
490.0
 30
0.0
 11
445.0
 21
494.0
 31
0.0
 70
    32
  3
STANDARD
100
AcDbAlignedDimension
 13
420.0
 23
475.0
 33
0.0
 14
470.0
 24
475.0
 34
0.0
100
AcDbRotatedDimension
1001
ACAD
1000
DSTYLE
1002
{
1070
   270
1070
     8
1070
   270
1070
     8
1070
    41
1040
2.5
1070
    42
1040
0.625
1070
    43
1040
3.75
1070
    44
1040
1.25
1070
    73
1070
     0
1070
    74
1070
     0
1070
    77
1070
     1
1070
    78
1070
     8
1070
   140
1040
4.0
1070
   141
1040
2.5
1070
   143
1040
0.0394
1070
   147
1040
2.0
1070
   171
1070
     4
1070
   172
1070
     1
1070
   178
1070
     6
1070
   273
1070
     8
1070
   274
1070
     4
1070
   277
1070
     6
1070
   340
1005
1C
1002
}
  0
TEXT
  5
6A8
100
AcDbEntity
  8
TEXT
100
AcDbText
 10
406.442857
 20
415.383177
 30
0.0
 40
5.0
  1
%%USP 75011/750/10
 41
0.8
  7
ROMANS
 72
     1
 11
435.0
 21
415.383177
 31
0.0
100
AcDbText
  0
LWPOLYLINE
  5
6A9
100
AcDbEntity
  8
GLAS_MED_FOGNING
100
AcDbPolyline
 90
        4
 70
     0
 43
0.0
 10
421.8
 20
455.0
 10
420.0
 20
455.0
 10
420.0
 20
445.0
 10
421.8
 20
445.0
  0
INSERT
  5
6AA
100
AcDbEntity
  8
0
100
AcDbBlockReference
  2
SP41520
 10
445.0
 20
440.0
 30
0.0
 41
-1.0
 50
270.0
  0
INSERT
  5
6AB
100
AcDbEntity
  8
0
100
AcDbBlockReference
  2
SP41520
 10
435.0
 20
305.0
 30
0.0
 41
-1.0
 50
270.0
  0
DIMENSION
  5
6AC
100
AcDbEntity
  8
DIMENSION
100
AcDbDimension
  2
*D62
 10
480.0
 20
355.0
 30
0.0
 11
470.0
 21
359.0
 31
0.0
 70
    32
  3
STANDARD
100
AcDbAlignedDimension
 13
460.0
 23
340.0
 33
0.0
 14
480.0
 24
340.0
 34
0.0
100
AcDbRotatedDimension
1001
ACAD
1000
DSTYLE
1002
{
1070
   270
1070
     8
1070
   270
1070
     8
1070
    41
1040
2.5
1070
    42
1040
0.625
1070
    43
1040
3.75
1070
    44
1040
1.25
1070
    73
1070
     0
1070
    74
1070
     0
1070
    77
1070
     1
1070
    78
1070
     8
1070
   140
1040
4.0
1070
   141
1040
2.5
1070
   143
1040
0.0394
1070
   147
1040
2.0
1070
   171
1070
     4
1070
   172
1070
     1
1070
   178
1070
     6
1070
   273
1070
     8
1070
   274
1070
     4
1070
   277
1070
     6
1070
   340
1005
1C
1002
}
  0
INSERT
  5
6AD
100
AcDbEntity
  8
GLAS_MED_FOGNING
100
AcDbBlockReference
  2
*X26
 10
435.0
 20
262.533941
 30
0.0
 50
270.0
1001
ACAD
1000
HATCH
1002
{
1070
    16
1000
AR-SAND
1040
2.0
1040
0.0
1002
}
  0
INSERT
  5
6AE
100
AcDbEntity
  8
GLAS_MED_FOGNING
100
AcDbBlockReference
  2
*X27
 10
435.0
 20
277.0
 30
0.0
 50
270.0
1001
ACAD
1000
HATCH
1002
{
1070
    16
1000
AR-SAND
1040
2.0
1040
0.0
1002
}
  0
INSERT
  5
6AF
100
AcDbEntity
  8
0
100
AcDbBlockReference
  2
SP41520
 10
435.0
 20
325.0
 30
0.0
 50
270.0
  0
DIMENSION
  5
6B0
100
AcDbEntity
  8
DIMENSION
100
AcDbDimension
  2
*D63
 10
460.0
 20
355.0
 30
0.0
 11
450.0
 21
359.0
 31
0.0
 70
    32
  3
STANDARD
100
AcDbAlignedDimension
 13
440.0
 23
340.0
 33
0.0
 14
460.0
 24
340.0
 34
0.0
100
AcDbRotatedDimension
1001
ACAD
1000
DSTYLE
1002
{
1070
   270
1070
     8
1070
   270
1070
     8
1070
    41
1040
2.5
1070
    42
1040
0.625
1070
    43
1040
3.75
1070
    44
1040
1.25
1070
    73
1070
     0
1070
    74
1070
     0
1070
    77
1070
     1
1070
    78
1070
     8
1070
   140
1040
4.0
1070
   141
1040
2.5
1070
   143
1040
0.0394
1070
   147
1040
2.0
1070
   171
1070
     4
1070
   172
1070
     1
1070
   178
1070
     6
1070
   273
1070
     8
1070
   274
1070
     4
1070
   277
1070
     6
1070
   340
1005
1C
1002
}
  0
LWPOLYLINE
  5
6B1
100
AcDbEntity
  8
GLAS_MED_FOGNING
100
AcDbPolyline
 90
        4
 70
     0
 43
0.0
 10
458.2
 20
320.0
 10
460.0
 20
320.0
 10
460.0
 20
310.0
 10
458.2
 20
310.0
  0
TEXT
  5
6B2
100
AcDbEntity
  8
TEXT
100
AcDbText
 10
452.0
 20
294.442857
 30
0.0
 40
5.0
  1
%%USP 01502020
 50
90.0
 41
0.8
  7
ROMANS
 72
     1
 11
452.0
 21
315.0
 31
0.0
100
AcDbText
  0
LINE
  5
6B3
100
AcDbEntity
  8
GLAS_MED_FOGNING
100
AcDbLine
 10
484.0
 20
319.568811
 30
0.0
 11
465.0
 21
319.568811
 31
0.0
  0
LINE
  5
6B4
100
AcDbEntity
  8
GLAS_MED_FOGNING
100
AcDbLine
 10
484.0
 20
309.522938
 30
0.0
 11
465.0
 21
309.522938
 31
0.0
  0
HATCH
  5
6B5
100
AcDbEntity
  8
GLAS_MED_FOGNING
100
AcDbHatch
 10
0.0
 20
0.0
 30
0.0
210
0.0
220
0.0
230
1.0
  2
AR-SAND
 70
     0
 71
     0
 91
        1
 92
        7
 72
     1
 73
     1
 93
       10
 10
480.3244169049094
 20
323.3620401312805
 42
0.0
 10
480.0154660416088
 20
324.8027520114192
 42
0.0
 10
475.9999999999995
 20
324.8027520114196
 42
0.0
 10
475.9999999999995
 20
319.5512457325562
 42
0.0
 10
485.1435195789958
 20
319.5512457325562
 42
0.0
 10
484.7621579604633
 20
319.6551859523015
 42
0.0
 10
484.4585187041539
 20
319.7755022848236
 42
-0.0388476704749722
 10
483.5333817739992
 20
320.1420855911787
 42
0.0
 10
482.7513084742163
 20
320.4519802745508
 42
0.0
 10
481.2258414182065
 20
321.8377247926641
 42
0.0
 97
        0
 75
     0
 76
     1
 52
0.0
 41
1.0
 77
     0
 78
     4
 53
37.5
 43
3385.0
 44
-2218.197248
 45
-0.0629933581096082
 46
1.926823769013158
 79
     6
 49
0.0
 49
-1.52
 49
0.0
 49
-1.7
 49
0.0
 49
-1.625
 53
7.5
 43
3385.0
 44
-2218.197248
 45
1.769776705267727
 46
2.82214606522974
 79
     6
 49
0.0
 49
-0.82
 49
0.0
 49
-1.37
 49
0.0
 49
-0.525
 53
327.5
 43
3383.77
 44
-2218.197248
 45
3.114141861751495
 46
0.0056590535369645
 79
     6
 49
0.0
 49
-0.5
 49
0.0
 49
-1.8
 49
0.0
 49
-2.35
 53
317.5
 43
3383.77
 44
-2218.197248
 45
3.006126604572293
 46
0.877675564934249
 79
     6
 49
0.0
 49
-0.25
 49
0.0
 49
-1.18
 49
0.0
 49
-1.35
 47
0.034644
 98
        1
 10
477.273483
 20
321.941653
  0
HATCH
  5
6B6
100
AcDbEntity
  8
GLAS_MED_FOGNING
100
AcDbHatch
 10
0.0
 20
0.0
 30
0.0
210
0.0
220
0.0
230
1.0
  2
AR-SAND
 70
     0
 71
     0
 91
        1
 92
        7
 72
     1
 73
     1
 93
       10
 10
480.3244169049094
 20
305.7297085133518
 42
0.0
 10
480.0154660416088
 20
304.2889966332131
 42
0.0
 10
475.9999999999995
 20
304.2889966332127
 42
0.0
 10
475.9999999999995
 20
309.5405029120761
 42
0.0
 10
485.1435195789958
 20
309.5405029120761
 42
0.0
 10
484.7621579604633
 20
309.4365626923309
 42
0.0
 10
484.4585187041539
 20
309.3162463598086
 42
0.0388476704749722
 10
483.5333817739992
 20
308.9496630534536
 42
0.0
 10
482.7513084742163
 20
308.6397683700815
 42
0.0
 10
481.2258414182065
 20
307.2540238519682
 42
0.0
 97
        0
 75
     0
 76
     1
 52
0.0
 41
1.0
 77
     0
 78
     4
 53
322.5
 43
3385.0
 44
2847.288997
 45
-0.0629933581096082
 46
-1.926823769013158
 79
     6
 49
0.0
 49
-1.52
 49
0.0
 49
-1.7
 49
0.0
 49
-1.625
 53
352.5
 43
3385.0
 44
2847.288997
 45
1.769776705267727
 46
-2.82214606522974
 79
     6
 49
0.0
 49
-0.82
 49
0.0
 49
-1.37
 49
0.0
 49
-0.525
 53
32.5
 43
3383.77
 44
2847.288997
 45
3.114141861751495
 46
-0.0056590535369645
 79
     6
 49
0.0
 49
-0.5
 49
0.0
 49
-1.8
 49
0.0
 49
-2.35
 53
42.5
 43
3383.77
 44
2847.288997
 45
3.006126604572293
 46
-0.877675564934249
 79
     6
 49
0.0
 49
-0.25
 49
0.0
 49
-1.18
 49
0.0
 49
-1.35
 47
0.034644
 98
        1
 10
477.273483
 20
307.150096
  0
LINE
  5
6B7
100
AcDbEntity
  8
GLAS_MED_FOGNING
100
AcDbLine
 10
465.0
 20
309.522938
 30
0.0
 11
465.0
 21
319.568811
 31
0.0
  0
LINE
  5
6B8
100
AcDbEntity
  8
GLAS_MED_FOGNING
100
AcDbLine
 10
467.0
 20
319.568811
 30
0.0
 11
467.0
 21
325.568811
 31
0.0
  0
LINE
  5
6B9
100
AcDbEntity
  8
GLAS_MED_FOGNING
100
AcDbLine
 10
469.0
 20
319.568811
 30
0.0
 11
469.0
 21
325.568811
 31
0.0
  0
LINE
  5
6BA
100
AcDbEntity
  8
GLAS_MED_FOGNING
100
AcDbLine
 10
468.0
 20
319.568811
 30
0.0
 11
468.0
 21
325.568811
 31
0.0
  0
LINE
  5
6BB
100
AcDbEntity
  8
GLAS_MED_FOGNING
100
AcDbLine
 10
470.0
 20
319.568811
 30
0.0
 11
470.0
 21
325.568811
 31
0.0
  0
LINE
  5
6BC
100
AcDbEntity
  8
GLAS_MED_FOGNING
100
AcDbLine
 10
471.0
 20
319.568811
 30
0.0
 11
471.0
 21
325.568811
 31
0.0
  0
LINE
  5
6BD
100
AcDbEntity
  8
GLAS_MED_FOGNING
100
AcDbLine
 10
472.0
 20
319.568811
 30
0.0
 11
472.0
 21
325.568811
 31
0.0
  0
LINE
  5
6BE
100
AcDbEntity
  8
GLAS_MED_FOGNING
100
AcDbLine
 10
466.0
 20
319.568811
 30
0.0
 11
466.0
 21
325.568811
 31
0.0
  0
LINE
  5
6BF
100
AcDbEntity
  8
GLAS_MED_FOGNING
100
AcDbLine
 10
473.0
 20
319.568811
 30
0.0
 11
473.0
 21
325.568811
 31
0.0
  0
LINE
  5
6C0
100
AcDbEntity
  8
GLAS_MED_FOGNING
100
AcDbLine
 10
467.0
 20
304.522938
 30
0.0
 11
467.0
 21
309.522938
 31
0.0
  0
LINE
  5
6C1
100
AcDbEntity
  8
GLAS_MED_FOGNING
100
AcDbLine
 10
468.0
 20
304.522938
 30
0.0
 11
468.0
 21
309.522938
 31
0.0
  0
LINE
  5
6C2
100
AcDbEntity
  8
GLAS_MED_FOGNING
100
AcDbLine
 10
469.0
 20
304.522938
 30
0.0
 11
469.0
 21
309.522938
 31
0.0
  0
LINE
  5
6C3
100
AcDbEntity
  8
GLAS_MED_FOGNING
100
AcDbLine
 10
470.0
 20
304.522938
 30
0.0
 11
470.0
 21
309.522938
 31
0.0
  0
LINE
  5
6C4
100
AcDbEntity
  8
GLAS_MED_FOGNING
100
AcDbLine
 10
471.0
 20
304.522938
 30
0.0
 11
471.0
 21
309.522938
 31
0.0
  0
LINE
  5
6C5
100
AcDbEntity
  8
GLAS_MED_FOGNING
100
AcDbLine
 10
472.0
 20
304.522938
 30
0.0
 11
472.0
 21
309.522938
 31
0.0
  0
LINE
  5
6C6
100
AcDbEntity
  8
GLAS_MED_FOGNING
100
AcDbLine
 10
466.0
 20
304.522938
 30
0.0
 11
466.0
 21
309.522938
 31
0.0
  0
LINE
  5
6C7
100
AcDbEntity
  8
GLAS_MED_FOGNING
100
AcDbLine
 10
473.0
 20
304.522938
 30
0.0
 11
473.0
 21
309.522938
 31
0.0
  0
LINE
  5
6C8
100
AcDbEntity
  8
GLAS_MED_FOGNING
100
AcDbLine
 10
475.0
 20
319.568811
 30
0.0
 11
475.0
 21
325.568811
 31
0.0
  0
LINE
  5
6C9
100
AcDbEntity
  8
GLAS_MED_FOGNING
100
AcDbLine
 10
474.0
 20
319.568811
 30
0.0
 11
474.0
 21
325.568811
 31
0.0
  0
LINE
  5
6CA
100
AcDbEntity
  8
GLAS_MED_FOGNING
100
AcDbLine
 10
476.0
 20
319.568811
 30
0.0
 11
476.0
 21
325.568811
 31
0.0
  0
LINE
  5
6CB
100
AcDbEntity
  8
GLAS_MED_FOGNING
100
AcDbLine
 10
474.0
 20
304.522938
 30
0.0
 11
474.0
 21
309.522938
 31
0.0
  0
LINE
  5
6CC
100
AcDbEntity
  8
GLAS_MED_FOGNING
100
AcDbLine
 10
475.0
 20
304.522938
 30
0.0
 11
475.0
 21
309.522938
 31
0.0
  0
LINE
  5
6CD
100
AcDbEntity
  8
GLAS_MED_FOGNING
100
AcDbLine
 10
476.0
 20
304.522938
 30
0.0
 11
476.0
 21
309.522938
 31
0.0
  0
ARC
  5
6CE
100
AcDbEntity
  8
GLAS_MED_FOGNING
100
AcDbCircle
 10
486.351497
 20
303.18832
 30
0.0
 40
6.413645
100
AcDbArc
 50
93.644277
 51
182.474943
  0
ARC
  5
6CF
100
AcDbEntity
  8
GLAS_MED_FOGNING
100
AcDbCircle
 10
486.351497
 20
325.903428
 30
0.0
 40
6.413645
100
AcDbArc
 50
177.525057
 51
266.355723
  0
INSERT
  5
6D0
100
AcDbEntity
  8
GLAS_MED_FOGNING
100
AcDbBlockReference
  2
*X26
 10
445.0
 20
397.533941
 30
0.0
 50
270.0
1001
ACAD
1000
HATCH
1002
{
1070
    16
1000
AR-SAND
1040
2.0
1040
0.0
1002
}
  0
INSERT
  5
6D1
100
AcDbEntity
  8
0
100
AcDbBlockReference
  2
SP41520
 10
445.0
 20
460.0
 30
0.0
 50
270.0
  0
DIMENSION
  5
6D2
100
AcDbEntity
  8
DIMENSION
100
AcDbDimension
  2
*D64
 10
490.0
 20
490.0
 30
0.0
 11
480.0
 21
494.0
 31
0.0
 70
    32
  3
STANDARD
100
AcDbAlignedDimension
 13
470.0
 23
475.0
 33
0.0
 14
490.0
 24
475.0
 34
0.0
100
AcDbRotatedDimension
1001
ACAD
1000
DSTYLE
1002
{
1070
   270
1070
     8
1070
   270
1070
     8
1070
    41
1040
2.5
1070
    42
1040
0.625
1070
    43
1040
3.75
1070
    44
1040
1.25
1070
    73
1070
     0
1070
    74
1070
     0
1070
    77
1070
     1
1070
    78
1070
     8
1070
   140
1040
4.0
1070
   141
1040
2.5
1070
   143
1040
0.0394
1070
   147
1040
2.0
1070
   171
1070
     4
1070
   172
1070
     1
1070
   178
1070
     6
1070
   273
1070
     8
1070
   274
1070
     4
1070
   277
1070
     6
1070
   340
1005
1C
1002
}
  0
INSERT
  5
6D3
100
AcDbEntity
  8
GLAS_MED_FOGNING
100
AcDbBlockReference
  2
*X27
 10
445.0
 20
412.0
 30
0.0
 50
270.0
1001
ACAD
1000
HATCH
1002
{
1070
    16
1000
AR-SAND
1040
2.0
1040
0.0
1002
}
  0
LINE
  5
6D4
100
AcDbEntity
  8
GLAS_MED_FOGNING
100
AcDbLine
 10
476.0
 20
439.522938
 30
0.0
 11
476.0
 21
444.522938
 31
0.0
  0
LINE
  5
6D5
100
AcDbEntity
  8
GLAS_MED_FOGNING
100
AcDbLine
 10
476.0
 20
454.568811
 30
0.0
 11
476.0
 21
460.568811
 31
0.0
  0
LINE
  5
6D6
100
AcDbEntity
  8
GLAS_MED_FOGNING
100
AcDbLine
 10
475.0
 20
444.522938
 30
0.0
 11
475.0
 21
454.568811
 31
0.0
  0
LWPOLYLINE
  5
6D7
100
AcDbEntity
  8
GLAS_MED_FOGNING
100
AcDbPolyline
 90
        4
 70
     0
 43
0.0
 10
468.2
 20
455.0
 10
470.0
 20
455.0
 10
470.0
 20
445.0
 10
468.2
 20
445.0
  0
LINE
  5
6D8
100
AcDbEntity
  8
GLAS_MED_FOGNING
100
AcDbLine
 10
486.0
 20
439.522938
 30
0.0
 11
486.0
 21
444.522938
 31
0.0
  0
LINE
  5
6D9
100
AcDbEntity
  8
GLAS_MED_FOGNING
100
AcDbLine
 10
485.0
 20
439.522938
 30
0.0
 11
485.0
 21
444.522938
 31
0.0
  0
LINE
  5
6DA
100
AcDbEntity
  8
GLAS_MED_FOGNING
100
AcDbLine
 10
484.0
 20
439.522938
 30
0.0
 11
484.0
 21
444.522938
 31
0.0
  0
LINE
  5
6DB
100
AcDbEntity
  8
GLAS_MED_FOGNING
100
AcDbLine
 10
483.0
 20
439.522938
 30
0.0
 11
483.0
 21
444.522938
 31
0.0
  0
LINE
  5
6DC
100
AcDbEntity
  8
GLAS_MED_FOGNING
100
AcDbLine
 10
482.0
 20
439.522938
 30
0.0
 11
482.0
 21
444.522938
 31
0.0
  0
LINE
  5
6DD
100
AcDbEntity
  8
GLAS_MED_FOGNING
100
AcDbLine
 10
481.0
 20
439.522938
 30
0.0
 11
481.0
 21
444.522938
 31
0.0
  0
LINE
  5
6DE
100
AcDbEntity
  8
GLAS_MED_FOGNING
100
AcDbLine
 10
480.0
 20
439.522938
 30
0.0
 11
480.0
 21
444.522938
 31
0.0
  0
LINE
  5
6DF
100
AcDbEntity
  8
GLAS_MED_FOGNING
100
AcDbLine
 10
479.0
 20
439.522938
 30
0.0
 11
479.0
 21
444.522938
 31
0.0
  0
LINE
  5
6E0
100
AcDbEntity
  8
GLAS_MED_FOGNING
100
AcDbLine
 10
478.0
 20
439.522938
 30
0.0
 11
478.0
 21
444.522938
 31
0.0
  0
LINE
  5
6E1
100
AcDbEntity
  8
GLAS_MED_FOGNING
100
AcDbLine
 10
477.0
 20
439.522938
 30
0.0
 11
477.0
 21
444.522938
 31
0.0
  0
LINE
  5
6E2
100
AcDbEntity
  8
GLAS_MED_FOGNING
100
AcDbLine
 10
486.0
 20
454.568811
 30
0.0
 11
486.0
 21
460.568811
 31
0.0
  0
LINE
  5
6E3
100
AcDbEntity
  8
GLAS_MED_FOGNING
100
AcDbLine
 10
484.0
 20
454.568811
 30
0.0
 11
484.0
 21
460.568811
 31
0.0
  0
LINE
  5
6E4
100
AcDbEntity
  8
GLAS_MED_FOGNING
100
AcDbLine
 10
485.0
 20
454.568811
 30
0.0
 11
485.0
 21
460.568811
 31
0.0
  0
LINE
  5
6E5
100
AcDbEntity
  8
GLAS_MED_FOGNING
100
AcDbLine
 10
483.0
 20
454.568811
 30
0.0
 11
483.0
 21
460.568811
 31
0.0
  0
LINE
  5
6E6
100
AcDbEntity
  8
GLAS_MED_FOGNING
100
AcDbLine
 10
482.0
 20
454.568811
 30
0.0
 11
482.0
 21
460.568811
 31
0.0
  0
LINE
  5
6E7
100
AcDbEntity
  8
GLAS_MED_FOGNING
100
AcDbLine
 10
481.0
 20
454.568811
 30
0.0
 11
481.0
 21
460.568811
 31
0.0
  0
LINE
  5
6E8
100
AcDbEntity
  8
GLAS_MED_FOGNING
100
AcDbLine
 10
480.0
 20
454.568811
 30
0.0
 11
480.0
 21
460.568811
 31
0.0
  0
LINE
  5
6E9
100
AcDbEntity
  8
GLAS_MED_FOGNING
100
AcDbLine
 10
478.0
 20
454.568811
 30
0.0
 11
478.0
 21
460.568811
 31
0.0
  0
LINE
  5
6EA
100
AcDbEntity
  8
GLAS_MED_FOGNING
100
AcDbLine
 10
479.0
 20
454.568811
 30
0.0
 11
479.0
 21
460.568811
 31
0.0
  0
LINE
  5
6EB
100
AcDbEntity
  8
GLAS_MED_FOGNING
100
AcDbLine
 10
477.0
 20
454.568811
 30
0.0
 11
477.0
 21
460.568811
 31
0.0
  0
LWPOLYLINE
  5
6EC
100
AcDbEntity
  8
CENTRUM
100
AcDbPolyline
 90
        4
 70
     0
 43
0.0
 10
502.5
 20
421.148262
 10
502.5
 20
462.0
 10
502.5
 20
468.0
 10
502.5
 20
477.0
  0
LWPOLYLINE
  5
6ED
100
AcDbEntity
  8
CENTRUM
100
AcDbPolyline
 90
        4
 70
     0
 43
0.0
 10
492.5
 20
286.148262
 10
492.5
 20
327.0
 10
492.5
 20
333.0
 10
492.5
 20
342.0
  0
LINE
  5
6EE
100
AcDbEntity
  8
GLAS_MED_FOGNING
100
AcDbLine
 10
502.5
 20
444.522938
 30
0.0
 11
494.0
 21
444.522938
 31
0.0
  0
LINE
  5
6EF
100
AcDbEntity
  8
GLAS_MED_FOGNING
100
AcDbLine
 10
502.5
 20
454.568811
 30
0.0
 11
494.0
 21
454.568811
 31
0.0
  0
ENDSEC
  0
SECTION
  2
OBJECTS
  0
DICTIONARY
  5
1A
100
AcDbDictionary
  3
ACAD_GROUP
350
18
  3
ACAD_LAYOUT
350
36E
  3
ACAD_MLINESTYLE
350
19
  3
ACAD_PLOTSETTINGS
350
36F
  3
ACAD_PLOTSTYLENAME
350
36C
  3
ACDBHEADERROUNDTRIPXREC
350
8F1
  3
CONTENTDICTIONARY
350
31B
  0
DICTIONARY
  5
8EF
100
AcDbDictionary
280
     1
  3
ACAD_XREC_ROUNDTRIP
360
8F0
  0
DICTIONARY
  5
917
100
AcDbDictionary
280
     1
  3
ACAD_XREC_ROUNDTRIP
360
918
  0
DICTIONARY
  5
912
100
AcDbDictionary
280
     1
  3
ACAD_LAYOUTSELFREF
360
913
  0
DICTIONARY
  5
914
100
AcDbDictionary
280
     1
  3
ACAD_LAYOUTSELFREF
360
915
  0
DICTIONARY
  5
18
102
{ACAD_REACTORS
330
1A
102
}
100
AcDbDictionary
  0
DICTIONARY
  5
36E
102
{ACAD_XDICTIONARY
360
920
102
}
102
{ACAD_REACTORS
330
1A
102
}
100
AcDbDictionary
  3
LAYOUT1
350
371
  3
MODEL
350
370
  0
DICTIONARY
  5
19
102
{ACAD_REACTORS
330
1A
102
}
100
AcDbDictionary
  3
STANDARD
350
1D
  0
DICTIONARY
  5
36F
102
{ACAD_REACTORS
330
1A
102
}
100
AcDbDictionary
  0
ACAD_PROXY_OBJECT
  5
36C
102
{ACAD_REACTORS
330
1A
102
}
100
AcDbProxyObject
 90
      499
 91
      503
 93
       86
310
405010041939BDC9B585B0
350
36D
340
36D
 94
        0
  0
DICTIONARY
  5
8F1
102
{ACAD_REACTORS
330
1A
102
}
100
AcDbDictionary
  3
CEPSNTYPE
350
8FB
  3
DIMSTYLEDATA
350
8FF
  3
FINGERPRINTGUID
350
8FC
  3
HYPERLINKBASE
350
8F4
  3
INSUNITS
350
8FA
  3
LAYOUTDICT
350
8F6
  3
LWETCUNION
350
8F9
  3
PLOTSETDICT
350
8F7
  3
PLOTSTYLNAMDICT
350
8F8
  3
PSVPSCALE
350
8FE
  3
PUCSBASE
350
902
  3
PUCSORGBACK
350
908
  3
PUCSORGBOTTOM
350
904
  3
PUCSORGFRONT
350
907
  3
PUCSORGLEFT
350
905
  3
PUCSORGRIGHT
350
906
  3
PUCSORGTOP
350
903
  3
PUCSORTHOREF
350
900
  3
PUCSORTHOVIEW
350
901
  3
STYLESHEET
350
8F5
  3
TSTACKALIGN
350
8F2
  3
TSTACKSIZE
350
8F3
  3
UCSBASE
350
90B
  3
UCSORGBACK
350
911
  3
UCSORGBOTTOM
350
90D
  3
UCSORGFRONT
350
910
  3
UCSORGLEFT
350
90E
  3
UCSORGRIGHT
350
90F
  3
UCSORGTOP
350
90C
  3
UCSORTHOREF
350
909
  3
UCSORTHOVIEW
350
90A
  3
VERSIONGUID
350
8FD
  0
DICTIONARY
  5
31B
102
{ACAD_REACTORS
330
1A
102
}
100
AcDbDictionary
  0
XRECORD
  5
8F0
102
{ACAD_REACTORS
330
8EF
102
}
100
AcDbXrecord
102
EXTNAMES
  1
*ACTIVE
  2
*Active
102
UCS
 74
     0
 71
     1
 10
0.0
 20
0.0
 30
0.0
 10
1.0
 20
0.0
 30
0.0
 10
0.0
 20
1.0
 30
0.0
146
0.0
 79
     0
102
VIEW
281
     0
  0
XRECORD
  5
918
102
{ACAD_REACTORS
330
917
102
}
100
AcDbXrecord
102
PLOTBIT
280
     0
  0
XRECORD
  5
913
102
{ACAD_REACTORS
330
912
102
}
100
AcDbXrecord
340
2
  0
XRECORD
  5
915
102
{ACAD_REACTORS
330
914
102
}
100
AcDbXrecord
340
7
  0
DICTIONARY
  5
920
100
AcDbDictionary
280
     1
  3
ACAD_XREC_ROUNDTRIP
360
921
  0
ACAD_PROXY_OBJECT
  5
371
102
{ACAD_REACTORS
330
36E
102
}
100
AcDbProxyObject
 90
      499
 91
      505
 93
     1092
310
91D4850204C617365724A65742034562F344D5620506F73745363726970742C00AAAAAA416AA591069074C61796F75743140501A800000000000000000000000000000000000000000101E900000000000241C902A6A6A10232D5E076BC5510408CB5781DAF154410232D5E076BC5510408CB5781DAF15C410232D5E076BC5
310
710408CB5781DAF15C40
330
7
330
0
340
0
340
0
 94
        0
  0
ACAD_PROXY_OBJECT
  5
370
102
{ACAD_REACTORS
330
36E
102
}
100
AcDbProxyObject
 90
      499
 91
      505
 93
      668
310
91D4850204C617365724A65742034562F344D5620506F73745363726970742C01AAAAAAAAA5A69054D6F64656C901A800000000000000000000000000000000000000000000A1000000000000008902A6A6AAAA0
330
2
330
0
340
0
340
0
 94
        0
  0
MLINESTYLE
  5
1D
102
{ACAD_REACTORS
330
19
102
}
100
AcDbMlineStyle
  2
STANDARD
 70
     0
  3

 62
   256
 51
90.0
 52
90.0
 71
     2
 49
0.5
 62
   256
  6
BYLAYER
 49
-0.5
 62
   256
  6
BYLAYER
  0
ACAD_PROXY_OBJECT
  5
36D
102
{ACAD_REACTORS
330
36C
102
}
100
AcDbProxyObject
 90
      499
 91
      504
 93
        0
 94
        0
  0
XRECORD
  5
8FB
102
{ACAD_REACTORS
330
8F1
102
}
100
AcDbXrecord
 90
        0
  0
XRECORD
  5
8FF
102
{ACAD_REACTORS
330
8F1
102
}
100
AcDbXrecord
1000
DSTYLE
1002
{
1070
   277
 70
     6
1002
}
  0
XRECORD
  5
8FC
102
{ACAD_REACTORS
330
8F1
102
}
100
AcDbXrecord
  1
{DCFA0AC3-0BE8-11D6-AA0B-00D0B7E2A69D}
  0
XRECORD
  5
8F4
102
{ACAD_REACTORS
330
8F1
102
}
100
AcDbXrecord
  1

  0
XRECORD
  5
8FA
102
{ACAD_REACTORS
330
8F1
102
}
100
AcDbXrecord
 90
        0
  0
XRECORD
  5
8F6
102
{ACAD_REACTORS
330
8F1
102
}
100
AcDbXrecord
340
36E
  0
XRECORD
  5
8F9
102
{ACAD_REACTORS
330
8F1
102
}
100
AcDbXrecord
 90
    14877
  0
XRECORD
  5
8F7
102
{ACAD_REACTORS
330
8F1
102
}
100
AcDbXrecord
340
36F
  0
XRECORD
  5
8F8
102
{ACAD_REACTORS
330
8F1
102
}
100
AcDbXrecord
340
36C
  0
XRECORD
  5
8FE
102
{ACAD_REACTORS
330
8F1
102
}
100
AcDbXrecord
 40
0.0
  0
XRECORD
  5
902
102
{ACAD_REACTORS
330
8F1
102
}
100
AcDbXrecord
340
0
  0
XRECORD
  5
908
102
{ACAD_REACTORS
330
8F1
102
}
100
AcDbXrecord
 10
0.0
 20
0.0
 30
0.0
  0
XRECORD
  5
904
102
{ACAD_REACTORS
330
8F1
102
}
100
AcDbXrecord
 10
0.0
 20
0.0
 30
0.0
  0
XRECORD
  5
907
102
{ACAD_REACTORS
330
8F1
102
}
100
AcDbXrecord
 10
0.0
 20
0.0
 30
0.0
  0
XRECORD
  5
905
102
{ACAD_REACTORS
330
8F1
102
}
100
AcDbXrecord
 10
0.0
 20
0.0
 30
0.0
  0
XRECORD
  5
906
102
{ACAD_REACTORS
330
8F1
102
}
100
AcDbXrecord
 10
0.0
 20
0.0
 30
0.0
  0
XRECORD
  5
903
102
{ACAD_REACTORS
330
8F1
102
}
100
AcDbXrecord
 10
0.0
 20
0.0
 30
0.0
  0
XRECORD
  5
900
102
{ACAD_REACTORS
330
8F1
102
}
100
AcDbXrecord
340
0
  0
XRECORD
  5
901
102
{ACAD_REACTORS
330
8F1
102
}
100
AcDbXrecord
 70
     0
  0
XRECORD
  5
8F5
102
{ACAD_REACTORS
330
8F1
102
}
100
AcDbXrecord
  1

  0
XRECORD
  5
8F2
102
{ACAD_REACTORS
330
8F1
102
}
100
AcDbXrecord
 90
        1
  0
XRECORD
  5
8F3
102
{ACAD_REACTORS
330
8F1
102
}
100
AcDbXrecord
 90
       70
  0
XRECORD
  5
90B
102
{ACAD_REACTORS
330
8F1
102
}
100
AcDbXrecord
340
0
  0
XRECORD
  5
911
102
{ACAD_REACTORS
330
8F1
102
}
100
AcDbXrecord
 10
0.0
 20
0.0
 30
0.0
  0
XRECORD
  5
90D
102
{ACAD_REACTORS
330
8F1
102
}
100
AcDbXrecord
 10
0.0
 20
0.0
 30
0.0
  0
XRECORD
  5
910
102
{ACAD_REACTORS
330
8F1
102
}
100
AcDbXrecord
 10
0.0
 20
0.0
 30
0.0
  0
XRECORD
  5
90E
102
{ACAD_REACTORS
330
8F1
102
}
100
AcDbXrecord
 10
0.0
 20
0.0
 30
0.0
  0
XRECORD
  5
90F
102
{ACAD_REACTORS
330
8F1
102
}
100
AcDbXrecord
 10
0.0
 20
0.0
 30
0.0
  0
XRECORD
  5
90C
102
{ACAD_REACTORS
330
8F1
102
}
100
AcDbXrecord
 10
0.0
 20
0.0
 30
0.0
  0
XRECORD
  5
909
102
{ACAD_REACTORS
330
8F1
102
}
100
AcDbXrecord
340
0
  0
XRECORD
  5
90A
102
{ACAD_REACTORS
330
8F1
102
}
100
AcDbXrecord
 70
     0
  0
XRECORD
  5
8FD
102
{ACAD_REACTORS
330
8F1
102
}
100
AcDbXrecord
  1
{DCFA0ACD-0BE8-11D6-AA0B-00D0B7E2A69D}
  0
XRECORD
  5
921
102
{ACAD_REACTORS
330
920
102
}
100
AcDbXrecord
102
EXTNAMES
  1
LAYOUT1
  2
Layout1
  1
MODEL
  2
Model
  0
ENDSEC
  0
EOF
