  0
SECTION
  2
HEADER
  9
$ACADVER
  1
AC1014
  9
$ACADMAINTVER
 70
     0
  9
$DWGCODEPAGE
  3
ANSI_1252
  9
$INSBASE
 10
0.0
 20
0.0
 30
0.0
  9
$EXTMIN
 10
0.0
 20
0.0
 30
0.0
  9
$EXTMAX
 10
1592.873988
 20
697.781516
 30
0.0
  9
$LIMMIN
 10
0.0
 20
0.0
  9
$LIMMAX
 10
840.0
 20
600.0
  9
$ORTHOMODE
 70
     0
  9
$REGENMODE
 70
     1
  9
$FILLMODE
 70
     1
  9
$QTEXTMODE
 70
     0
  9
$MIRRTEXT
 70
     1
  9
$DRAGMODE
 70
     2
  9
$LTSCALE
 40
5.0
  9
$OSMODE
 70
     0
  9
$ATTMODE
 70
     1
  9
$TEXTSIZE
 40
3.15
  9
$TRACEWID
 40
0.05
  9
$TEXTSTYLE
  7
STANDARD
  9
$CLAYER
  8
GLAS_MED_FOGNING
  9
$CELTYPE
  6
BYLAYER
  9
$CECOLOR
 62
   256
  9
$CELTSCALE
 40
1.0
  9
$DELOBJ
 70
     1
  9
$DISPSILH
 70
     0
  9
$DIMSCALE
 40
1.0
  9
$DIMASZ
 40
0.0
  9
$DIMEXO
 40
1.0
  9
$DIMDLI
 40
10.0
  9
$DIMRND
 40
0.0
  9
$DIMDLE
 40
0.0
  9
$DIMEXE
 40
2.0
  9
$DIMTP
 40
0.0
  9
$DIMTM
 40
0.0
  9
$DIMTXT
 40
3.5
  9
$DIMCEN
 40
2.5
  9
$DIMTSZ
 40
1.0
  9
$DIMTOL
 70
     0
  9
$DIMLIM
 70
     0
  9
$DIMTIH
 70
     0
  9
$DIMTOH
 70
     0
  9
$DIMSE1
 70
     0
  9
$DIMSE2
 70
     0
  9
$DIMTAD
 70
     1
  9
$DIMZIN
 70
     8
  9
$DIMBLK
  1

  9
$DIMASO
 70
     1
  9
$DIMSHO
 70
     1
  9
$DIMPOST
  1

  9
$DIMAPOST
  1

  9
$DIMALT
 70
     0
  9
$DIMALTD
 70
     2
  9
$DIMALTF
 40
25.4
  9
$DIMLFAC
 40
1.0
  9
$DIMTOFL
 70
     1
  9
$DIMTVP
 40
0.0
  9
$DIMTIX
 70
     0
  9
$DIMSOXD
 70
     0
  9
$DIMSAH
 70
     0
  9
$DIMBLK1
  1

  9
$DIMBLK2
  1

  9
$DIMSTYLE
  2
STANDARD
  9
$DIMCLRD
 70
     0
  9
$DIMCLRE
 70
     0
  9
$DIMCLRT
 70
     6
  9
$DIMTFAC
 40
1.0
  9
$DIMGAP
 40
1.5
  9
$DIMJUST
 70
     0
  9
$DIMSD1
 70
     0
  9
$DIMSD2
 70
     0
  9
$DIMTOLJ
 70
     1
  9
$DIMTZIN
 70
     0
  9
$DIMALTZ
 70
     0
  9
$DIMALTTZ
 70
     0
  9
$DIMFIT
 70
     3
  9
$DIMUPT
 70
     0
  9
$DIMUNIT
 70
     2
  9
$DIMDEC
 70
     4
  9
$DIMTDEC
 70
     4
  9
$DIMALTU
 70
     2
  9
$DIMALTTD
 70
     2
  9
$DIMTXSTY
  7
STANDARD
  9
$DIMAUNIT
 70
     0
  9
$LUNITS
 70
     2
  9
$LUPREC
 70
     2
  9
$SKETCHINC
 40
0.1
  9
$FILLETRAD
 40
0.5
  9
$AUNITS
 70
     0
  9
$AUPREC
 70
     4
  9
$MENU
  1
acad
  9
$ELEVATION
 40
0.0
  9
$PELEVATION
 40
0.0
  9
$THICKNESS
 40
0.0
  9
$LIMCHECK
 70
     0
  9
$BLIPMODE
 70
     1
  9
$CHAMFERA
 40
10.0
  9
$CHAMFERB
 40
10.0
  9
$CHAMFERC
 40
0.0
  9
$CHAMFERD
 40
0.0
  9
$SKPOLY
 70
     0
  9
$TDCREATE
 40
2449383.913620717
  9
$TDUPDATE
 40
2452294.517775694
  9
$TDINDWG
 40
0.3555614583
  9
$TDUSRTIMER
 40
0.3555614583
  9
$USRTIMER
 70
     1
  9
$ANGBASE
 50
0.0
  9
$ANGDIR
 70
     0
  9
$PDMODE
 70
    35
  9
$PDSIZE
 40
0.0
  9
$PLINEWID
 40
0.0
  9
$COORDS
 70
     2
  9
$SPLFRAME
 70
     0
  9
$SPLINETYPE
 70
     6
  9
$SPLINESEGS
 70
     8
  9
$ATTDIA
 70
     0
  9
$ATTREQ
 70
     1
  9
$HANDLING
 70
     1
  9
$HANDSEED
  5
E18
  9
$SURFTAB1
 70
     6
  9
$SURFTAB2
 70
     6
  9
$SURFTYPE
 70
     6
  9
$SURFU
 70
     6
  9
$SURFV
 70
     6
  9
$UCSNAME
  2

  9
$UCSORG
 10
0.0
 20
0.0
 30
0.0
  9
$UCSXDIR
 10
1.0
 20
0.0
 30
0.0
  9
$UCSYDIR
 10
0.0
 20
1.0
 30
0.0
  9
$PUCSNAME
  2

  9
$PUCSORG
 10
0.0
 20
0.0
 30
0.0
  9
$PUCSXDIR
 10
1.0
 20
0.0
 30
0.0
  9
$PUCSYDIR
 10
0.0
 20
1.0
 30
0.0
  9
$USERI1
 70
     0
  9
$USERI2
 70
     0
  9
$USERI3
 70
     0
  9
$USERI4
 70
     0
  9
$USERI5
 70
     0
  9
$USERR1
 40
0.0
  9
$USERR2
 40
0.0
  9
$USERR3
 40
0.0
  9
$USERR4
 40
0.0
  9
$USERR5
 40
0.0
  9
$WORLDVIEW
 70
     1
  9
$SHADEDGE
 70
     3
  9
$SHADEDIF
 70
    70
  9
$TILEMODE
 70
     1
  9
$MAXACTVP
 70
    16
  9
$PINSBASE
 10
0.0
 20
0.0
 30
0.0
  9
$PLIMCHECK
 70
     0
  9
$PEXTMIN
 10
1.000000E+20
 20
1.000000E+20
 30
1.000000E+20
  9
$PEXTMAX
 10
-1.000000E+20
 20
-1.000000E+20
 30
-1.000000E+20
  9
$PLIMMIN
 10
0.0
 20
0.0
  9
$PLIMMAX
 10
420.0
 20
297.0
  9
$UNITMODE
 70
     0
  9
$VISRETAIN
 70
     0
  9
$PLINEGEN
 70
     0
  9
$PSLTSCALE
 70
     1
  9
$TREEDEPTH
 70
  3020
  9
$PICKSTYLE
 70
     1
  9
$CMLSTYLE
  2
STANDARD
  9
$CMLJUST
 70
     0
  9
$CMLSCALE
 40
1.0
  9
$PROXYGRAPHICS
 70
     1
  9
$MEASUREMENT
 70
     0
  0
ENDSEC
  0
SECTION
  2
CLASSES
  0
CLASS
  1
LWPOLYLINE
  2
AcDbPolyline
  3
"AutoCAD"
 90
        0
280
     0
281
     1
  0
ENDSEC
  0
SECTION
  2
TABLES
  0
TABLE
  2
VPORT
  5
12
100
AcDbSymbolTable
 70
     2
  0
VPORT
  5
E17
100
AcDbSymbolTableRecord
100
AcDbViewportTableRecord
  2
*ACTIVE
 70
     0
 10
0.0
 20
0.0
 11
1.0
 21
1.0
 12
847.5
 22
441.382205
 13
0.0
 23
0.0
 14
5.0
 24
5.0
 15
10.0
 25
10.0
 16
0.0
 26
0.0
 36
1.0
 17
0.0
 27
0.0
 37
0.0
 40
1310.753599
 41
1.47625
 42
50.0
 43
0.0
 44
0.0
 50
0.0
 51
0.0
 71
     0
 72
   100
 73
     1
 74
     1
 75
     1
 76
     0
 77
     0
 78
     1
  0
ENDTAB
  0
TABLE
  2
LTYPE
  5
D
100
AcDbSymbolTable
 70
     2
  0
LTYPE
  5
E
100
AcDbSymbolTableRecord
100
AcDbLinetypeTableRecord
  2
BYBLOCK
 70
     0
  3

 72
    65
 73
     0
 40
0.0
  0
LTYPE
  5
F
100
AcDbSymbolTableRecord
100
AcDbLinetypeTableRecord
  2
BYLAYER
 70
     0
  3

 72
    65
 73
     0
 40
0.0
  0
LTYPE
  5
5
100
AcDbSymbolTableRecord
100
AcDbLinetypeTableRecord
  2
CONTINUOUS
 70
     0
  3
Solid line
 72
    65
 73
     0
 40
0.0
  0
LTYPE
  5
29
100
AcDbSymbolTableRecord
100
AcDbLinetypeTableRecord
  2
DASHDOT
 70
     0
  3
__ . __ . __ . __ . __ . __ . __ . __ . __ . __
 72
    65
 73
     4
 40
1.0
 49
0.5
 74
     0
 49
-0.25
 74
     0
 49
0.0
 74
     0
 49
-0.25
 74
     0
  0
ENDTAB
  0
TABLE
  2
LAYER
  5
A
100
AcDbSymbolTable
 70
    14
  0
LAYER
  5
4
100
AcDbSymbolTableRecord
100
AcDbLayerTableRecord
  2
0
 70
     0
 62
     7
  6
CONTINUOUS
  0
LAYER
  5
9F
100
AcDbSymbolTableRecord
100
AcDbLayerTableRecord
  2
STALPROFIL
 70
     0
 62
     1
  6
CONTINUOUS
  0
LAYER
  5
9D
100
AcDbSymbolTableRecord
100
AcDbLayerTableRecord
  2
SPKONTUR
 70
     0
 62
     7
  6
CONTINUOUS
  0
LAYER
  5
1B
100
AcDbSymbolTableRecord
100
AcDbLayerTableRecord
  2
GLAS_MED_FOGNING
 70
     0
 62
     2
  6
CONTINUOUS
  0
LAYER
  5
1F
100
AcDbSymbolTableRecord
100
AcDbLayerTableRecord
  2
TEXT
 70
     0
 62
     6
  6
CONTINUOUS
  0
LAYER
  5
27
100
AcDbSymbolTableRecord
100
AcDbLayerTableRecord
  2
RAM
 70
     0
 62
     5
  6
CONTINUOUS
  0
LAYER
  5
99
100
AcDbSymbolTableRecord
100
AcDbLayerTableRecord
  2
CENTRUM
 70
     0
 62
     3
  6
DASHDOT
  0
LAYER
  5
263
100
AcDbSymbolTableRecord
100
AcDbLayerTableRecord
  2
ISOLERING
 70
     0
 62
     3
  6
CONTINUOUS
  0
LAYER
  5
117
100
AcDbSymbolTableRecord
100
AcDbLayerTableRecord
  2
DEFPOINTS
 70
     0
 62
     7
  6
CONTINUOUS
  0
LAYER
  5
1E5
100
AcDbSymbolTableRecord
100
AcDbLayerTableRecord
  2
DIM
 70
     0
 62
     4
  6
CONTINUOUS
  0
LAYER
  5
3C7
100
AcDbSymbolTableRecord
100
AcDbLayerTableRecord
  2
KONTUR
 70
     0
 62
     3
  6
CONTINUOUS
  0
LAYER
  5
266
100
AcDbSymbolTableRecord
100
AcDbLayerTableRecord
  2
FOGNINGR
 70
     0
 62
     1
  6
CONTINUOUS
  0
LAYER
  5
13F
100
AcDbSymbolTableRecord
100
AcDbLayerTableRecord
  2
DIMENSION
 70
     0
 62
     2
  6
CONTINUOUS
  0
LAYER
  5
11E
100
AcDbSymbolTableRecord
100
AcDbLayerTableRecord
  2
16
 70
     0
 62
     1
  6
CONTINUOUS
  0
ENDTAB
  0
TABLE
  2
STYLE
  5
B
100
AcDbSymbolTable
 70
     2
  0
STYLE
  5
C
100
AcDbSymbolTableRecord
100
AcDbTextStyleTableRecord
  2
STANDARD
 70
     0
 40
0.0
 41
1.0
 50
0.0
 71
     0
 42
5.0
  3
txt
  4

  0
STYLE
  5
20
100
AcDbSymbolTableRecord
100
AcDbTextStyleTableRecord
  2
ROMANS
 70
     0
 40
0.0
 41
0.8
 50
0.0
 71
     0
 42
5.0
  3
romans
  4

  0
ENDTAB
  0
TABLE
  2
VIEW
  5
10
100
AcDbSymbolTable
 70
     0
  0
ENDTAB
  0
TABLE
  2
UCS
  5
11
100
AcDbSymbolTable
 70
     0
  0
ENDTAB
  0
TABLE
  2
APPID
  5
14
100
AcDbSymbolTable
 70
     1
  0
APPID
  5
15
100
AcDbSymbolTableRecord
100
AcDbRegAppTableRecord
  2
ACAD
 70
     0
  0
ENDTAB
  0
TABLE
  2
DIMSTYLE
  5
16
100
AcDbSymbolTable
 70
     1
  0
DIMSTYLE
105
1D
102
{ACAD_REACTORS
330
1CE
330
1AF
330
1C0
330
10E
330
717
330
72A
102
}
100
AcDbSymbolTableRecord
100
AcDbDimStyleTableRecord
  2
STANDARD
 70
     0
  3

  4

  5

  6

  7

 40
1.0
 41
0.18
 42
0.0625
 43
0.38
 44
0.18
 45
0.0
 46
0.0
 47
0.0
 48
0.0
140
0.18
141
0.09
142
0.0
143
25.4
144
1.0
145
0.0
146
1.0
147
0.09
 71
     0
 72
     0
 73
     1
 74
     1
 75
     0
 76
     0
 77
     0
 78
     0
170
     0
171
     2
172
     0
173
     0
174
     0
175
     0
176
     0
177
     0
178
     0
270
     2
271
     4
272
     4
273
     2
274
     2
340
C
275
     0
280
     0
281
     0
282
     0
283
     1
284
     0
285
     0
286
     0
287
     3
288
     0
  0
ENDTAB
  0
TABLE
  2
BLOCK_RECORD
  5
1
100
AcDbSymbolTable
 70
    86
  0
BLOCK_RECORD
  5
2
100
AcDbSymbolTableRecord
100
AcDbBlockTableRecord
  2
*MODEL_SPACE
  0
BLOCK_RECORD
  5
7
100
AcDbSymbolTableRecord
100
AcDbBlockTableRecord
  2
*PAPER_SPACE
  0
BLOCK_RECORD
  5
478
100
AcDbSymbolTableRecord
100
AcDbBlockTableRecord
  2
SP35011
  0
BLOCK_RECORD
  5
C1
100
AcDbSymbolTableRecord
100
AcDbBlockTableRecord
  2
SP35012
  0
BLOCK_RECORD
  5
EA
100
AcDbSymbolTableRecord
100
AcDbBlockTableRecord
  2
SP35013
  0
BLOCK_RECORD
  5
481
100
AcDbSymbolTableRecord
100
AcDbBlockTableRecord
  2
SP35021
  0
BLOCK_RECORD
  5
BB
100
AcDbSymbolTableRecord
100
AcDbBlockTableRecord
  2
SP35022
  0
BLOCK_RECORD
  5
FF
100
AcDbSymbolTableRecord
100
AcDbBlockTableRecord
  2
SP35023
  0
BLOCK_RECORD
  5
C5
100
AcDbSymbolTableRecord
100
AcDbBlockTableRecord
  2
SP40035
  0
BLOCK_RECORD
  5
C8
100
AcDbSymbolTableRecord
100
AcDbBlockTableRecord
  2
*X7
  0
BLOCK_RECORD
  5
25
100
AcDbSymbolTableRecord
100
AcDbBlockTableRecord
  2
SIDA
  0
BLOCK_RECORD
  5
105
100
AcDbSymbolTableRecord
100
AcDbBlockTableRecord
  2
SP02502020
  0
BLOCK_RECORD
  5
F2
100
AcDbSymbolTableRecord
100
AcDbBlockTableRecord
  2
SP01502020
  0
BLOCK_RECORD
  5
A1
100
AcDbSymbolTableRecord
100
AcDbBlockTableRecord
  2
SP40020
  0
BLOCK_RECORD
  5
65B
100
AcDbSymbolTableRecord
100
AcDbBlockTableRecord
  2
SP40520
  0
BLOCK_RECORD
  5
5D0
100
AcDbSymbolTableRecord
100
AcDbBlockTableRecord
  2
SP41520
  0
BLOCK_RECORD
  5
66C
100
AcDbSymbolTableRecord
100
AcDbBlockTableRecord
  2
SP42520
  0
BLOCK_RECORD
  5
76E
100
AcDbSymbolTableRecord
100
AcDbBlockTableRecord
  2
SP43020
  0
BLOCK_RECORD
  5
4E3
100
AcDbSymbolTableRecord
100
AcDbBlockTableRecord
  2
SP43520
  0
BLOCK_RECORD
  5
9B
100
AcDbSymbolTableRecord
100
AcDbBlockTableRecord
  2
SP42020
  0
BLOCK_RECORD
  5
251
100
AcDbSymbolTableRecord
100
AcDbBlockTableRecord
  2
SP41020
  0
BLOCK_RECORD
  5
640
100
AcDbSymbolTableRecord
100
AcDbBlockTableRecord
  2
*X19
  0
BLOCK_RECORD
  5
4D9
100
AcDbSymbolTableRecord
100
AcDbBlockTableRecord
  2
*X20
  0
BLOCK_RECORD
  5
4D4
100
AcDbSymbolTableRecord
100
AcDbBlockTableRecord
  2
*X21
  0
BLOCK_RECORD
  5
4A5
100
AcDbSymbolTableRecord
100
AcDbBlockTableRecord
  2
*X22
  0
BLOCK_RECORD
  5
4C0
100
AcDbSymbolTableRecord
100
AcDbBlockTableRecord
  2
*X23
  0
BLOCK_RECORD
  5
56A
100
AcDbSymbolTableRecord
100
AcDbBlockTableRecord
  2
*X24
  0
BLOCK_RECORD
  5
498
100
AcDbSymbolTableRecord
100
AcDbBlockTableRecord
  2
GLAS5-4X3DK
  0
BLOCK_RECORD
  5
55D
100
AcDbSymbolTableRecord
100
AcDbBlockTableRecord
  2
GLAS5-4X3
  0
BLOCK_RECORD
  5
55B
100
AcDbSymbolTableRecord
100
AcDbBlockTableRecord
  2
50_SP43520
  0
BLOCK_RECORD
  5
496
100
AcDbSymbolTableRecord
100
AcDbBlockTableRecord
  2
50_SP43520DK
  0
BLOCK_RECORD
  5
8B
100
AcDbSymbolTableRecord
100
AcDbBlockTableRecord
  2
*X29
  0
BLOCK_RECORD
  5
7A
100
AcDbSymbolTableRecord
100
AcDbBlockTableRecord
  2
*X30
  0
BLOCK_RECORD
  5
48
100
AcDbSymbolTableRecord
100
AcDbBlockTableRecord
  2
*X31
  0
BLOCK_RECORD
  5
6A
100
AcDbSymbolTableRecord
100
AcDbBlockTableRecord
  2
*X32
  0
BLOCK_RECORD
  5
776
100
AcDbSymbolTableRecord
100
AcDbBlockTableRecord
  2
GLAS6-6X5DK
  0
BLOCK_RECORD
  5
896
100
AcDbSymbolTableRecord
100
AcDbBlockTableRecord
  2
*X34
  0
BLOCK_RECORD
  5
894
100
AcDbSymbolTableRecord
100
AcDbBlockTableRecord
  2
GLAS6-6X5
  0
BLOCK_RECORD
  5
88F
100
AcDbSymbolTableRecord
100
AcDbBlockTableRecord
  2
50_SP43020
  0
BLOCK_RECORD
  5
76C
100
AcDbSymbolTableRecord
100
AcDbBlockTableRecord
  2
50_SP43020DK
  0
BLOCK_RECORD
  5
741
100
AcDbSymbolTableRecord
100
AcDbBlockTableRecord
  2
GLAS11-6X5DK
  0
BLOCK_RECORD
  5
675
100
AcDbSymbolTableRecord
100
AcDbBlockTableRecord
  2
*X39
  0
BLOCK_RECORD
  5
673
100
AcDbSymbolTableRecord
100
AcDbBlockTableRecord
  2
GLAS11-6X5
  0
BLOCK_RECORD
  5
73D
100
AcDbSymbolTableRecord
100
AcDbBlockTableRecord
  2
50_SP42520DK
  0
BLOCK_RECORD
  5
8E2
100
AcDbSymbolTableRecord
100
AcDbBlockTableRecord
  2
50_SP42520
  0
BLOCK_RECORD
  5
3B
100
AcDbSymbolTableRecord
100
AcDbBlockTableRecord
  2
GLAS16-6X5DK
  0
BLOCK_RECORD
  5
501
100
AcDbSymbolTableRecord
100
AcDbBlockTableRecord
  2
*X44
  0
BLOCK_RECORD
  5
4F3
100
AcDbSymbolTableRecord
100
AcDbBlockTableRecord
  2
GLAS16-6X5
  0
BLOCK_RECORD
  5
4F1
100
AcDbSymbolTableRecord
100
AcDbBlockTableRecord
  2
50_SP42020
  0
BLOCK_RECORD
  5
39
100
AcDbSymbolTableRecord
100
AcDbBlockTableRecord
  2
50_SP42020DK
  0
BLOCK_RECORD
  5
5A9
100
AcDbSymbolTableRecord
100
AcDbBlockTableRecord
  2
GLAS21-6X5DK
  0
BLOCK_RECORD
  5
7A8
100
AcDbSymbolTableRecord
100
AcDbBlockTableRecord
  2
*X49
  0
BLOCK_RECORD
  5
7A4
100
AcDbSymbolTableRecord
100
AcDbBlockTableRecord
  2
GLAS21-6X5
  0
BLOCK_RECORD
  5
5A7
100
AcDbSymbolTableRecord
100
AcDbBlockTableRecord
  2
50_SP41520DK
  0
BLOCK_RECORD
  5
7A2
100
AcDbSymbolTableRecord
100
AcDbBlockTableRecord
  2
50_SP41520
  0
BLOCK_RECORD
  5
255
100
AcDbSymbolTableRecord
100
AcDbBlockTableRecord
  2
SP41000
  0
BLOCK_RECORD
  5
5E1
100
AcDbSymbolTableRecord
100
AcDbBlockTableRecord
  2
GLAS26-6X5DK
  0
BLOCK_RECORD
  5
81A
100
AcDbSymbolTableRecord
100
AcDbBlockTableRecord
  2
*X55
  0
BLOCK_RECORD
  5
816
100
AcDbSymbolTableRecord
100
AcDbBlockTableRecord
  2
GLAS26-6X5
  0
BLOCK_RECORD
  5
5DD
100
AcDbSymbolTableRecord
100
AcDbBlockTableRecord
  2
50_SP41020DK
  0
BLOCK_RECORD
  5
814
100
AcDbSymbolTableRecord
100
AcDbBlockTableRecord
  2
50_SP41020
  0
BLOCK_RECORD
  5
23C
100
AcDbSymbolTableRecord
100
AcDbBlockTableRecord
  2
*X59
  0
BLOCK_RECORD
  5
247
100
AcDbSymbolTableRecord
100
AcDbBlockTableRecord
  2
*X60
  0
BLOCK_RECORD
  5
214
100
AcDbSymbolTableRecord
100
AcDbBlockTableRecord
  2
*X61
  0
BLOCK_RECORD
  5
22E
100
AcDbSymbolTableRecord
100
AcDbBlockTableRecord
  2
*X62
  0
BLOCK_RECORD
  5
618
100
AcDbSymbolTableRecord
100
AcDbBlockTableRecord
  2
50_SP40520FYLLN
  0
BLOCK_RECORD
  5
207
100
AcDbSymbolTableRecord
100
AcDbBlockTableRecord
  2
GLAS30-4X3DK
  0
BLOCK_RECORD
  5
407
100
AcDbSymbolTableRecord
100
AcDbBlockTableRecord
  2
*X65
  0
BLOCK_RECORD
  5
3F9
100
AcDbSymbolTableRecord
100
AcDbBlockTableRecord
  2
GLAS30-4X3
  0
BLOCK_RECORD
  5
205
100
AcDbSymbolTableRecord
100
AcDbBlockTableRecord
  2
50_30SP41020DK
  0
BLOCK_RECORD
  5
3F7
100
AcDbSymbolTableRecord
100
AcDbBlockTableRecord
  2
50_30SP41020
  0
BLOCK_RECORD
  5
61E
100
AcDbSymbolTableRecord
100
AcDbBlockTableRecord
  2
*X69
  0
BLOCK_RECORD
  5
61A
100
AcDbSymbolTableRecord
100
AcDbBlockTableRecord
  2
FYLLNV
  0
BLOCK_RECORD
  5
63C
100
AcDbSymbolTableRecord
100
AcDbBlockTableRecord
  2
FYLLNH
  0
BLOCK_RECORD
  5
26C
100
AcDbSymbolTableRecord
100
AcDbBlockTableRecord
  2
*X72
  0
BLOCK_RECORD
  5
264
100
AcDbSymbolTableRecord
100
AcDbBlockTableRecord
  2
KFRIBAKKANT
  0
BLOCK_RECORD
  5
1E6
100
AcDbSymbolTableRecord
100
AcDbBlockTableRecord
  2
*X74
  0
BLOCK_RECORD
  5
6CA
100
AcDbSymbolTableRecord
100
AcDbBlockTableRecord
  2
50_SP40052
  0
BLOCK_RECORD
  5
6D6
100
AcDbSymbolTableRecord
100
AcDbBlockTableRecord
  2
*X76
  0
BLOCK_RECORD
  5
6D4
100
AcDbSymbolTableRecord
100
AcDbBlockTableRecord
  2
50_SP40052-INTUMEX
  0
BLOCK_RECORD
  5
DB
100
AcDbSymbolTableRecord
100
AcDbBlockTableRecord
  2
SP35012-85
  0
BLOCK_RECORD
  5
F8
100
AcDbSymbolTableRecord
100
AcDbBlockTableRecord
  2
SP35013-85
  0
BLOCK_RECORD
  5
10F
100
AcDbSymbolTableRecord
100
AcDbBlockTableRecord
  2
*D80
  0
BLOCK_RECORD
  5
1B0
100
AcDbSymbolTableRecord
100
AcDbBlockTableRecord
  2
*D81
  0
BLOCK_RECORD
  5
1C1
100
AcDbSymbolTableRecord
100
AcDbBlockTableRecord
  2
*D82
  0
BLOCK_RECORD
  5
1CF
100
AcDbSymbolTableRecord
100
AcDbBlockTableRecord
  2
*D83
  0
BLOCK_RECORD
  5
718
100
AcDbSymbolTableRecord
100
AcDbBlockTableRecord
  2
*D84
  0
BLOCK_RECORD
  5
72B
100
AcDbSymbolTableRecord
100
AcDbBlockTableRecord
  2
*D85
  0
ENDTAB
  0
ENDSEC
  0
SECTION
  2
BLOCKS
  0
BLOCK
  5
3
100
AcDbEntity
  8
0
100
AcDbBlockBegin
  2
*MODEL_SPACE
 70
     0
 10
0.0
 20
0.0
 30
0.0
  3
*MODEL_SPACE
  1

  0
ENDBLK
  5
6
100
AcDbEntity
  8
0
100
AcDbBlockEnd
  0
BLOCK
  5
8
100
AcDbEntity
 67
     1
  8
0
100
AcDbBlockBegin
  2
*PAPER_SPACE
 70
     0
 10
0.0
 20
0.0
 30
0.0
  3
*PAPER_SPACE
  1

  0
ENDBLK
  5
9
100
AcDbEntity
 67
     1
  8
0
100
AcDbBlockEnd
  0
BLOCK
  5
47C
100
AcDbEntity
  8
0
100
AcDbBlockBegin
  2
SP35011
 70
     0
 10
0.0
 20
0.0
 30
0.0
  3
SP35011
  1

  0
LWPOLYLINE
  5
479
100
AcDbEntity
  8
STALPROFIL
100
AcDbPolyline
 90
       27
 70
     1
 43
1.5
 10
-6.75
 20
23.5
 42
-0.414214
 10
-7.5
 20
22.75
 10
-12.0
 20
22.75
 42
0.414214
 10
-14.25
 20
20.5
 10
-14.25
 20
18.5
 42
0.414214
 10
-12.0
 20
16.25
 42
0.198912
 10
-10.40901
 20
16.90901
 10
-9.727029
 20
17.59099
 42
-0.198912
 10
-8.136039
 20
18.25
 10
-8.0
 20
18.25
 42
-0.414214
 10
-5.75
 20
16.0
 10
-5.75
 20
13.5
 42
0.414214
 10
-3.5
 20
11.25
 10
-3.0
 20
11.25
 42
-0.414214
 10
-0.75
 20
9.0
 10
-0.75
 20
-22.5
 42
-0.414214
 10
-2.5
 20
-24.25
 10
-47.5
 20
-24.25
 42
-0.414214
 10
-49.25
 20
-22.5
 10
-49.25
 20
43.501
 42
-0.414214
 10
-48.501
 20
44.25
 10
-48.5
 20
44.25
 42
-0.414214
 10
-47.75
 20
43.5
 10
-47.75
 20
26.5
 42
0.414214
 10
-45.5
 20
24.25
 10
-7.499
 20
24.25
 42
-0.414214
 10
-6.75
 20
23.501
  0
LWPOLYLINE
  5
47A
100
AcDbEntity
  8
SPKONTUR
100
AcDbPolyline
 90
       28
 70
     1
 43
0.0
 10
-6.0
 20
23.5
 42
-0.414214
 10
-7.5
 20
22.0
 10
-12.0
 20
22.0
 42
0.414214
 10
-13.5
 20
20.5
 10
-13.5
 20
18.5
 42
0.414214
 10
-12.0
 20
17.0
 42
0.198912
 10
-10.93934
 20
17.43934
 10
-10.257359
 20
18.12132
 42
-0.198912
 10
-8.136039
 20
19.0
 10
-8.0
 20
19.0
 42
-0.414214
 10
-5.0
 20
16.0
 10
-5.0
 20
13.5
 42
0.414214
 10
-3.5
 20
12.0
 10
-3.0
 20
12.0
 42
-0.414214
 10
0.0
 20
9.0
 10
0.0
 20
-22.5
 42
-0.414214
 10
-2.5
 20
-25.0
 10
-47.5
 20
-25.0
 42
-0.414214
 10
-50.0
 20
-22.5
 10
-50.0
 20
43.501
 42
-0.414214
 10
-48.501
 20
45.0
 10
-48.5
 20
45.0
 42
-0.414214
 10
-47.0
 20
43.5
 10
-47.0
 20
26.5
 42
0.414214
 10
-45.5
 20
25.0
 10
-13.5
 20
25.0
 10
-7.499
 20
25.0
 42
-0.414214
 10
-6.0
 20
23.501
  0
INSERT
  5
47B
100
AcDbEntity
  8
GLAS_MED_FOGNING
100
AcDbBlockReference
  2
SP40035
 10
0.0
 20
0.0
 30
0.0
  0
ENDBLK
  5
47D
100
AcDbEntity
  8
0
100
AcDbBlockEnd
  0
BLOCK
  5
D7
100
AcDbEntity
  8
0
100
AcDbBlockBegin
  2
SP35012
 70
     0
 10
0.0
 20
0.0
 30
0.0
  3
SP35012
  1

  0
LWPOLYLINE
  5
C2
100
AcDbEntity
  8
STALPROFIL
100
AcDbPolyline
 90
       31
 70
     1
 43
1.5
 10
-8.0
 20
18.25
 42
-0.414214
 10
-5.75
 20
16.0
 10
-5.75
 20
13.5
 42
0.414214
 10
-3.5
 20
11.25
 10
-3.0
 20
11.25
 42
-0.414214
 10
-0.75
 20
9.0
 10
-0.75
 20
-22.5
 42
-0.414214
 10
-2.5
 20
-24.25
 10
-45.5
 20
-24.25
 42
0.414214
 10
-47.75
 20
-26.5
 10
-47.75
 20
-43.5
 42
-0.414214
 10
-48.5
 20
-44.25
 10
-48.501
 20
-44.25
 42
-0.414214
 10
-49.25
 20
-43.501
 10
-49.25
 20
43.501
 42
-0.414214
 10
-48.501
 20
44.25
 10
-48.5
 20
44.25
 42
-0.414214
 10
-47.75
 20
43.5
 10
-47.75
 20
26.5
 42
0.414214
 10
-45.5
 20
24.25
 10
-7.499
 20
24.25
 42
-0.414214
 10
-6.75
 20
23.501
 10
-6.75
 20
23.5
 42
-0.414214
 10
-7.5
 20
22.75
 10
-12.0
 20
22.75
 42
0.414214
 10
-14.25
 20
20.5
 10
-14.25
 20
18.5
 42
0.414214
 10
-12.0
 20
16.25
 42
0.198912
 10
-10.40901
 20
16.90901
 10
-9.727029
 20
17.59099
 42
-0.198912
 10
-8.136039
 20
18.25
  0
LWPOLYLINE
  5
C3
100
AcDbEntity
  8
SPKONTUR
100
AcDbPolyline
 90
       37
 70
     0
 43
0.0
 10
-7.99
 20
19.0
 10
-8.0
 20
19.0
 42
-0.414214
 10
-5.0
 20
16.0
 10
-5.0
 20
13.5
 42
0.414214
 10
-3.5
 20
12.0
 10
-3.0
 20
12.0
 42
-0.414214
 10
0.0
 20
9.0
 10
0.0
 20
-22.5
 42
-0.414214
 10
-2.5
 20
-25.0
 10
-25.0
 20
-25.0
 10
-45.5
 20
-25.0
 42
0.414214
 10
-47.0
 20
-26.5
 10
-47.0
 20
-43.5
 42
-0.414214
 10
-48.5
 20
-45.0
 10
-48.501
 20
-45.0
 42
-0.414214
 10
-50.0
 20
-43.501
 10
-50.0
 20
0.0
 10
-50.0
 20
43.501
 42
-0.414214
 10
-48.501
 20
45.0
 10
-48.5
 20
45.0
 42
-0.414214
 10
-47.0
 20
43.5
 10
-47.0
 20
26.5
 42
0.414214
 10
-45.5
 20
25.0
 10
-25.0
 20
25.0
 10
-13.5
 20
25.0
 10
-7.499
 20
25.0
 42
-0.414214
 10
-6.0
 20
23.501
 10
-6.0
 20
23.5
 42
-0.414214
 10
-7.5
 20
22.0
 10
-12.0
 20
22.0
 42
0.414214
 10
-13.5
 20
20.5
 10
-13.5
 20
18.5
 42
0.414214
 10
-12.0
 20
17.0
 42
0.198912
 10
-10.93934
 20
17.43934
 10
-10.257359
 20
18.12132
 42
-0.198912
 10
-8.136039
 20
19.0
 10
-8.0
 20
19.0
  0
INSERT
  5
C4
100
AcDbEntity
  8
GLAS_MED_FOGNING
100
AcDbBlockReference
  2
SP40035
 10
0.0
 20
0.0
 30
0.0
  0
ENDBLK
  5
D8
100
AcDbEntity
  8
0
100
AcDbBlockEnd
  0
BLOCK
  5
EE
100
AcDbEntity
  8
0
100
AcDbBlockBegin
  2
SP35013
 70
     0
 10
0.0
 20
0.0
 30
0.0
  3
SP35013
  1

  0
LWPOLYLINE
  5
EB
100
AcDbEntity
  8
STALPROFIL
100
AcDbPolyline
 90
       28
 70
     1
 43
1.5
 10
-7.499
 20
24.25
 42
-0.414214
 10
-6.75
 20
23.5
 42
-0.414214
 10
-7.5
 20
22.75
 10
-12.0
 20
22.75
 42
0.414214
 10
-14.25
 20
20.5
 10
-14.25
 20
18.5
 42
0.414214
 10
-12.0
 20
16.25
 42
0.198912
 10
-10.40901
 20
16.90901
 10
-9.727029
 20
17.59099
 42
-0.198912
 10
-8.136039
 20
18.25
 10
-8.0
 20
18.25
 42
-0.414214
 10
-5.75
 20
16.0
 10
-5.75
 20
13.5
 42
0.414214
 10
-3.5
 20
11.25
 10
-3.0
 20
11.25
 42
-0.414214
 10
-0.75
 20
9.0
 10
-0.75
 20
-43.501
 42
-0.414214
 10
-1.5
 20
-44.25
 42
-0.414214
 10
-2.25
 20
-43.5
 10
-2.25
 20
-26.5
 42
0.414214
 10
-4.5
 20
-24.25
 10
-47.5
 20
-24.25
 42
-0.414214
 10
-49.25
 20
-22.5
 10
-49.25
 20
43.501
 42
-0.414214
 10
-48.5
 20
44.25
 42
-0.414214
 10
-47.75
 20
43.5
 10
-47.75
 20
26.5
 42
0.414214
 10
-45.5
 20
24.25
  0
LWPOLYLINE
  5
EC
100
AcDbEntity
  8
SPKONTUR
100
AcDbPolyline
 90
       34
 70
     1
 43
0.0
 10
-7.499
 20
25.0
 42
-0.414214
 10
-6.0
 20
23.501
 10
-6.0
 20
23.5
 42
-0.414214
 10
-7.5
 20
22.0
 10
-12.0
 20
22.0
 42
0.414214
 10
-13.5
 20
20.5
 10
-13.5
 20
18.5
 42
0.414214
 10
-12.0
 20
17.0
 42
0.198912
 10
-10.93934
 20
17.43934
 10
-10.257359
 20
18.12132
 42
-0.198912
 10
-8.136039
 20
19.0
 10
-8.0
 20
19.0
 42
-0.414214
 10
-5.0
 20
16.0
 10
-5.0
 20
13.5
 42
0.414214
 10
-3.5
 20
12.0
 10
-3.0
 20
12.0
 42
-0.414214
 10
0.0
 20
9.0
 10
0.0
 20
0.0
 10
0.0
 20
-43.501
 42
-0.414214
 10
-1.499
 20
-45.0
 10
-1.5
 20
-45.0
 42
-0.414214
 10
-3.0
 20
-43.5
 10
-3.0
 20
-26.5
 42
0.414214
 10
-4.5
 20
-25.0
 10
-47.5
 20
-25.0
 42
-0.414214
 10
-50.0
 20
-22.5
 10
-50.0
 20
43.501
 42
-0.414214
 10
-48.501
 20
45.0
 10
-48.5
 20
45.0
 42
-0.414214
 10
-47.0
 20
43.5
 10
-47.0
 20
26.5
 42
0.414214
 10
-45.5
 20
25.0
 10
-25.0
 20
25.0
 10
-13.5
 20
25.0
  0
INSERT
  5
ED
100
AcDbEntity
  8
GLAS_MED_FOGNING
100
AcDbBlockReference
  2
SP40035
 10
0.0
 20
0.0
 30
0.0
  0
ENDBLK
  5
EF
100
AcDbEntity
  8
0
100
AcDbBlockEnd
  0
BLOCK
  5
484
100
AcDbEntity
  8
0
100
AcDbBlockBegin
  2
SP35021
 70
     0
 10
0.0
 20
0.0
 30
0.0
  3
SP35021
  1

  0
LWPOLYLINE
  5
482
100
AcDbEntity
  8
SPKONTUR
100
AcDbPolyline
 90
       12
 70
     1
 43
0.0
 10
-47.0
 20
43.501
 10
-47.0
 20
26.5
 42
0.414214
 10
-45.5
 20
25.0
 10
-2.5
 20
25.0
 42
-0.414214
 10
0.0
 20
22.5
 10
0.0
 20
-22.5
 42
-0.414214
 10
-2.5
 20
-25.0
 10
-47.5
 20
-25.0
 42
-0.414214
 10
-50.0
 20
-22.5
 10
-50.0
 20
43.5
 42
-0.414214
 10
-48.5
 20
45.0
 10
-48.499
 20
45.0
 42
-0.414214
  0
LWPOLYLINE
  5
483
100
AcDbEntity
  8
STALPROFIL
100
AcDbPolyline
 90
       11
 70
     1
 43
1.5
 10
-47.75
 20
43.501
 10
-47.75
 20
26.5
 42
0.414214
 10
-45.5
 20
24.25
 10
-2.5
 20
24.25
 42
-0.414214
 10
-0.75
 20
22.5
 10
-0.75
 20
-22.5
 42
-0.414214
 10
-2.5
 20
-24.25
 10
-47.5
 20
-24.25
 42
-0.414214
 10
-49.25
 20
-22.5
 10
-49.25
 20
43.5
 42
-0.414214
 10
-48.499
 20
44.25
 42
-0.414214
  0
ENDBLK
  5
485
100
AcDbEntity
  8
0
100
AcDbBlockEnd
  0
BLOCK
  5
BE
100
AcDbEntity
  8
0
100
AcDbBlockBegin
  2
SP35022
 70
     0
 10
0.0
 20
0.0
 30
0.0
  3
SP35022
  1

  0
LWPOLYLINE
  5
BC
100
AcDbEntity
  8
STALPROFIL
100
AcDbPolyline
 90
       14
 70
     1
 43
1.5
 10
-48.5
 20
-44.25
 42
-0.414214
 10
-49.25
 20
-43.5
 10
-49.25
 20
43.5
 42
-0.414214
 10
-48.499
 20
44.25
 42
-0.414214
 10
-47.75
 20
43.501
 10
-47.75
 20
26.5
 42
0.414214
 10
-45.5
 20
24.25
 10
-2.5
 20
24.25
 42
-0.414214
 10
-0.75
 20
22.5
 10
-0.75
 20
-22.5
 42
-0.414214
 10
-2.5
 20
-24.25
 10
-45.5
 20
-24.25
 42
0.414214
 10
-47.75
 20
-26.5
 10
-47.75
 20
-43.501
 42
-0.414214
  0
LWPOLYLINE
  5
BD
100
AcDbEntity
  8
SPKONTUR
100
AcDbPolyline
 90
       18
 70
     0
 43
0.0
 10
-48.5
 20
-45.0
 42
-0.414214
 10
-50.0
 20
-43.5
 10
-50.0
 20
0.0
 10
-50.0
 20
43.5
 42
-0.414214
 10
-48.5
 20
45.0
 10
-48.499
 20
45.0
 42
-0.414214
 10
-47.0
 20
43.501
 10
-47.0
 20
26.5
 42
0.414214
 10
-45.5
 20
25.0
 10
-2.5
 20
25.0
 42
-0.414214
 10
0.0
 20
22.5
 10
0.0
 20
0.0
 10
0.0
 20
-22.5
 42
-0.414214
 10
-2.5
 20
-25.0
 10
-45.5
 20
-25.0
 42
0.414214
 10
-47.0
 20
-26.5
 10
-47.0
 20
-43.501
 42
-0.414214
 10
-48.499
 20
-45.0
  0
ENDBLK
  5
BF
100
AcDbEntity
  8
0
100
AcDbBlockEnd
  0
BLOCK
  5
102
100
AcDbEntity
  8
0
100
AcDbBlockBegin
  2
SP35023
 70
     0
 10
0.0
 20
0.0
 30
0.0
  3
SP35023
  1

  0
LWPOLYLINE
  5
100
100
AcDbEntity
  8
STALPROFIL
100
AcDbPolyline
 90
       14
 70
     1
 43
1.5
 10
-48.499
 20
-44.25
 42
0.414214
 10
-47.75
 20
-43.501
 10
-47.75
 20
-26.5
 42
-0.414214
 10
-45.5
 20
-24.25
 10
-2.5
 20
-24.25
 42
0.414214
 10
-0.75
 20
-22.5
 10
-0.75
 20
43.5
 42
0.414214
 10
-1.501
 20
44.25
 42
0.414214
 10
-2.25
 20
43.501
 10
-2.25
 20
26.5
 42
-0.414214
 10
-4.5
 20
24.25
 10
-47.5
 20
24.25
 42
0.414214
 10
-49.25
 20
22.5
 10
-49.25
 20
-43.5
 42
0.414214
  0
LWPOLYLINE
  5
101
100
AcDbEntity
  8
SPKONTUR
100
AcDbPolyline
 90
       18
 70
     0
 43
0.0
 10
-48.499
 20
-45.0
 42
0.414214
 10
-47.0
 20
-43.501
 10
-47.0
 20
-26.5
 42
-0.414214
 10
-45.5
 20
-25.0
 10
-2.5
 20
-25.0
 42
0.414214
 10
0.0
 20
-22.5
 10
0.0
 20
0.0
 10
0.0
 20
43.5
 42
0.414214
 10
-1.5
 20
45.0
 10
-1.501
 20
45.0
 42
0.414214
 10
-3.0
 20
43.501
 10
-3.0
 20
26.5
 42
-0.414214
 10
-4.5
 20
25.0
 10
-47.5
 20
25.0
 42
0.414214
 10
-50.0
 20
22.5
 10
-50.0
 20
0.0
 10
-50.0
 20
-43.5
 42
0.414214
 10
-48.5
 20
-45.0
  0
ENDBLK
  5
103
100
AcDbEntity
  8
0
100
AcDbBlockEnd
  0
BLOCK
  5
D5
100
AcDbEntity
  8
0
100
AcDbBlockBegin
  2
SP40035
 70
     0
 10
0.0
 20
0.0
 30
0.0
  3
SP40035
  1

  0
LWPOLYLINE
  5
C6
100
AcDbEntity
  8
GLAS_MED_FOGNING
100
AcDbPolyline
 90
       27
 70
     0
 43
0.0
 10
-8.852065
 20
19.196423
 10
-10.983077
 20
18.805517
 42
0.47758
 10
-11.354779
 20
18.122322
 10
-11.210724
 20
17.774669
 42
-1.066974
 10
-12.133919
 20
17.460466
 10
-12.812762
 20
19.979168
 10
-12.932189
 20
21.311463
 42
-0.851446
 10
-11.997323
 20
21.549707
 42
0.34625
 10
-11.453027
 20
21.25625
 10
-7.402831
 20
21.912702
 42
0.253088
 10
-6.011592
 20
22.97609
 10
-5.634511
 20
23.850525
 42
-0.653084
 10
-5.268363
 20
23.84175
 10
-4.427123
 20
21.793776
 42
0.887127
 10
-4.462387
 20
21.199099
 42
-0.212108
 10
-4.126593
 20
20.970977
 42
-0.212173
 10
-3.3563
 20
15.420463
 42
-0.418069
 10
-3.606337
 20
15.284328
 10
-4.191267
 20
15.461041
 42
-0.397156
 10
-4.259603
 20
15.580033
 42
0.194939
 10
-4.934258
 20
20.036515
 42
1.053912
 10
-5.530639
 20
19.674495
 10
-4.379492
 20
17.401862
 42
-0.459605
 10
-4.495679
 20
17.121417
 10
-4.998564
 20
16.956773
 42
-0.312484
 10
-5.107704
 20
16.989264
 42
0.373013
 10
-9.018037
 20
19.165978
  0
INSERT
  5
C7
100
AcDbEntity
  8
GLAS_MED_FOGNING
100
AcDbBlockReference
  2
*X7
 10
-320.0
 20
440.0
 30
0.0
 50
270.0
1001
ACAD
1000
HATCH
1002
{
1070
    16
1000
ANSI31
1040
10.0
1040
0.087266
1002
}
  0
ENDBLK
  5
D6
100
AcDbEntity
  8
0
100
AcDbBlockEnd
  0
BLOCK
  5
D3
100
AcDbEntity
  8
0
100
AcDbBlockBegin
  2
*X7
 70
     1
 10
0.0
 20
0.0
 30
0.0
  3
*X7
  1

  0
LINE
  5
C9
100
AcDbEntity
  8
0
 62
     0
100
AcDbLine
 10
418.490967
 20
310.1066
 30
0.0
 11
421.167604
 21
313.296491
 31
0.0
  0
LINE
  5
CA
100
AcDbEntity
  8
0
 62
     0
100
AcDbLine
 10
423.349042
 20
315.896228
 30
0.0
 11
424.080112
 21
316.767482
 31
0.0
  0
LINE
  5
CB
100
AcDbEntity
  8
0
 62
     0
100
AcDbLine
 10
422.064957
 20
314.365914
 30
0.0
 11
422.918328
 21
315.382923
 31
0.0
  0
LINE
  5
CC
100
AcDbEntity
  8
0
 62
     0
100
AcDbLine
 10
418.226804
 20
311.736438
 30
0.0
 11
420.663771
 21
314.640701
 31
0.0
  0
LINE
  5
CD
100
AcDbEntity
  8
0
 62
     0
100
AcDbLine
 10
421.575811
 20
315.727628
 30
0.0
 11
422.569739
 21
316.912145
 31
0.0
  0
LINE
  5
CE
100
AcDbEntity
  8
0
 62
     0
100
AcDbLine
 10
417.857133
 20
313.240535
 30
0.0
 11
420.696467
 21
316.624321
 31
0.0
  0
LINE
  5
CF
100
AcDbEntity
  8
0
 62
     0
100
AcDbLine
 10
416.898348
 20
314.042554
 30
0.0
 11
418.169933
 21
315.55797
 31
0.0
  0
LINE
  5
D0
100
AcDbEntity
  8
0
 62
     0
100
AcDbLine
 10
418.751032
 20
308.471878
 30
0.0
 11
420.838188
 21
310.959254
 31
0.0
  0
LINE
  5
D1
100
AcDbEntity
  8
0
 62
     0
100
AcDbLine
 10
419.246616
 20
307.117837
 30
0.0
 11
421.130916
 21
309.363458
 31
0.0
  0
LINE
  5
D2
100
AcDbEntity
  8
0
 62
     0
100
AcDbLine
 10
421.204244
 20
307.506193
 30
0.0
 11
422.301392
 21
308.813723
 31
0.0
  0
ENDBLK
  5
D4
100
AcDbEntity
  8
0
100
AcDbBlockEnd
  0
BLOCK
  5
35
100
AcDbEntity
  8
0
100
AcDbBlockBegin
  2
SIDA
 70
     0
 10
0.0
 20
0.0
 30
0.0
  3
SIDA
  1

  0
LWPOLYLINE
  5
26
100
AcDbEntity
  8
RAM
 62
     5
100
AcDbPolyline
 90
        4
 70
     1
 43
0.0
 10
-20.0
 20
35.0
 10
-20.0
 20
560.0
 10
-380.0
 20
560.0
 10
-380.0
 20
35.0
  0
LINE
  5
28
100
AcDbEntity
  8
RAM
  6
DASHDOT
 62
     6
100
AcDbLine
 10
-260.0
 20
307.5
 30
0.0
 11
-260.0
 21
287.5
 31
0.0
  0
LINE
  5
2A
100
AcDbEntity
  8
RAM
  6
DASHDOT
 62
     6
100
AcDbLine
 10
-270.0
 20
167.5
 30
0.0
 11
-250.0
 21
167.5
 31
0.0
  0
LINE
  5
2B
100
AcDbEntity
  8
RAM
  6
DASHDOT
 62
     6
100
AcDbLine
 10
-260.0
 20
177.5
 30
0.0
 11
-260.0
 21
157.5
 31
0.0
  0
LINE
  5
2C
100
AcDbEntity
  8
RAM
  6
DASHDOT
 62
     6
100
AcDbLine
 10
-270.0
 20
297.5
 30
0.0
 11
-250.0
 21
297.5
 31
0.0
  0
LINE
  5
2D
100
AcDbEntity
  8
RAM
  6
DASHDOT
 62
     6
100
AcDbLine
 10
-270.0
 20
427.5
 30
0.0
 11
-250.0
 21
427.5
 31
0.0
  0
LINE
  5
2E
100
AcDbEntity
  8
RAM
  6
DASHDOT
 62
     6
100
AcDbLine
 10
-260.0
 20
437.5
 30
0.0
 11
-260.0
 21
417.5
 31
0.0
  0
LINE
  5
2F
100
AcDbEntity
  8
RAM
  6
DASHDOT
 62
     6
100
AcDbLine
 10
-140.0
 20
307.5
 30
0.0
 11
-140.0
 21
287.5
 31
0.0
  0
LINE
  5
30
100
AcDbEntity
  8
RAM
  6
DASHDOT
 62
     6
100
AcDbLine
 10
-140.0
 20
177.5
 30
0.0
 11
-140.0
 21
157.5
 31
0.0
  0
LINE
  5
31
100
AcDbEntity
  8
RAM
  6
DASHDOT
 62
     6
100
AcDbLine
 10
-150.0
 20
167.5
 30
0.0
 11
-130.0
 21
167.5
 31
0.0
  0
LINE
  5
32
100
AcDbEntity
  8
RAM
  6
DASHDOT
 62
     6
100
AcDbLine
 10
-150.0
 20
297.5
 30
0.0
 11
-130.0
 21
297.5
 31
0.0
  0
LINE
  5
33
100
AcDbEntity
  8
RAM
  6
DASHDOT
 62
     6
100
AcDbLine
 10
-150.0
 20
427.5
 30
0.0
 11
-130.0
 21
427.5
 31
0.0
  0
LINE
  5
34
100
AcDbEntity
  8
RAM
  6
DASHDOT
 62
     6
100
AcDbLine
 10
-140.0
 20
437.5
 30
0.0
 11
-140.0
 21
417.5
 31
0.0
  0
ENDBLK
  5
36
100
AcDbEntity
  8
0
100
AcDbBlockEnd
  0
BLOCK
  5
108
100
AcDbEntity
  8
0
100
AcDbBlockBegin
  2
SP02502020
 70
     0
 10
0.0
 20
0.0
 30
0.0
  3
SP02502020
  1

  0
LWPOLYLINE
  5
106
100
AcDbEntity
  8
SPKONTUR
100
AcDbPolyline
 90
       16
 70
     1
 43
0.0
 10
-50.0
 20
0.0
 10
-50.0
 20
-28.2
 42
0.414214
 10
-48.2
 20
-30.0
 10
-48.199
 20
-30.0
 42
0.414214
 10
-46.4
 20
-28.201
 10
-46.4
 20
-10.0
 10
-1.8
 20
-10.0
 42
0.414214
 10
0.0
 20
-8.2
 10
0.0
 20
0.0
 10
0.0
 20
8.2
 42
0.414214
 10
-1.8
 20
10.0
 10
-46.4
 20
10.0
 10
-46.4
 20
28.201
 42
0.414214
 10
-48.199
 20
30.0
 10
-48.2
 20
30.0
 42
0.414214
 10
-50.0
 20
28.2
  0
LWPOLYLINE
  5
107
100
AcDbEntity
  8
STALPROFIL
100
AcDbPolyline
 90
       16
 70
     1
 43
1.8
 10
-49.1
 20
0.0
 10
-49.1
 20
-28.2
 42
0.414214
 10
-48.199
 20
-29.1
 42
0.414214
 10
-47.3
 20
-28.201
 10
-47.3
 20
-10.0
 42
-0.414214
 10
-46.4
 20
-9.1
 10
-1.8
 20
-9.1
 42
0.414214
 10
-0.9
 20
-8.2
 10
-0.9
 20
0.0
 10
-0.9
 20
8.2
 42
0.414214
 10
-1.8
 20
9.1
 10
-46.4
 20
9.1
 42
-0.414214
 10
-47.3
 20
10.0
 10
-47.3
 20
28.201
 42
0.414214
 10
-48.2
 20
29.1
 42
0.414214
 10
-49.1
 20
28.2
  0
ENDBLK
  5
109
100
AcDbEntity
  8
0
100
AcDbBlockEnd
  0
BLOCK
  5
F5
100
AcDbEntity
  8
0
100
AcDbBlockBegin
  2
SP01502020
 70
     0
 10
0.0
 20
0.0
 30
0.0
  3
SP01502020
  1

  0
LWPOLYLINE
  5
F3
100
AcDbEntity
  8
STALPROFIL
100
AcDbPolyline
 90
       11
 70
     1
 43
1.8
 10
-46.4
 20
9.1
 10
-1.8
 20
9.1
 42
-0.414214
 10
-0.9
 20
8.2
 10
-0.9
 20
-8.2
 42
-0.414214
 10
-1.8
 20
-9.1
 10
-48.2
 20
-9.1
 42
-0.414214
 10
-49.1
 20
-8.2
 10
-49.1
 20
28.2
 42
-0.414214
 10
-48.199
 20
29.1
 42
-0.414214
 10
-47.3
 20
28.201
 10
-47.3
 20
10.0
 42
0.414214
  0
LWPOLYLINE
  5
F4
100
AcDbEntity
  8
SPKONTUR
100
AcDbPolyline
 90
       11
 70
     1
 43
0.0
 10
-46.4
 20
10.0
 10
-1.8
 20
10.0
 42
-0.414214
 10
0.0
 20
8.2
 10
0.0
 20
-8.2
 42
-0.414214
 10
-1.8
 20
-10.0
 10
-48.2
 20
-10.0
 42
-0.414214
 10
-50.0
 20
-8.2
 10
-50.0
 20
28.2
 42
-0.414214
 10
-48.2
 20
30.0
 10
-48.199
 20
30.0
 42
-0.414214
 10
-46.4
 20
28.201
  0
ENDBLK
  5
F6
100
AcDbEntity
  8
0
100
AcDbBlockEnd
  0
BLOCK
  5
B2
100
AcDbEntity
  8
0
100
AcDbBlockBegin
  2
SP40020
 70
     0
 10
0.0
 20
0.0
 30
0.0
  3
SP40020
  1

  0
LINE
  5
A2
100
AcDbEntity
  8
CENTRUM
100
AcDbLine
 10
-13.0
 20
34.06657
 30
0.0
 11
-13.0
 21
18.0
 31
0.0
  0
LINE
  5
A3
100
AcDbEntity
  8
GLAS_MED_FOGNING
100
AcDbLine
 10
-16.0
 20
23.5
 30
0.0
 11
-16.0
 21
22.0
 31
0.0
  0
LINE
  5
A4
100
AcDbEntity
  8
GLAS_MED_FOGNING
100
AcDbLine
 10
-15.5
 20
23.5
 30
0.0
 11
-15.5
 21
21.0
 31
0.0
  0
LINE
  5
A5
100
AcDbEntity
  8
GLAS_MED_FOGNING
100
AcDbLine
 10
-10.5
 20
23.5
 30
0.0
 11
-10.5
 21
21.0
 31
0.0
  0
LINE
  5
A6
100
AcDbEntity
  8
GLAS_MED_FOGNING
100
AcDbLine
 10
-10.0
 20
23.5
 30
0.0
 11
-10.0
 21
22.0
 31
0.0
  0
LINE
  5
A7
100
AcDbEntity
  8
GLAS_MED_FOGNING
100
AcDbLine
 10
-10.5
 20
21.0
 30
0.0
 11
-15.5
 21
21.0
 31
0.0
  0
LINE
  5
A8
100
AcDbEntity
  8
GLAS_MED_FOGNING
100
AcDbLine
 10
-10.0
 20
22.0
 30
0.0
 11
-16.0
 21
22.0
 31
0.0
  0
LINE
  5
A9
100
AcDbEntity
  8
GLAS_MED_FOGNING
100
AcDbLine
 10
-16.0
 20
22.0
 30
0.0
 11
-15.5
 21
21.0
 31
0.0
  0
LINE
  5
AA
100
AcDbEntity
  8
GLAS_MED_FOGNING
100
AcDbLine
 10
-10.0
 20
22.0
 30
0.0
 11
-10.5
 21
21.0
 31
0.0
  0
LINE
  5
AB
100
AcDbEntity
  8
GLAS_MED_FOGNING
100
AcDbLine
 10
-9.267949
 20
26.0
 30
0.0
 11
-16.73205
 21
26.0
 31
0.0
  0
LINE
  5
AC
100
AcDbEntity
  8
GLAS_MED_FOGNING
100
AcDbLine
 10
-8.196152
 20
30.0
 30
0.0
 11
-17.803848
 21
30.0
 31
0.0
  0
ARC
  5
AD
100
AcDbEntity
  8
GLAS_MED_FOGNING
100
AcDbCircle
 10
-13.0
 20
18.928391
 30
0.0
 40
12.068864
100
AcDbArc
 50
66.544514
 51
113.455486
  0
LINE
  5
AE
100
AcDbEntity
  8
GLAS_MED_FOGNING
100
AcDbLine
 10
-17.803848
 20
30.0
 30
0.0
 11
-16.73205
 21
26.0
 31
0.0
  0
LINE
  5
AF
100
AcDbEntity
  8
GLAS_MED_FOGNING
100
AcDbLine
 10
-16.73205
 20
26.0
 30
0.0
 11
-16.73205
 21
25.0
 31
0.0
  0
LINE
  5
B0
100
AcDbEntity
  8
GLAS_MED_FOGNING
100
AcDbLine
 10
-8.196152
 20
30.0
 30
0.0
 11
-9.267949
 21
26.0
 31
0.0
  0
LINE
  5
B1
100
AcDbEntity
  8
GLAS_MED_FOGNING
100
AcDbLine
 10
-9.267949
 20
26.0
 30
0.0
 11
-9.267949
 21
25.0
 31
0.0
  0
ENDBLK
  5
B3
100
AcDbEntity
  8
0
100
AcDbBlockEnd
  0
BLOCK
  5
660
100
AcDbEntity
  8
0
100
AcDbBlockBegin
  2
SP40520
 70
     0
 10
0.0
 20
0.0
 30
0.0
  3
SP40520
  1

  0
LWPOLYLINE
  5
65C
100
AcDbEntity
  8
SPKONTUR
100
AcDbPolyline
 90
       10
 70
     0
 43
0.0
 10
-15.0
 20
27.5
 10
-15.0
 20
26.75
 42
0.414214
 10
-13.25
 20
25.0
 10
-1.75
 20
25.0
 42
0.414214
 10
0.0
 20
26.75
 10
0.0
 20
43.75
 42
0.414214
 10
-1.25
 20
45.0
 10
-1.2501
 20
45.0
 42
0.414214
 10
-2.5
 20
43.7501
 10
-2.5
 20
39.0
  0
LWPOLYLINE
  5
65D
100
AcDbEntity
  8
STALPROFIL
100
AcDbPolyline
 90
        9
 70
     0
 43
1.25
 10
-14.375
 20
27.5
 10
-14.375
 20
26.75
 42
0.414214
 10
-13.25
 20
25.625
 10
-1.75
 20
25.625
 42
0.414214
 10
-0.625
 20
26.75
 10
-0.625
 20
43.75
 42
0.414214
 10
-1.2501
 20
44.375
 42
0.414214
 10
-1.875
 20
43.7501
 10
-1.875
 20
39.0
  0
LWPOLYLINE
  5
65E
100
AcDbEntity
  8
GLAS_MED_FOGNING
100
AcDbPolyline
 90
        9
 70
     0
 43
0.0
 10
-26.895347
 20
26.821776
 10
-25.0
 20
25.1
 10
-17.5
 20
25.099814
 42
0.315299
 10
-16.278378
 20
25.955158
 10
-15.496797
 20
28.102371
 42
-0.419684
 10
-15.107042
 20
28.279701
 10
-11.40871
 20
26.461158
 42
0.414233
 10
-9.670299
 20
27.059616
 10
-7.916703
 20
30.654738
  0
LINE
  5
65F
100
AcDbEntity
  8
CENTRUM
100
AcDbLine
 10
-20.999975
 20
26.099901
 30
0.0
 11
-21.000124
 21
20.099901
 31
0.0
  0
ENDBLK
  5
661
100
AcDbEntity
  8
0
100
AcDbBlockEnd
  0
BLOCK
  5
5D4
100
AcDbEntity
  8
0
100
AcDbBlockBegin
  2
SP41520
 70
     0
 10
0.0
 20
0.0
 30
0.0
  3
SP41520
  1

  0
INSERT
  5
5D1
100
AcDbEntity
  8
GLAS_MED_FOGNING
100
AcDbBlockReference
  2
SP40020
 10
5.5
 20
0.0
 30
0.0
  0
LWPOLYLINE
  5
5D2
100
AcDbEntity
  8
STALPROFIL
100
AcDbPolyline
 90
       12
 70
     0
 43
1.25
 10
-2.02546
 20
29.838243
 10
-2.872606
 20
26.676553
 42
0.395246
 10
-1.75
 20
25.625
 42
0.414213
 10
-0.625
 20
26.749998
 10
-0.625
 20
43.0
 42
0.414214
 10
-2.0
 20
44.375
 10
-13.0
 20
44.375
 42
0.414214
 10
-14.375
 20
43.0
 10
-14.375
 20
26.749999
 42
0.414213
 10
-13.249964
 20
25.625
 42
0.395246
 10
-12.127394
 20
26.676553
 10
-12.97454
 20
29.838243
  0
LWPOLYLINE
  5
5D3
100
AcDbEntity
  8
SPKONTUR
100
AcDbPolyline
 90
       13
 70
     0
 43
0.0
 10
-2.629165
 20
30.0
 10
-3.5
 20
26.7499
 42
0.41423
 10
-1.75
 20
25.0
 42
0.414213
 10
0.0
 20
26.749998
 10
0.0
 20
43.0
 42
0.414214
 10
-2.0
 20
45.0
 10
-7.5
 20
45.0
 10
-13.0
 20
45.0
 42
0.414214
 10
-15.0
 20
43.0
 10
-15.0
 20
26.749998
 42
0.414213
 10
-13.25
 20
25.0
 42
0.41423
 10
-11.5
 20
26.7499
 10
-12.370835
 20
30.0
  0
ENDBLK
  5
5D5
100
AcDbEntity
  8
0
100
AcDbBlockEnd
  0
BLOCK
  5
670
100
AcDbEntity
  8
0
100
AcDbBlockBegin
  2
SP42520
 70
     0
 10
0.0
 20
0.0
 30
0.0
  3
SP42520
  1

  0
INSERT
  5
66D
100
AcDbEntity
  8
0
100
AcDbBlockReference
  2
SP40020
 10
0.0
 20
0.0
 30
0.0
  0
LWPOLYLINE
  5
66E
100
AcDbEntity
  8
STALPROFIL
100
AcDbPolyline
 90
       14
 70
     0
 43
1.25
 10
-7.592449
 20
29.838238
 10
-8.372969
 20
26.925296
 42
0.398381
 10
-7.0
 20
25.625
 10
-2.0
 20
25.625
 42
0.414214
 10
-0.625
 20
27.0
 10
-0.625
 20
43.0
 42
0.414214
 10
-2.0
 20
44.375
 10
-23.0
 20
44.375
 42
0.414214
 10
-24.375
 20
43.0
 10
-24.375
 20
27.0
 42
0.414214
 10
-23.0
 20
25.625
 10
-19.0
 20
25.625
 42
0.398381
 10
-17.627031
 20
26.925296
 10
-18.407551
 20
29.838238
  0
LWPOLYLINE
  5
66F
100
AcDbEntity
  8
SPKONTUR
100
AcDbPolyline
 90
       14
 70
     0
 43
0.0
 10
-8.196152
 20
30.0
 10
-9.0
 20
27.0
 42
0.414214
 10
-7.0
 20
25.0
 10
-2.0
 20
25.0
 42
0.414214
 10
0.0
 20
27.0
 10
0.0
 20
43.0
 42
0.414214
 10
-2.0
 20
45.0
 10
-23.0
 20
45.0
 42
0.414214
 10
-25.0
 20
43.0
 10
-25.0
 20
27.0
 42
0.414214
 10
-23.0
 20
25.0
 10
-19.0
 20
25.0
 42
0.414214
 10
-17.0
 20
27.0
 10
-17.803848
 20
30.0
  0
ENDBLK
  5
671
100
AcDbEntity
  8
0
100
AcDbBlockEnd
  0
BLOCK
  5
772
100
AcDbEntity
  8
0
100
AcDbBlockBegin
  2
SP43020
 70
     0
 10
0.0
 20
0.0
 30
0.0
  3
SP43020
  1

  0
LWPOLYLINE
  5
76F
100
AcDbEntity
  8
SPKONTUR
100
AcDbPolyline
 90
       14
 70
     0
 43
0.0
 10
-8.196152
 20
30.0
 10
-9.0
 20
27.0
 42
0.414214
 10
-7.0
 20
25.0
 10
-2.0
 20
25.0
 42
0.414214
 10
0.0
 20
27.0
 10
0.0
 20
43.0
 42
0.414214
 10
-2.0
 20
45.0
 10
-28.0
 20
45.0
 42
0.414214
 10
-30.0
 20
43.0
 10
-30.0
 20
27.0
 42
0.414214
 10
-28.0
 20
25.0
 10
-19.0
 20
25.0
 42
0.414214
 10
-17.0
 20
27.0
 10
-17.803848
 20
30.0
  0
LWPOLYLINE
  5
770
100
AcDbEntity
  8
STALPROFIL
100
AcDbPolyline
 90
       14
 70
     0
 43
1.25
 10
-7.592449
 20
29.838238
 10
-8.372969
 20
26.925296
 42
0.398381
 10
-7.0
 20
25.625
 10
-2.0
 20
25.625
 42
0.414214
 10
-0.625
 20
27.0
 10
-0.625
 20
43.0
 42
0.414214
 10
-2.0
 20
44.375
 10
-28.0
 20
44.375
 42
0.414214
 10
-29.375
 20
43.0
 10
-29.375
 20
27.0
 42
0.414214
 10
-28.0
 20
25.625
 10
-19.0
 20
25.625
 42
0.398381
 10
-17.627031
 20
26.925296
 10
-18.407551
 20
29.838238
  0
INSERT
  5
771
100
AcDbEntity
  8
GLAS_MED_FOGNING
100
AcDbBlockReference
  2
SP40020
 10
0.0
 20
0.0
 30
0.0
  0
ENDBLK
  5
773
100
AcDbEntity
  8
0
100
AcDbBlockEnd
  0
BLOCK
  5
4E7
100
AcDbEntity
  8
0
100
AcDbBlockBegin
  2
SP43520
 70
     0
 10
0.0
 20
0.0
 30
0.0
  3
SP43520
  1

  0
LWPOLYLINE
  5
4E4
100
AcDbEntity
  8
SPKONTUR
100
AcDbPolyline
 90
       14
 70
     0
 43
0.0
 10
-8.196152
 20
30.0
 10
-9.0
 20
27.0
 42
0.414214
 10
-7.0
 20
25.0
 10
-2.0
 20
25.0
 42
0.414214
 10
0.0
 20
27.0
 10
0.0
 20
43.0
 42
0.414214
 10
-2.0
 20
45.0
 10
-33.0
 20
45.0
 42
0.414214
 10
-35.0
 20
43.0
 10
-35.0
 20
27.0
 42
0.414214
 10
-33.0
 20
25.0
 10
-19.0
 20
25.0
 42
0.414214
 10
-17.0
 20
27.0
 10
-17.803848
 20
30.0
  0
LWPOLYLINE
  5
4E5
100
AcDbEntity
  8
STALPROFIL
100
AcDbPolyline
 90
       14
 70
     0
 43
1.25
 10
-7.592449
 20
29.838238
 10
-8.372969
 20
26.925296
 42
0.398381
 10
-7.0
 20
25.625
 10
-2.0
 20
25.625
 42
0.414214
 10
-0.625
 20
27.0
 10
-0.625
 20
43.0
 42
0.414214
 10
-2.0
 20
44.375
 10
-33.0
 20
44.375
 42
0.414214
 10
-34.375
 20
43.0
 10
-34.375
 20
27.0
 42
0.414214
 10
-33.0
 20
25.625
 10
-19.0
 20
25.625
 42
0.398381
 10
-17.627031
 20
26.925296
 10
-18.407551
 20
29.838238
  0
INSERT
  5
4E6
100
AcDbEntity
  8
GLAS_MED_FOGNING
100
AcDbBlockReference
  2
SP40020
 10
0.0
 20
0.0
 30
0.0
  0
ENDBLK
  5
4E8
100
AcDbEntity
  8
0
100
AcDbBlockEnd
  0
BLOCK
  5
B4
100
AcDbEntity
  8
0
100
AcDbBlockBegin
  2
SP42020
 70
     0
 10
0.0
 20
0.0
 30
0.0
  3
SP42020
  1

  0
LWPOLYLINE
  5
9C
100
AcDbEntity
  8
SPKONTUR
100
AcDbPolyline
 90
       14
 70
     0
 43
0.0
 10
-2.629165
 20
30.000002
 10
-3.5
 20
26.749902
 42
0.41423
 10
-1.75
 20
25.000002
 42
0.414213
 10
0.0
 20
26.75
 10
0.0
 20
43.000002
 42
0.414214
 10
-2.0
 20
45.000002
 10
-7.5
 20
45.000002
 10
-18.0
 20
45.000002
 42
0.414214
 10
-20.0
 20
43.000002
 10
-20.0
 20
27.000002
 42
0.414214
 10
-18.0
 20
25.000002
 10
-13.5
 20
25.000002
 42
0.414214
 10
-11.5
 20
27.000002
 10
-12.303848
 20
30.000002
  0
LWPOLYLINE
  5
9E
100
AcDbEntity
  8
STALPROFIL
100
AcDbPolyline
 90
       13
 70
     0
 43
1.25
 10
-2.02546
 20
29.838245
 10
-2.872606
 20
26.676555
 42
0.395246
 10
-1.75
 20
25.625002
 42
0.414213
 10
-0.625
 20
26.75
 10
-0.625
 20
43.000002
 42
0.414214
 10
-2.0
 20
44.375002
 10
-18.0
 20
44.375002
 42
0.414214
 10
-19.375
 20
43.000002
 10
-19.375
 20
27.000002
 42
0.414214
 10
-18.0
 20
25.625002
 10
-13.5
 20
25.625002
 42
0.398381
 10
-12.127031
 20
26.925298
 10
-12.907551
 20
29.83824
  0
INSERT
  5
A0
100
AcDbEntity
  8
0
100
AcDbBlockReference
  2
SP40020
 10
5.5
 20
0.0
 30
0.0
  0
ENDBLK
  5
B5
100
AcDbEntity
  8
0
100
AcDbBlockEnd
  0
BLOCK
  5
25A
100
AcDbEntity
  8
0
100
AcDbBlockBegin
  2
SP41020
 70
     0
 10
0.0
 20
0.0
 30
0.0
  3
SP41020
  1

  0
LWPOLYLINE
  5
252
100
AcDbEntity
  8
STALPROFIL
100
AcDbPolyline
 90
       10
 70
     0
 43
1.25
 10
-9.375
 20
27.5
 10
-9.375
 20
26.75
 42
0.414214
 10
-8.25
 20
25.625
 10
-1.75
 20
25.625
 42
0.414214
 10
-0.625
 20
26.75
 10
-0.625
 20
43.25
 42
0.414214
 10
-1.75
 20
44.375
 10
-8.25
 20
44.375
 42
0.414214
 10
-9.375
 20
43.25
 10
-9.375
 20
29.5
  0
LWPOLYLINE
  5
253
100
AcDbEntity
  8
SPKONTUR
100
AcDbPolyline
 90
       10
 70
     0
 43
0.0
 10
-10.0
 20
27.5
 10
-10.0
 20
26.75
 42
0.414214
 10
-8.25
 20
25.0
 10
-1.75
 20
25.0
 42
0.414214
 10
0.0
 20
26.75
 10
0.0
 20
43.25
 42
0.414214
 10
-1.75
 20
45.0
 10
-8.25
 20
45.0
 42
0.414214
 10
-10.0
 20
43.25
 10
-10.0
 20
29.5
  0
INSERT
  5
254
100
AcDbEntity
  8
GLAS_MED_FOGNING
100
AcDbBlockReference
  2
SP41000
 10
0.0
 20
0.0
 30
0.0
  0
ENDBLK
  5
25B
100
AcDbEntity
  8
0
100
AcDbBlockEnd
  0
BLOCK
  5
64B
100
AcDbEntity
  8
0
100
AcDbBlockBegin
  2
*X19
 70
     1
 10
0.0
 20
0.0
 30
0.0
  3
*X19
  1

  0
LINE
  5
641
100
AcDbEntity
  8
0
 62
     0
100
AcDbLine
 10
-3.964252
 20
40.411648
 30
0.0
 11
-3.964252
 21
40.411648
 31
0.0
  0
LINE
  5
642
100
AcDbEntity
  8
0
 62
     0
100
AcDbLine
 10
-4.090239
 20
44.265296
 30
0.0
 11
-4.090239
 21
44.265296
 31
0.0
  0
LINE
  5
643
100
AcDbEntity
  8
0
 62
     0
100
AcDbLine
 10
-3.586292
 20
28.850706
 30
0.0
 11
-3.586292
 21
28.850706
 31
0.0
  0
LINE
  5
644
100
AcDbEntity
  8
0
 62
     0
100
AcDbLine
 10
-3.984846
 20
40.901794
 30
0.0
 11
-3.984846
 21
40.901794
 31
0.0
  0
LINE
  5
645
100
AcDbEntity
  8
0
 62
     0
100
AcDbLine
 10
-4.054438
 20
30.53603
 30
0.0
 11
-4.054438
 21
30.53603
 31
0.0
  0
LINE
  5
646
100
AcDbEntity
  8
0
 62
     0
100
AcDbLine
 10
-1.337879
 20
30.893671
 30
0.0
 11
-1.337879
 21
30.893671
 31
0.0
  0
LINE
  5
647
100
AcDbEntity
  8
0
 62
     0
100
AcDbLine
 10
-2.925486
 20
40.088272
 30
0.0
 11
-2.925486
 21
40.088272
 31
0.0
  0
LINE
  5
648
100
AcDbEntity
  8
0
 62
     0
100
AcDbLine
 10
-2.043656
 20
27.588967
 30
0.0
 11
-2.043656
 21
27.588967
 31
0.0
  0
LINE
  5
649
100
AcDbEntity
  8
0
 62
     0
100
AcDbLine
 10
-3.006559
 20
29.559094
 30
0.0
 11
-3.006559
 21
29.559094
 31
0.0
  0
LINE
  5
64A
100
AcDbEntity
  8
0
 62
     0
100
AcDbLine
 10
-2.63792
 20
29.221299
 30
0.0
 11
-2.63792
 21
29.221299
 31
0.0
  0
ENDBLK
  5
64C
100
AcDbEntity
  8
0
100
AcDbBlockEnd
  0
BLOCK
  5
4DD
100
AcDbEntity
  8
0
100
AcDbBlockBegin
  2
*X20
 70
     1
 10
0.0
 20
0.0
 30
0.0
  3
*X20
  1

  0
LINE
  5
4DA
100
AcDbEntity
  8
0
 62
     0
100
AcDbLine
 10
-43.410115
 20
41.746337
 30
0.0
 11
-43.410115
 21
41.746337
 31
0.0
  0
LINE
  5
4DB
100
AcDbEntity
  8
0
 62
     0
100
AcDbLine
 10
-44.259128
 20
42.545671
 30
0.0
 11
-44.259128
 21
42.545671
 31
0.0
  0
LINE
  5
4DC
100
AcDbEntity
  8
0
 62
     0
100
AcDbLine
 10
-43.530278
 20
44.898542
 30
0.0
 11
-43.530278
 21
44.898542
 31
0.0
  0
ENDBLK
  5
4DE
100
AcDbEntity
  8
0
100
AcDbBlockEnd
  0
BLOCK
  5
4D6
100
AcDbEntity
  8
0
100
AcDbBlockBegin
  2
*X21
 70
     1
 10
0.0
 20
0.0
 30
0.0
  3
*X21
  1

  0
LINE
  5
4D5
100
AcDbEntity
  8
0
 62
     0
100
AcDbLine
 10
-36.504142
 20
41.798848
 30
0.0
 11
-36.504142
 21
41.798848
 31
0.0
  0
ENDBLK
  5
4D7
100
AcDbEntity
  8
0
100
AcDbBlockEnd
  0
BLOCK
  5
4B1
100
AcDbEntity
  8
0
100
AcDbBlockBegin
  2
*X22
 70
     1
 10
0.0
 20
0.0
 30
0.0
  3
*X22
  1

  0
LINE
  5
4A6
100
AcDbEntity
  8
0
 62
     0
100
AcDbLine
 10
-45.729557
 20
28.115606
 30
0.0
 11
-45.729557
 21
28.115606
 31
0.0
  0
LINE
  5
4A7
100
AcDbEntity
  8
0
 62
     0
100
AcDbLine
 10
-43.032155
 20
30.185395
 30
0.0
 11
-43.032155
 21
30.185395
 31
0.0
  0
LINE
  5
4A8
100
AcDbEntity
  8
0
 62
     0
100
AcDbLine
 10
-44.406244
 20
25.223614
 30
0.0
 11
-44.406244
 21
25.223614
 31
0.0
  0
LINE
  5
4A9
100
AcDbEntity
  8
0
 62
     0
100
AcDbLine
 10
-43.365227
 20
25.360666
 30
0.0
 11
-43.365227
 21
25.360666
 31
0.0
  0
LINE
  5
4AA
100
AcDbEntity
  8
0
 62
     0
100
AcDbLine
 10
-46.250236
 20
30.159149
 30
0.0
 11
-46.250236
 21
30.159149
 31
0.0
  0
LINE
  5
4AB
100
AcDbEntity
  8
0
 62
     0
100
AcDbLine
 10
-45.209219
 20
30.296201
 30
0.0
 11
-45.209219
 21
30.296201
 31
0.0
  0
LINE
  5
4AC
100
AcDbEntity
  8
0
 62
     0
100
AcDbLine
 10
-43.583249
 20
30.510264
 30
0.0
 11
-43.583249
 21
30.510264
 31
0.0
  0
LINE
  5
4AD
100
AcDbEntity
  8
0
 62
     0
100
AcDbLine
 10
-45.641642
 20
27.50974
 30
0.0
 11
-45.641642
 21
27.50974
 31
0.0
  0
LINE
  5
4AE
100
AcDbEntity
  8
0
 62
     0
100
AcDbLine
 10
-43.292959
 20
29.992636
 30
0.0
 11
-43.292959
 21
29.992636
 31
0.0
  0
LINE
  5
4AF
100
AcDbEntity
  8
0
 62
     0
100
AcDbLine
 10
-43.256998
 20
30.118995
 30
0.0
 11
-43.256998
 21
30.118995
 31
0.0
  0
LINE
  5
4B0
100
AcDbEntity
  8
0
 62
     0
100
AcDbLine
 10
-46.909964
 20
26.201755
 30
0.0
 11
-46.909964
 21
26.201755
 31
0.0
  0
ENDBLK
  5
4B2
100
AcDbEntity
  8
0
100
AcDbBlockEnd
  0
BLOCK
  5
4C9
100
AcDbEntity
  8
0
100
AcDbBlockBegin
  2
*X23
 70
     1
 10
0.0
 20
0.0
 30
0.0
  3
*X23
  1

  0
LINE
  5
4C1
100
AcDbEntity
  8
0
 62
     0
100
AcDbLine
 10
-37.789989
 20
26.307209
 30
0.0
 11
-37.789989
 21
26.307209
 31
0.0
  0
LINE
  5
4C2
100
AcDbEntity
  8
0
 62
     0
100
AcDbLine
 10
-35.092588
 20
28.376998
 30
0.0
 11
-35.092588
 21
28.376998
 31
0.0
  0
LINE
  5
4C3
100
AcDbEntity
  8
0
 62
     0
100
AcDbLine
 10
-37.915976
 20
30.160857
 30
0.0
 11
-37.915976
 21
30.160857
 31
0.0
  0
LINE
  5
4C4
100
AcDbEntity
  8
0
 62
     0
100
AcDbLine
 10
-37.981681
 20
26.069423
 30
0.0
 11
-37.981681
 21
26.069423
 31
0.0
  0
LINE
  5
4C5
100
AcDbEntity
  8
0
 62
     0
100
AcDbLine
 10
-36.355712
 20
26.283486
 30
0.0
 11
-36.355712
 21
26.283486
 31
0.0
  0
LINE
  5
4C6
100
AcDbEntity
  8
0
 62
     0
100
AcDbLine
 10
-37.064675
 20
30.003954
 30
0.0
 11
-37.064675
 21
30.003954
 31
0.0
  0
LINE
  5
4C7
100
AcDbEntity
  8
0
 62
     0
100
AcDbLine
 10
-36.221284
 20
29.466655
 30
0.0
 11
-36.221284
 21
29.466655
 31
0.0
  0
LINE
  5
4C8
100
AcDbEntity
  8
0
 62
     0
100
AcDbLine
 10
-35.254096
 20
30.050252
 30
0.0
 11
-35.254096
 21
30.050252
 31
0.0
  0
ENDBLK
  5
4CA
100
AcDbEntity
  8
0
100
AcDbBlockEnd
  0
BLOCK
  5
587
100
AcDbEntity
  8
0
100
AcDbBlockBegin
  2
*X24
 70
     1
 10
0.0
 20
0.0
 30
0.0
  3
*X24
  1

  0
LINE
  5
56B
100
AcDbEntity
  8
0
 62
     0
100
AcDbLine
 10
-37.789989
 20
26.307209
 30
0.0
 11
-37.789989
 21
26.307209
 31
0.0
  0
LINE
  5
56C
100
AcDbEntity
  8
0
 62
     0
100
AcDbLine
 10
-35.092588
 20
28.376998
 30
0.0
 11
-35.092588
 21
28.376998
 31
0.0
  0
LINE
  5
56D
100
AcDbEntity
  8
0
 62
     0
100
AcDbLine
 10
-42.906168
 20
26.331747
 30
0.0
 11
-42.906168
 21
26.331747
 31
0.0
  0
LINE
  5
56E
100
AcDbEntity
  8
0
 62
     0
100
AcDbLine
 10
-40.32777
 20
28.310222
 30
0.0
 11
-40.32777
 21
28.310222
 31
0.0
  0
LINE
  5
56F
100
AcDbEntity
  8
0
 62
     0
100
AcDbLine
 10
-37.915976
 20
30.160857
 30
0.0
 11
-37.915976
 21
30.160857
 31
0.0
  0
LINE
  5
570
100
AcDbEntity
  8
0
 62
     0
100
AcDbLine
 10
-45.729557
 20
28.115606
 30
0.0
 11
-45.729557
 21
28.115606
 31
0.0
  0
LINE
  5
571
100
AcDbEntity
  8
0
 62
     0
100
AcDbLine
 10
-43.032155
 20
30.185395
 30
0.0
 11
-43.032155
 21
30.185395
 31
0.0
  0
LINE
  5
572
100
AcDbEntity
  8
0
 62
     0
100
AcDbLine
 10
-44.406244
 20
25.223614
 30
0.0
 11
-44.406244
 21
25.223614
 31
0.0
  0
LINE
  5
573
100
AcDbEntity
  8
0
 62
     0
100
AcDbLine
 10
-43.365227
 20
25.360666
 30
0.0
 11
-43.365227
 21
25.360666
 31
0.0
  0
LINE
  5
574
100
AcDbEntity
  8
0
 62
     0
100
AcDbLine
 10
-41.739257
 20
25.574729
 30
0.0
 11
-41.739257
 21
25.574729
 31
0.0
  0
LINE
  5
575
100
AcDbEntity
  8
0
 62
     0
100
AcDbLine
 10
-39.022698
 20
25.932371
 30
0.0
 11
-39.022698
 21
25.932371
 31
0.0
  0
LINE
  5
576
100
AcDbEntity
  8
0
 62
     0
100
AcDbLine
 10
-37.981681
 20
26.069423
 30
0.0
 11
-37.981681
 21
26.069423
 31
0.0
  0
LINE
  5
577
100
AcDbEntity
  8
0
 62
     0
100
AcDbLine
 10
-36.355712
 20
26.283486
 30
0.0
 11
-36.355712
 21
26.283486
 31
0.0
  0
LINE
  5
578
100
AcDbEntity
  8
0
 62
     0
100
AcDbLine
 10
-46.250236
 20
30.159149
 30
0.0
 11
-46.250236
 21
30.159149
 31
0.0
  0
LINE
  5
579
100
AcDbEntity
  8
0
 62
     0
100
AcDbLine
 10
-45.209219
 20
30.296201
 30
0.0
 11
-45.209219
 21
30.296201
 31
0.0
  0
LINE
  5
57A
100
AcDbEntity
  8
0
 62
     0
100
AcDbLine
 10
-43.583249
 20
30.510264
 30
0.0
 11
-43.583249
 21
30.510264
 31
0.0
  0
LINE
  5
57B
100
AcDbEntity
  8
0
 62
     0
100
AcDbLine
 10
-43.292959
 20
29.992636
 30
0.0
 11
-43.292959
 21
29.992636
 31
0.0
  0
LINE
  5
57C
100
AcDbEntity
  8
0
 62
     0
100
AcDbLine
 10
-42.449568
 20
29.455337
 30
0.0
 11
-42.449568
 21
29.455337
 31
0.0
  0
LINE
  5
57D
100
AcDbEntity
  8
0
 62
     0
100
AcDbLine
 10
-39.413358
 20
27.521058
 30
0.0
 11
-39.413358
 21
27.521058
 31
0.0
  0
LINE
  5
57E
100
AcDbEntity
  8
0
 62
     0
100
AcDbLine
 10
-37.064675
 20
30.003954
 30
0.0
 11
-37.064675
 21
30.003954
 31
0.0
  0
LINE
  5
57F
100
AcDbEntity
  8
0
 62
     0
100
AcDbLine
 10
-36.221284
 20
29.466655
 30
0.0
 11
-36.221284
 21
29.466655
 31
0.0
  0
LINE
  5
580
100
AcDbEntity
  8
0
 62
     0
100
AcDbLine
 10
-45.641642
 20
27.50974
 30
0.0
 11
-45.641642
 21
27.50974
 31
0.0
  0
LINE
  5
581
100
AcDbEntity
  8
0
 62
     0
100
AcDbLine
 10
-35.254096
 20
30.050252
 30
0.0
 11
-35.254096
 21
30.050252
 31
0.0
  0
LINE
  5
582
100
AcDbEntity
  8
0
 62
     0
100
AcDbLine
 10
-43.256998
 20
30.118995
 30
0.0
 11
-43.256998
 21
30.118995
 31
0.0
  0
LINE
  5
583
100
AcDbEntity
  8
0
 62
     0
100
AcDbLine
 10
-41.266349
 20
28.294901
 30
0.0
 11
-41.266349
 21
28.294901
 31
0.0
  0
LINE
  5
584
100
AcDbEntity
  8
0
 62
     0
100
AcDbLine
 10
-40.89771
 20
27.957106
 30
0.0
 11
-40.89771
 21
27.957106
 31
0.0
  0
LINE
  5
585
100
AcDbEntity
  8
0
 62
     0
100
AcDbLine
 10
-39.157736
 20
26.362713
 30
0.0
 11
-39.157736
 21
26.362713
 31
0.0
  0
LINE
  5
586
100
AcDbEntity
  8
0
 62
     0
100
AcDbLine
 10
-46.909964
 20
26.201755
 30
0.0
 11
-46.909964
 21
26.201755
 31
0.0
  0
ENDBLK
  5
588
100
AcDbEntity
  8
0
100
AcDbBlockEnd
  0
BLOCK
  5
4DF
100
AcDbEntity
  8
0
100
AcDbBlockBegin
  2
GLAS5-4X3DK
 70
     0
 10
0.0
 20
0.0
 30
0.0
  3
GLAS5-4X3DK
  1

  0
LINE
  5
499
100
AcDbEntity
  8
GLAS_MED_FOGNING
100
AcDbLine
 10
7.0
 20
35.0
 30
0.0
 11
3.0
 21
35.0
 31
0.0
  0
LINE
  5
49A
100
AcDbEntity
  8
GLAS_MED_FOGNING
100
AcDbLine
 10
7.0
 20
32.0
 30
0.0
 11
3.0
 21
32.0
 31
0.0
  0
LINE
  5
49B
100
AcDbEntity
  8
GLAS_MED_FOGNING
100
AcDbLine
 10
7.0
 20
34.0
 30
0.0
 11
3.0
 21
34.0
 31
0.0
  0
LINE
  5
49C
100
AcDbEntity
  8
GLAS_MED_FOGNING
100
AcDbLine
 10
7.0
 20
33.0
 30
0.0
 11
3.0
 21
33.0
 31
0.0
  0
LINE
  5
49D
100
AcDbEntity
  8
GLAS_MED_FOGNING
100
AcDbLine
 10
7.0
 20
36.0
 30
0.0
 11
3.0
 21
36.0
 31
0.0
  0
LINE
  5
49E
100
AcDbEntity
  8
GLAS_MED_FOGNING
100
AcDbLine
 10
7.0
 20
38.0
 30
0.0
 11
3.0
 21
38.0
 31
0.0
  0
LINE
  5
49F
100
AcDbEntity
  8
GLAS_MED_FOGNING
100
AcDbLine
 10
7.0
 20
37.0
 30
0.0
 11
3.0
 21
37.0
 31
0.0
  0
LINE
  5
4A0
100
AcDbEntity
  8
GLAS_MED_FOGNING
100
AcDbLine
 10
7.0
 20
40.0
 30
0.0
 11
3.0
 21
40.0
 31
0.0
  0
LINE
  5
4A1
100
AcDbEntity
  8
GLAS_MED_FOGNING
100
AcDbLine
 10
7.0
 20
39.0
 30
0.0
 11
3.0
 21
39.0
 31
0.0
  0
LINE
  5
4A2
100
AcDbEntity
  8
GLAS_MED_FOGNING
100
AcDbLine
 10
7.0
 20
41.0
 30
0.0
 11
3.0
 21
41.0
 31
0.0
  0
LINE
  5
4A3
100
AcDbEntity
  8
GLAS_MED_FOGNING
100
AcDbLine
 10
7.0
 20
31.0
 30
0.0
 11
3.0
 21
31.0
 31
0.0
  0
INSERT
  5
4A4
100
AcDbEntity
  8
GLAS_MED_FOGNING
100
AcDbBlockReference
  2
*X22
 10
50.0
 20
0.0
 30
0.0
1001
ACAD
1000
HATCH
1002
{
1070
    16
1000
AR-SAND
1040
2.0
1040
0.0
1002
}
  0
ARC
  5
4B3
100
AcDbEntity
  8
GLAS_MED_FOGNING
100
AcDbCircle
 10
3.0
 20
47.0
 30
0.0
 40
4.0
100
AcDbArc
 50
270.0
 51
0.0
  0
LINE
  5
4B4
100
AcDbEntity
  8
GLAS_MED_FOGNING
100
AcDbLine
 10
12.0
 20
47.0
 30
0.0
 11
12.0
 21
30.0
 31
0.0
  0
LINE
  5
4B5
100
AcDbEntity
  8
GLAS_MED_FOGNING
100
AcDbLine
 10
7.0
 20
47.0
 30
0.0
 11
7.0
 21
30.0
 31
0.0
  0
LINE
  5
4B6
100
AcDbEntity
  8
GLAS_MED_FOGNING
100
AcDbLine
 10
15.0
 20
34.0
 30
0.0
 11
12.0
 21
34.0
 31
0.0
  0
LINE
  5
4B7
100
AcDbEntity
  8
GLAS_MED_FOGNING
100
AcDbLine
 10
15.0
 20
33.0
 30
0.0
 11
12.0
 21
33.0
 31
0.0
  0
LINE
  5
4B8
100
AcDbEntity
  8
GLAS_MED_FOGNING
100
AcDbLine
 10
15.0
 20
32.0
 30
0.0
 11
12.0
 21
32.0
 31
0.0
  0
LINE
  5
4B9
100
AcDbEntity
  8
GLAS_MED_FOGNING
100
AcDbLine
 10
15.0
 20
31.0
 30
0.0
 11
12.0
 21
31.0
 31
0.0
  0
LINE
  5
4BA
100
AcDbEntity
  8
GLAS_MED_FOGNING
100
AcDbLine
 10
12.0
 20
30.0
 30
0.0
 11
7.0
 21
30.0
 31
0.0
  0
LINE
  5
4BB
100
AcDbEntity
  8
GLAS_MED_FOGNING
100
AcDbLine
 10
12.0
 20
25.0
 30
0.0
 11
7.0
 21
30.0
 31
0.0
  0
LINE
  5
4BC
100
AcDbEntity
  8
GLAS_MED_FOGNING
100
AcDbLine
 10
12.0
 20
30.0
 30
0.0
 11
7.0
 21
25.0
 31
0.0
  0
LINE
  5
4BD
100
AcDbEntity
  8
GLAS_MED_FOGNING
100
AcDbLine
 10
7.0
 20
30.0
 30
0.0
 11
7.0
 21
25.0
 31
0.0
  0
LINE
  5
4BE
100
AcDbEntity
  8
GLAS_MED_FOGNING
100
AcDbLine
 10
12.0
 20
30.0
 30
0.0
 11
12.0
 21
25.0
 31
0.0
  0
INSERT
  5
4BF
100
AcDbEntity
  8
GLAS_MED_FOGNING
100
AcDbBlockReference
  2
*X23
 10
50.0
 20
0.0
 30
0.0
1001
ACAD
1000
HATCH
1002
{
1070
    16
1000
AR-SAND
1040
2.0
1040
0.0
1002
}
  0
ARC
  5
4CB
100
AcDbEntity
  8
GLAS_MED_FOGNING
100
AcDbCircle
 10
15.0
 20
46.0
 30
0.0
 40
3.0
100
AcDbArc
 50
180.0
 51
270.0
  0
LINE
  5
4CC
100
AcDbEntity
  8
GLAS_MED_FOGNING
100
AcDbLine
 10
15.0
 20
40.0
 30
0.0
 11
12.0
 21
40.0
 31
0.0
  0
LINE
  5
4CD
100
AcDbEntity
  8
GLAS_MED_FOGNING
100
AcDbLine
 10
15.0
 20
39.0
 30
0.0
 11
12.0
 21
39.0
 31
0.0
  0
LINE
  5
4CE
100
AcDbEntity
  8
GLAS_MED_FOGNING
100
AcDbLine
 10
15.0
 20
38.0
 30
0.0
 11
12.0
 21
38.0
 31
0.0
  0
LINE
  5
4CF
100
AcDbEntity
  8
GLAS_MED_FOGNING
100
AcDbLine
 10
15.0
 20
37.0
 30
0.0
 11
12.0
 21
37.0
 31
0.0
  0
LINE
  5
4D0
100
AcDbEntity
  8
GLAS_MED_FOGNING
100
AcDbLine
 10
15.0
 20
36.0
 30
0.0
 11
12.0
 21
36.0
 31
0.0
  0
LINE
  5
4D1
100
AcDbEntity
  8
GLAS_MED_FOGNING
100
AcDbLine
 10
15.0
 20
35.0
 30
0.0
 11
12.0
 21
35.0
 31
0.0
  0
LINE
  5
4D2
100
AcDbEntity
  8
GLAS_MED_FOGNING
100
AcDbLine
 10
15.0
 20
41.0
 30
0.0
 11
12.0
 21
41.0
 31
0.0
  0
INSERT
  5
4D3
100
AcDbEntity
  8
GLAS_MED_FOGNING
100
AcDbBlockReference
  2
*X21
 10
50.0
 20
0.0
 30
0.0
1001
ACAD
1000
HATCH
1002
{
1070
    16
1000
AR-SAND
1040
2.0
1040
0.0
1002
}
  0
INSERT
  5
4D8
100
AcDbEntity
  8
GLAS_MED_FOGNING
100
AcDbBlockReference
  2
*X20
 10
50.0
 20
0.0
 30
0.0
1001
ACAD
1000
HATCH
1002
{
1070
    16
1000
AR-SAND
1040
2.0
1040
0.0
1002
}
  0
ENDBLK
  5
4E0
100
AcDbEntity
  8
0
100
AcDbBlockEnd
  0
BLOCK
  5
59B
100
AcDbEntity
  8
0
100
AcDbBlockBegin
  2
GLAS5-4X3
 70
     0
 10
0.0
 20
0.0
 30
0.0
  3
GLAS5-4X3
  1

  0
LINE
  5
55E
100
AcDbEntity
  8
GLAS_MED_FOGNING
100
AcDbLine
 10
7.0
 20
35.0
 30
0.0
 11
3.0
 21
35.0
 31
0.0
  0
LINE
  5
55F
100
AcDbEntity
  8
GLAS_MED_FOGNING
100
AcDbLine
 10
7.0
 20
32.0
 30
0.0
 11
3.0
 21
32.0
 31
0.0
  0
LINE
  5
560
100
AcDbEntity
  8
GLAS_MED_FOGNING
100
AcDbLine
 10
7.0
 20
34.0
 30
0.0
 11
3.0
 21
34.0
 31
0.0
  0
LINE
  5
561
100
AcDbEntity
  8
GLAS_MED_FOGNING
100
AcDbLine
 10
7.0
 20
33.0
 30
0.0
 11
3.0
 21
33.0
 31
0.0
  0
LINE
  5
562
100
AcDbEntity
  8
GLAS_MED_FOGNING
100
AcDbLine
 10
7.0
 20
36.0
 30
0.0
 11
3.0
 21
36.0
 31
0.0
  0
LINE
  5
563
100
AcDbEntity
  8
GLAS_MED_FOGNING
100
AcDbLine
 10
7.0
 20
38.0
 30
0.0
 11
3.0
 21
38.0
 31
0.0
  0
LINE
  5
564
100
AcDbEntity
  8
GLAS_MED_FOGNING
100
AcDbLine
 10
7.0
 20
37.0
 30
0.0
 11
3.0
 21
37.0
 31
0.0
  0
LINE
  5
565
100
AcDbEntity
  8
GLAS_MED_FOGNING
100
AcDbLine
 10
7.0
 20
40.0
 30
0.0
 11
3.0
 21
40.0
 31
0.0
  0
LINE
  5
566
100
AcDbEntity
  8
GLAS_MED_FOGNING
100
AcDbLine
 10
7.0
 20
39.0
 30
0.0
 11
3.0
 21
39.0
 31
0.0
  0
LINE
  5
567
100
AcDbEntity
  8
GLAS_MED_FOGNING
100
AcDbLine
 10
7.0
 20
41.0
 30
0.0
 11
3.0
 21
41.0
 31
0.0
  0
LINE
  5
568
100
AcDbEntity
  8
GLAS_MED_FOGNING
100
AcDbLine
 10
7.0
 20
31.0
 30
0.0
 11
3.0
 21
31.0
 31
0.0
  0
INSERT
  5
569
100
AcDbEntity
  8
GLAS_MED_FOGNING
100
AcDbBlockReference
  2
*X24
 10
50.0
 20
0.0
 30
0.0
1001
ACAD
1000
HATCH
1002
{
1070
    16
1000
AR-SAND
1040
2.0
1040
0.0
1002
}
  0
ARC
  5
589
100
AcDbEntity
  8
GLAS_MED_FOGNING
100
AcDbCircle
 10
3.0
 20
47.0
 30
0.0
 40
4.0
100
AcDbArc
 50
270.0
 51
0.0
  0
LINE
  5
58A
100
AcDbEntity
  8
GLAS_MED_FOGNING
100
AcDbLine
 10
7.0
 20
47.0
 30
0.0
 11
7.0
 21
30.0
 31
0.0
  0
LINE
  5
58B
100
AcDbEntity
  8
GLAS_MED_FOGNING
100
AcDbLine
 10
12.0
 20
47.0
 30
0.0
 11
12.0
 21
30.0
 31
0.0
  0
LINE
  5
58C
100
AcDbEntity
  8
GLAS_MED_FOGNING
100
AcDbLine
 10
15.0
 20
37.0
 30
0.0
 11
12.0
 21
37.0
 31
0.0
  0
LINE
  5
58D
100
AcDbEntity
  8
GLAS_MED_FOGNING
100
AcDbLine
 10
15.0
 20
36.0
 30
0.0
 11
12.0
 21
36.0
 31
0.0
  0
LINE
  5
58E
100
AcDbEntity
  8
GLAS_MED_FOGNING
100
AcDbLine
 10
15.0
 20
35.0
 30
0.0
 11
12.0
 21
35.0
 31
0.0
  0
LINE
  5
58F
100
AcDbEntity
  8
GLAS_MED_FOGNING
100
AcDbLine
 10
15.0
 20
34.0
 30
0.0
 11
12.0
 21
34.0
 31
0.0
  0
LINE
  5
590
100
AcDbEntity
  8
GLAS_MED_FOGNING
100
AcDbLine
 10
15.0
 20
33.0
 30
0.0
 11
12.0
 21
33.0
 31
0.0
  0
LINE
  5
591
100
AcDbEntity
  8
GLAS_MED_FOGNING
100
AcDbLine
 10
15.0
 20
32.0
 30
0.0
 11
12.0
 21
32.0
 31
0.0
  0
LINE
  5
592
100
AcDbEntity
  8
GLAS_MED_FOGNING
100
AcDbLine
 10
15.0
 20
31.0
 30
0.0
 11
12.0
 21
31.0
 31
0.0
  0
LINE
  5
593
100
AcDbEntity
  8
GLAS_MED_FOGNING
100
AcDbLine
 10
12.0
 20
30.0
 30
0.0
 11
7.0
 21
30.0
 31
0.0
  0
ARC
  5
594
100
AcDbEntity
  8
GLAS_MED_FOGNING
100
AcDbCircle
 10
15.0
 20
46.0
 30
0.0
 40
3.0
100
AcDbArc
 50
180.0
 51
270.0
  0
LINE
  5
595
100
AcDbEntity
  8
GLAS_MED_FOGNING
100
AcDbLine
 10
15.0
 20
40.0
 30
0.0
 11
12.0
 21
40.0
 31
0.0
  0
LINE
  5
596
100
AcDbEntity
  8
GLAS_MED_FOGNING
100
AcDbLine
 10
15.0
 20
39.0
 30
0.0
 11
12.0
 21
39.0
 31
0.0
  0
LINE
  5
597
100
AcDbEntity
  8
GLAS_MED_FOGNING
100
AcDbLine
 10
15.0
 20
38.0
 30
0.0
 11
12.0
 21
38.0
 31
0.0
  0
LINE
  5
598
100
AcDbEntity
  8
GLAS_MED_FOGNING
100
AcDbLine
 10
15.0
 20
41.0
 30
0.0
 11
12.0
 21
41.0
 31
0.0
  0
INSERT
  5
599
100
AcDbEntity
  8
GLAS_MED_FOGNING
100
AcDbBlockReference
  2
*X21
 10
50.0
 20
0.0
 30
0.0
1001
ACAD
1000
HATCH
1002
{
1070
    16
1000
AR-SAND
1040
2.0
1040
0.0
1002
}
  0
INSERT
  5
59A
100
AcDbEntity
  8
GLAS_MED_FOGNING
100
AcDbBlockReference
  2
*X20
 10
50.0
 20
0.0
 30
0.0
1001
ACAD
1000
HATCH
1002
{
1070
    16
1000
AR-SAND
1040
2.0
1040
0.0
1002
}
  0
ENDBLK
  5
59C
100
AcDbEntity
  8
0
100
AcDbBlockEnd
  0
BLOCK
  5
5A1
100
AcDbEntity
  8
0
100
AcDbBlockBegin
  2
50_SP43520
 70
     0
 10
0.0
 20
0.0
 30
0.0
  3
50_SP43520
  1

  0
INSERT
  5
55C
100
AcDbEntity
  8
0
100
AcDbBlockReference
  2
GLAS5-4X3
 10
-50.0
 20
0.0
 30
0.0
  0
LWPOLYLINE
  5
59D
100
AcDbEntity
  8
CENTRUM
100
AcDbPolyline
 90
        4
 70
     0
 43
0.0
 10
0.0
 20
57.5
 10
-38.0
 20
57.5
 10
-43.0
 20
57.5
 10
-50.0
 20
57.5
  0
LINE
  5
59E
100
AcDbEntity
  8
GLAS_MED_FOGNING
100
AcDbLine
 10
-38.0
 20
57.5
 30
0.0
 11
-38.0
 21
47.0
 31
0.0
  0
LINE
  5
59F
100
AcDbEntity
  8
GLAS_MED_FOGNING
100
AcDbLine
 10
-43.0
 20
57.5
 30
0.0
 11
-43.0
 21
47.0
 31
0.0
  0
INSERT
  5
5A0
100
AcDbEntity
  8
0
100
AcDbBlockReference
  2
SP43520
 10
0.0
 20
0.0
 30
0.0
  0
ENDBLK
  5
5A2
100
AcDbEntity
  8
0
100
AcDbBlockEnd
  0
BLOCK
  5
4EB
100
AcDbEntity
  8
0
100
AcDbBlockBegin
  2
50_SP43520DK
 70
     0
 10
0.0
 20
0.0
 30
0.0
  3
50_SP43520DK
  1

  0
INSERT
  5
497
100
AcDbEntity
  8
0
100
AcDbBlockReference
  2
GLAS5-4X3DK
 10
-50.0
 20
0.0
 30
0.0
  0
LWPOLYLINE
  5
4E1
100
AcDbEntity
  8
CENTRUM
100
AcDbPolyline
 90
        4
 70
     0
 43
0.0
 10
0.0
 20
57.5
 10
-38.0
 20
57.5
 10
-43.0
 20
57.5
 10
-50.0
 20
57.5
  0
INSERT
  5
4E2
100
AcDbEntity
  8
0
100
AcDbBlockReference
  2
SP43520
 10
0.0
 20
0.0
 30
0.0
  0
LINE
  5
4E9
100
AcDbEntity
  8
GLAS_MED_FOGNING
100
AcDbLine
 10
-43.0
 20
57.5
 30
0.0
 11
-43.0
 21
47.0
 31
0.0
  0
LINE
  5
4EA
100
AcDbEntity
  8
GLAS_MED_FOGNING
100
AcDbLine
 10
-38.0
 20
57.5
 30
0.0
 11
-38.0
 21
47.0
 31
0.0
  0
ENDBLK
  5
4EC
100
AcDbEntity
  8
0
100
AcDbBlockEnd
  0
BLOCK
  5
94
100
AcDbEntity
  8
0
100
AcDbBlockBegin
  2
*X29
 70
     1
 10
0.0
 20
0.0
 30
0.0
  3
*X29
  1

  0
LINE
  5
8C
100
AcDbEntity
  8
0
 62
     0
100
AcDbLine
 10
-43.410115
 20
41.746337
 30
0.0
 11
-43.410115
 21
41.746337
 31
0.0
  0
LINE
  5
8D
100
AcDbEntity
  8
0
 62
     0
100
AcDbLine
 10
-41.887688
 20
41.090091
 30
0.0
 11
-41.887688
 21
41.090091
 31
0.0
  0
LINE
  5
8E
100
AcDbEntity
  8
0
 62
     0
100
AcDbLine
 10
-41.015121
 20
46.383268
 30
0.0
 11
-41.015121
 21
46.383268
 31
0.0
  0
LINE
  5
8F
100
AcDbEntity
  8
0
 62
     0
100
AcDbLine
 10
-44.259128
 20
42.545671
 30
0.0
 11
-44.259128
 21
42.545671
 31
0.0
  0
LINE
  5
90
100
AcDbEntity
  8
0
 62
     0
100
AcDbLine
 10
-41.910445
 20
45.028568
 30
0.0
 11
-41.910445
 21
45.028568
 31
0.0
  0
LINE
  5
91
100
AcDbEntity
  8
0
 62
     0
100
AcDbLine
 10
-41.067054
 20
44.491268
 30
0.0
 11
-41.067054
 21
44.491268
 31
0.0
  0
LINE
  5
92
100
AcDbEntity
  8
0
 62
     0
100
AcDbLine
 10
-41.539629
 20
43.074448
 30
0.0
 11
-41.539629
 21
43.074448
 31
0.0
  0
LINE
  5
93
100
AcDbEntity
  8
0
 62
     0
100
AcDbLine
 10
-41.17099
 20
42.736653
 30
0.0
 11
-41.17099
 21
42.736653
 31
0.0
  0
ENDBLK
  5
95
100
AcDbEntity
  8
0
100
AcDbBlockEnd
  0
BLOCK
  5
83
100
AcDbEntity
  8
0
100
AcDbBlockBegin
  2
*X30
 70
     1
 10
0.0
 20
0.0
 30
0.0
  3
*X30
  1

  0
LINE
  5
7B
100
AcDbEntity
  8
0
 62
     0
100
AcDbLine
 10
-32.89215
 20
41.916415
 30
0.0
 11
-32.89215
 21
41.916415
 31
0.0
  0
LINE
  5
7C
100
AcDbEntity
  8
0
 62
     0
100
AcDbLine
 10
-33.787584
 20
42.15649
 30
0.0
 11
-33.787584
 21
42.15649
 31
0.0
  0
LINE
  5
7D
100
AcDbEntity
  8
0
 62
     0
100
AcDbLine
 10
-32.746566
 20
42.293542
 30
0.0
 11
-32.746566
 21
42.293542
 31
0.0
  0
LINE
  5
7E
100
AcDbEntity
  8
0
 62
     0
100
AcDbLine
 10
-31.120597
 20
42.507605
 30
0.0
 11
-31.120597
 21
42.507605
 31
0.0
  0
LINE
  5
7F
100
AcDbEntity
  8
0
 62
     0
100
AcDbLine
 10
-34.83877
 20
44.502586
 30
0.0
 11
-34.83877
 21
44.502586
 31
0.0
  0
LINE
  5
80
100
AcDbEntity
  8
0
 62
     0
100
AcDbLine
 10
-31.802561
 20
42.568308
 30
0.0
 11
-31.802561
 21
42.568308
 31
0.0
  0
LINE
  5
81
100
AcDbEntity
  8
0
 62
     0
100
AcDbLine
 10
-33.418762
 20
42.897611
 30
0.0
 11
-33.418762
 21
42.897611
 31
0.0
  0
LINE
  5
82
100
AcDbEntity
  8
0
 62
     0
100
AcDbLine
 10
-31.428114
 20
41.073518
 30
0.0
 11
-31.428114
 21
41.073518
 31
0.0
  0
ENDBLK
  5
84
100
AcDbEntity
  8
0
100
AcDbBlockEnd
  0
BLOCK
  5
58
100
AcDbEntity
  8
0
100
AcDbBlockBegin
  2
*X31
 70
     1
 10
0.0
 20
0.0
 30
0.0
  3
*X31
  1

  0
LINE
  5
49
100
AcDbEntity
  8
0
 62
     0
100
AcDbLine
 10
-42.906168
 20
26.331747
 30
0.0
 11
-42.906168
 21
26.331747
 31
0.0
  0
LINE
  5
4A
100
AcDbEntity
  8
0
 62
     0
100
AcDbLine
 10
-45.729557
 20
28.115606
 30
0.0
 11
-45.729557
 21
28.115606
 31
0.0
  0
LINE
  5
4B
100
AcDbEntity
  8
0
 62
     0
100
AcDbLine
 10
-43.032155
 20
30.185395
 30
0.0
 11
-43.032155
 21
30.185395
 31
0.0
  0
LINE
  5
4C
100
AcDbEntity
  8
0
 62
     0
100
AcDbLine
 10
-44.406244
 20
25.223614
 30
0.0
 11
-44.406244
 21
25.223614
 31
0.0
  0
LINE
  5
4D
100
AcDbEntity
  8
0
 62
     0
100
AcDbLine
 10
-43.365227
 20
25.360666
 30
0.0
 11
-43.365227
 21
25.360666
 31
0.0
  0
LINE
  5
4E
100
AcDbEntity
  8
0
 62
     0
100
AcDbLine
 10
-41.739257
 20
25.574729
 30
0.0
 11
-41.739257
 21
25.574729
 31
0.0
  0
LINE
  5
4F
100
AcDbEntity
  8
0
 62
     0
100
AcDbLine
 10
-46.250236
 20
30.159149
 30
0.0
 11
-46.250236
 21
30.159149
 31
0.0
  0
LINE
  5
50
100
AcDbEntity
  8
0
 62
     0
100
AcDbLine
 10
-45.209219
 20
30.296201
 30
0.0
 11
-45.209219
 21
30.296201
 31
0.0
  0
LINE
  5
51
100
AcDbEntity
  8
0
 62
     0
100
AcDbLine
 10
-43.583249
 20
30.510264
 30
0.0
 11
-43.583249
 21
30.510264
 31
0.0
  0
LINE
  5
52
100
AcDbEntity
  8
0
 62
     0
100
AcDbLine
 10
-45.641642
 20
27.50974
 30
0.0
 11
-45.641642
 21
27.50974
 31
0.0
  0
LINE
  5
53
100
AcDbEntity
  8
0
 62
     0
100
AcDbLine
 10
-43.292959
 20
29.992636
 30
0.0
 11
-43.292959
 21
29.992636
 31
0.0
  0
LINE
  5
54
100
AcDbEntity
  8
0
 62
     0
100
AcDbLine
 10
-42.449568
 20
29.455337
 30
0.0
 11
-42.449568
 21
29.455337
 31
0.0
  0
LINE
  5
55
100
AcDbEntity
  8
0
 62
     0
100
AcDbLine
 10
-43.256998
 20
30.118995
 30
0.0
 11
-43.256998
 21
30.118995
 31
0.0
  0
LINE
  5
56
100
AcDbEntity
  8
0
 62
     0
100
AcDbLine
 10
-41.266349
 20
28.294901
 30
0.0
 11
-41.266349
 21
28.294901
 31
0.0
  0
LINE
  5
57
100
AcDbEntity
  8
0
 62
     0
100
AcDbLine
 10
-46.909964
 20
26.201755
 30
0.0
 11
-46.909964
 21
26.201755
 31
0.0
  0
ENDBLK
  5
59
100
AcDbEntity
  8
0
100
AcDbBlockEnd
  0
BLOCK
  5
77
100
AcDbEntity
  8
0
100
AcDbBlockBegin
  2
*X32
 70
     1
 10
0.0
 20
0.0
 30
0.0
  3
*X32
  1

  0
LINE
  5
6B
100
AcDbEntity
  8
0
 62
     0
100
AcDbLine
 10
-32.388203
 20
26.501825
 30
0.0
 11
-32.388203
 21
26.501825
 31
0.0
  0
LINE
  5
6C
100
AcDbEntity
  8
0
 62
     0
100
AcDbLine
 10
-32.514189
 20
30.355473
 30
0.0
 11
-32.514189
 21
30.355473
 31
0.0
  0
LINE
  5
6D
100
AcDbEntity
  8
0
 62
     0
100
AcDbLine
 10
-33.639153
 20
26.641128
 30
0.0
 11
-33.639153
 21
26.641128
 31
0.0
  0
LINE
  5
6E
100
AcDbEntity
  8
0
 62
     0
100
AcDbLine
 10
-32.598136
 20
26.778181
 30
0.0
 11
-32.598136
 21
26.778181
 31
0.0
  0
LINE
  5
6F
100
AcDbEntity
  8
0
 62
     0
100
AcDbLine
 10
-30.972166
 20
26.992244
 30
0.0
 11
-30.972166
 21
26.992244
 31
0.0
  0
LINE
  5
70
100
AcDbEntity
  8
0
 62
     0
100
AcDbLine
 10
-33.185075
 20
27.532376
 30
0.0
 11
-33.185075
 21
27.532376
 31
0.0
  0
LINE
  5
71
100
AcDbEntity
  8
0
 62
     0
100
AcDbLine
 10
-29.221135
 20
25.007068
 30
0.0
 11
-29.221135
 21
25.007068
 31
0.0
  0
LINE
  5
72
100
AcDbEntity
  8
0
 62
     0
100
AcDbLine
 10
-30.836392
 20
30.015272
 30
0.0
 11
-30.836392
 21
30.015272
 31
0.0
  0
LINE
  5
73
100
AcDbEntity
  8
0
 62
     0
100
AcDbLine
 10
-34.885457
 20
29.712457
 30
0.0
 11
-34.885457
 21
29.712457
 31
0.0
  0
LINE
  5
74
100
AcDbEntity
  8
0
 62
     0
100
AcDbLine
 10
-33.145483
 20
28.118064
 30
0.0
 11
-33.145483
 21
28.118064
 31
0.0
  0
LINE
  5
75
100
AcDbEntity
  8
0
 62
     0
100
AcDbLine
 10
-31.154834
 20
26.293971
 30
0.0
 11
-31.154834
 21
26.293971
 31
0.0
  0
LINE
  5
76
100
AcDbEntity
  8
0
 62
     0
100
AcDbLine
 10
-30.786195
 20
25.956176
 30
0.0
 11
-30.786195
 21
25.956176
 31
0.0
  0
ENDBLK
  5
78
100
AcDbEntity
  8
0
100
AcDbBlockEnd
  0
BLOCK
  5
79A
100
AcDbEntity
  8
0
100
AcDbBlockBegin
  2
GLAS6-6X5DK
 70
     0
 10
0.0
 20
0.0
 30
0.0
  3
GLAS6-6X5DK
  1

  0
LINE
  5
777
100
AcDbEntity
  8
GLAS_MED_FOGNING
100
AcDbLine
 10
15.0
 20
49.0
 30
0.0
 11
15.0
 21
30.0
 31
0.0
  0
LINE
  5
778
100
AcDbEntity
  8
GLAS_MED_FOGNING
100
AcDbLine
 10
9.0
 20
49.0
 30
0.0
 11
9.0
 21
30.0
 31
0.0
  0
LINE
  5
779
100
AcDbEntity
  8
GLAS_MED_FOGNING
100
AcDbLine
 10
15.0
 20
30.0
 30
0.0
 11
9.0
 21
25.0
 31
0.0
  0
LINE
  5
77A
100
AcDbEntity
  8
GLAS_MED_FOGNING
100
AcDbLine
 10
9.0
 20
30.0
 30
0.0
 11
15.0
 21
25.0
 31
0.0
  0
LINE
  5
77B
100
AcDbEntity
  8
GLAS_MED_FOGNING
100
AcDbLine
 10
15.0
 20
30.0
 30
0.0
 11
9.0
 21
30.0
 31
0.0
  0
LINE
  5
77C
100
AcDbEntity
  8
GLAS_MED_FOGNING
100
AcDbLine
 10
9.0
 20
31.0
 30
0.0
 11
3.0
 21
31.0
 31
0.0
  0
LINE
  5
77D
100
AcDbEntity
  8
GLAS_MED_FOGNING
100
AcDbLine
 10
9.0
 20
33.0
 30
0.0
 11
3.0
 21
33.0
 31
0.0
  0
LINE
  5
77E
100
AcDbEntity
  8
GLAS_MED_FOGNING
100
AcDbLine
 10
9.0
 20
34.0
 30
0.0
 11
3.0
 21
34.0
 31
0.0
  0
LINE
  5
77F
100
AcDbEntity
  8
GLAS_MED_FOGNING
100
AcDbLine
 10
9.0
 20
32.0
 30
0.0
 11
3.0
 21
32.0
 31
0.0
  0
LINE
  5
780
100
AcDbEntity
  8
GLAS_MED_FOGNING
100
AcDbLine
 10
9.0
 20
30.0
 30
0.0
 11
9.0
 21
25.0
 31
0.0
  0
INSERT
  5
781
100
AcDbEntity
  8
GLAS_MED_FOGNING
100
AcDbBlockReference
  2
*X31
 10
50.0
 20
0.0
 30
0.0
1001
ACAD
1000
HATCH
1002
{
1070
    16
1000
AR-SAND
1040
2.0
1040
0.0
1002
}
  0
LINE
  5
782
100
AcDbEntity
  8
GLAS_MED_FOGNING
100
AcDbLine
 10
20.0
 20
31.0
 30
0.0
 11
15.0
 21
31.0
 31
0.0
  0
LINE
  5
783
100
AcDbEntity
  8
GLAS_MED_FOGNING
100
AcDbLine
 10
20.0
 20
34.0
 30
0.0
 11
15.0
 21
34.0
 31
0.0
  0
LINE
  5
784
100
AcDbEntity
  8
GLAS_MED_FOGNING
100
AcDbLine
 10
20.0
 20
33.0
 30
0.0
 11
15.0
 21
33.0
 31
0.0
  0
LINE
  5
785
100
AcDbEntity
  8
GLAS_MED_FOGNING
100
AcDbLine
 10
20.0
 20
32.0
 30
0.0
 11
15.0
 21
32.0
 31
0.0
  0
LINE
  5
786
100
AcDbEntity
  8
GLAS_MED_FOGNING
100
AcDbLine
 10
15.0
 20
30.0
 30
0.0
 11
15.0
 21
25.0
 31
0.0
  0
INSERT
  5
787
100
AcDbEntity
  8
GLAS_MED_FOGNING
100
AcDbBlockReference
  2
*X32
 10
50.0
 20
0.0
 30
0.0
1001
ACAD
1000
HATCH
1002
{
1070
    16
1000
AR-SAND
1040
2.0
1040
0.0
1002
}
  0
ARC
  5
788
100
AcDbEntity
  8
GLAS_MED_FOGNING
100
AcDbCircle
 10
20.0
 20
48.0
 30
0.0
 40
5.0
100
AcDbArc
 50
180.0
 51
270.0
  0
ARC
  5
789
100
AcDbEntity
  8
GLAS_MED_FOGNING
100
AcDbCircle
 10
3.0
 20
49.0
 30
0.0
 40
6.0
100
AcDbArc
 50
270.0
 51
0.0
  0
INSERT
  5
78A
100
AcDbEntity
  8
GLAS_MED_FOGNING
100
AcDbBlockReference
  2
*X29
 10
50.0
 20
0.0
 30
0.0
1001
ACAD
1000
HATCH
1002
{
1070
    16
1000
AR-SAND
1040
2.0
1040
0.0
1002
}
  0
LINE
  5
78B
100
AcDbEntity
  8
GLAS_MED_FOGNING
100
AcDbLine
 10
9.0
 20
41.0
 30
0.0
 11
3.0
 21
41.0
 31
0.0
  0
LINE
  5
78C
100
AcDbEntity
  8
GLAS_MED_FOGNING
100
AcDbLine
 10
9.0
 20
39.0
 30
0.0
 11
3.0
 21
39.0
 31
0.0
  0
LINE
  5
78D
100
AcDbEntity
  8
GLAS_MED_FOGNING
100
AcDbLine
 10
9.0
 20
40.0
 30
0.0
 11
3.0
 21
40.0
 31
0.0
  0
LINE
  5
78E
100
AcDbEntity
  8
GLAS_MED_FOGNING
100
AcDbLine
 10
9.0
 20
37.0
 30
0.0
 11
3.0
 21
37.0
 31
0.0
  0
LINE
  5
78F
100
AcDbEntity
  8
GLAS_MED_FOGNING
100
AcDbLine
 10
9.0
 20
38.0
 30
0.0
 11
3.0
 21
38.0
 31
0.0
  0
LINE
  5
790
100
AcDbEntity
  8
GLAS_MED_FOGNING
100
AcDbLine
 10
9.0
 20
36.0
 30
0.0
 11
3.0
 21
36.0
 31
0.0
  0
LINE
  5
791
100
AcDbEntity
  8
GLAS_MED_FOGNING
100
AcDbLine
 10
9.0
 20
35.0
 30
0.0
 11
3.0
 21
35.0
 31
0.0
  0
LINE
  5
792
100
AcDbEntity
  8
GLAS_MED_FOGNING
100
AcDbLine
 10
20.0
 20
41.0
 30
0.0
 11
15.0
 21
41.0
 31
0.0
  0
LINE
  5
793
100
AcDbEntity
  8
GLAS_MED_FOGNING
100
AcDbLine
 10
20.0
 20
40.0
 30
0.0
 11
15.0
 21
40.0
 31
0.0
  0
LINE
  5
794
100
AcDbEntity
  8
GLAS_MED_FOGNING
100
AcDbLine
 10
20.0
 20
39.0
 30
0.0
 11
15.0
 21
39.0
 31
0.0
  0
LINE
  5
795
100
AcDbEntity
  8
GLAS_MED_FOGNING
100
AcDbLine
 10
20.0
 20
38.0
 30
0.0
 11
15.0
 21
38.0
 31
0.0
  0
LINE
  5
796
100
AcDbEntity
  8
GLAS_MED_FOGNING
100
AcDbLine
 10
20.0
 20
37.0
 30
0.0
 11
15.0
 21
37.0
 31
0.0
  0
LINE
  5
797
100
AcDbEntity
  8
GLAS_MED_FOGNING
100
AcDbLine
 10
20.0
 20
36.0
 30
0.0
 11
15.0
 21
36.0
 31
0.0
  0
LINE
  5
798
100
AcDbEntity
  8
GLAS_MED_FOGNING
100
AcDbLine
 10
20.0
 20
35.0
 30
0.0
 11
15.0
 21
35.0
 31
0.0
  0
INSERT
  5
799
100
AcDbEntity
  8
GLAS_MED_FOGNING
100
AcDbBlockReference
  2
*X30
 10
50.0
 20
0.0
 30
0.0
1001
ACAD
1000
HATCH
1002
{
1070
    16
1000
AR-SAND
1040
2.0
1040
0.0
1002
}
  0
ENDBLK
  5
79B
100
AcDbEntity
  8
0
100
AcDbBlockEnd
  0
BLOCK
  5
8BC
100
AcDbEntity
  8
0
100
AcDbBlockBegin
  2
*X34
 70
     1
 10
0.0
 20
0.0
 30
0.0
  3
*X34
  1

  0
LINE
  5
897
100
AcDbEntity
  8
0
 62
     0
100
AcDbLine
 10
-37.789989
 20
26.307209
 30
0.0
 11
-37.789989
 21
26.307209
 31
0.0
  0
LINE
  5
898
100
AcDbEntity
  8
0
 62
     0
100
AcDbLine
 10
-35.092588
 20
28.376998
 30
0.0
 11
-35.092588
 21
28.376998
 31
0.0
  0
LINE
  5
899
100
AcDbEntity
  8
0
 62
     0
100
AcDbLine
 10
-32.514189
 20
30.355473
 30
0.0
 11
-32.514189
 21
30.355473
 31
0.0
  0
LINE
  5
89A
100
AcDbEntity
  8
0
 62
     0
100
AcDbLine
 10
-42.906168
 20
26.331747
 30
0.0
 11
-42.906168
 21
26.331747
 31
0.0
  0
LINE
  5
89B
100
AcDbEntity
  8
0
 62
     0
100
AcDbLine
 10
-40.32777
 20
28.310222
 30
0.0
 11
-40.32777
 21
28.310222
 31
0.0
  0
LINE
  5
89C
100
AcDbEntity
  8
0
 62
     0
100
AcDbLine
 10
-45.729557
 20
28.115606
 30
0.0
 11
-45.729557
 21
28.115606
 31
0.0
  0
LINE
  5
89D
100
AcDbEntity
  8
0
 62
     0
100
AcDbLine
 10
-43.032155
 20
30.185395
 30
0.0
 11
-43.032155
 21
30.185395
 31
0.0
  0
LINE
  5
89E
100
AcDbEntity
  8
0
 62
     0
100
AcDbLine
 10
-32.388203
 20
26.501825
 30
0.0
 11
-32.388203
 21
26.501825
 31
0.0
  0
LINE
  5
89F
100
AcDbEntity
  8
0
 62
     0
100
AcDbLine
 10
-44.406244
 20
25.223614
 30
0.0
 11
-44.406244
 21
25.223614
 31
0.0
  0
LINE
  5
8A0
100
AcDbEntity
  8
0
 62
     0
100
AcDbLine
 10
-43.365227
 20
25.360666
 30
0.0
 11
-43.365227
 21
25.360666
 31
0.0
  0
LINE
  5
8A1
100
AcDbEntity
  8
0
 62
     0
100
AcDbLine
 10
-41.739257
 20
25.574729
 30
0.0
 11
-41.739257
 21
25.574729
 31
0.0
  0
LINE
  5
8A2
100
AcDbEntity
  8
0
 62
     0
100
AcDbLine
 10
-39.022698
 20
25.932371
 30
0.0
 11
-39.022698
 21
25.932371
 31
0.0
  0
LINE
  5
8A3
100
AcDbEntity
  8
0
 62
     0
100
AcDbLine
 10
-37.981681
 20
26.069423
 30
0.0
 11
-37.981681
 21
26.069423
 31
0.0
  0
LINE
  5
8A4
100
AcDbEntity
  8
0
 62
     0
100
AcDbLine
 10
-36.355712
 20
26.283486
 30
0.0
 11
-36.355712
 21
26.283486
 31
0.0
  0
LINE
  5
8A5
100
AcDbEntity
  8
0
 62
     0
100
AcDbLine
 10
-33.639153
 20
26.641128
 30
0.0
 11
-33.639153
 21
26.641128
 31
0.0
  0
LINE
  5
8A6
100
AcDbEntity
  8
0
 62
     0
100
AcDbLine
 10
-32.598136
 20
26.778181
 30
0.0
 11
-32.598136
 21
26.778181
 31
0.0
  0
LINE
  5
8A7
100
AcDbEntity
  8
0
 62
     0
100
AcDbLine
 10
-30.972166
 20
26.992244
 30
0.0
 11
-30.972166
 21
26.992244
 31
0.0
  0
LINE
  5
8A8
100
AcDbEntity
  8
0
 62
     0
100
AcDbLine
 10
-46.250236
 20
30.159149
 30
0.0
 11
-46.250236
 21
30.159149
 31
0.0
  0
LINE
  5
8A9
100
AcDbEntity
  8
0
 62
     0
100
AcDbLine
 10
-45.209219
 20
30.296201
 30
0.0
 11
-45.209219
 21
30.296201
 31
0.0
  0
LINE
  5
8AA
100
AcDbEntity
  8
0
 62
     0
100
AcDbLine
 10
-43.583249
 20
30.510264
 30
0.0
 11
-43.583249
 21
30.510264
 31
0.0
  0
LINE
  5
8AB
100
AcDbEntity
  8
0
 62
     0
100
AcDbLine
 10
-43.292959
 20
29.992636
 30
0.0
 11
-43.292959
 21
29.992636
 31
0.0
  0
LINE
  5
8AC
100
AcDbEntity
  8
0
 62
     0
100
AcDbLine
 10
-42.449568
 20
29.455337
 30
0.0
 11
-42.449568
 21
29.455337
 31
0.0
  0
LINE
  5
8AD
100
AcDbEntity
  8
0
 62
     0
100
AcDbLine
 10
-39.413358
 20
27.521058
 30
0.0
 11
-39.413358
 21
27.521058
 31
0.0
  0
LINE
  5
8AE
100
AcDbEntity
  8
0
 62
     0
100
AcDbLine
 10
-36.221284
 20
29.466655
 30
0.0
 11
-36.221284
 21
29.466655
 31
0.0
  0
LINE
  5
8AF
100
AcDbEntity
  8
0
 62
     0
100
AcDbLine
 10
-33.185075
 20
27.532376
 30
0.0
 11
-33.185075
 21
27.532376
 31
0.0
  0
LINE
  5
8B0
100
AcDbEntity
  8
0
 62
     0
100
AcDbLine
 10
-29.221135
 20
25.007068
 30
0.0
 11
-29.221135
 21
25.007068
 31
0.0
  0
LINE
  5
8B1
100
AcDbEntity
  8
0
 62
     0
100
AcDbLine
 10
-30.836392
 20
30.015272
 30
0.0
 11
-30.836392
 21
30.015272
 31
0.0
  0
LINE
  5
8B2
100
AcDbEntity
  8
0
 62
     0
100
AcDbLine
 10
-45.641642
 20
27.50974
 30
0.0
 11
-45.641642
 21
27.50974
 31
0.0
  0
LINE
  5
8B3
100
AcDbEntity
  8
0
 62
     0
100
AcDbLine
 10
-34.885457
 20
29.712457
 30
0.0
 11
-34.885457
 21
29.712457
 31
0.0
  0
LINE
  5
8B4
100
AcDbEntity
  8
0
 62
     0
100
AcDbLine
 10
-33.145483
 20
28.118064
 30
0.0
 11
-33.145483
 21
28.118064
 31
0.0
  0
LINE
  5
8B5
100
AcDbEntity
  8
0
 62
     0
100
AcDbLine
 10
-31.154834
 20
26.293971
 30
0.0
 11
-31.154834
 21
26.293971
 31
0.0
  0
LINE
  5
8B6
100
AcDbEntity
  8
0
 62
     0
100
AcDbLine
 10
-30.786195
 20
25.956176
 30
0.0
 11
-30.786195
 21
25.956176
 31
0.0
  0
LINE
  5
8B7
100
AcDbEntity
  8
0
 62
     0
100
AcDbLine
 10
-43.256998
 20
30.118995
 30
0.0
 11
-43.256998
 21
30.118995
 31
0.0
  0
LINE
  5
8B8
100
AcDbEntity
  8
0
 62
     0
100
AcDbLine
 10
-41.266349
 20
28.294901
 30
0.0
 11
-41.266349
 21
28.294901
 31
0.0
  0
LINE
  5
8B9
100
AcDbEntity
  8
0
 62
     0
100
AcDbLine
 10
-40.89771
 20
27.957106
 30
0.0
 11
-40.89771
 21
27.957106
 31
0.0
  0
LINE
  5
8BA
100
AcDbEntity
  8
0
 62
     0
100
AcDbLine
 10
-39.157736
 20
26.362713
 30
0.0
 11
-39.157736
 21
26.362713
 31
0.0
  0
LINE
  5
8BB
100
AcDbEntity
  8
0
 62
     0
100
AcDbLine
 10
-46.909964
 20
26.201755
 30
0.0
 11
-46.909964
 21
26.201755
 31
0.0
  0
ENDBLK
  5
8BD
100
AcDbEntity
  8
0
100
AcDbBlockEnd
  0
BLOCK
  5
8DB
100
AcDbEntity
  8
0
100
AcDbBlockBegin
  2
GLAS6-6X5
 70
     0
 10
0.0
 20
0.0
 30
0.0
  3
GLAS6-6X5
  1

  0
INSERT
  5
895
100
AcDbEntity
  8
GLAS_MED_FOGNING
100
AcDbBlockReference
  2
*X34
 10
50.0
 20
0.0
 30
0.0
1001
ACAD
1000
HATCH
1002
{
1070
    16
1000
AR-SAND
1040
2.0
1040
0.0
1002
}
  0
LINE
  5
8BE
100
AcDbEntity
  8
GLAS_MED_FOGNING
100
AcDbLine
 10
9.0
 20
49.0
 30
0.0
 11
9.0
 21
30.0
 31
0.0
  0
LINE
  5
8BF
100
AcDbEntity
  8
GLAS_MED_FOGNING
100
AcDbLine
 10
15.0
 20
49.0
 30
0.0
 11
15.0
 21
30.0
 31
0.0
  0
LINE
  5
8C0
100
AcDbEntity
  8
GLAS_MED_FOGNING
100
AcDbLine
 10
15.0
 20
30.0
 30
0.0
 11
9.0
 21
30.0
 31
0.0
  0
LINE
  5
8C1
100
AcDbEntity
  8
GLAS_MED_FOGNING
100
AcDbLine
 10
9.0
 20
32.0
 30
0.0
 11
3.0
 21
32.0
 31
0.0
  0
LINE
  5
8C2
100
AcDbEntity
  8
GLAS_MED_FOGNING
100
AcDbLine
 10
9.0
 20
34.0
 30
0.0
 11
3.0
 21
34.0
 31
0.0
  0
LINE
  5
8C3
100
AcDbEntity
  8
GLAS_MED_FOGNING
100
AcDbLine
 10
9.0
 20
33.0
 30
0.0
 11
3.0
 21
33.0
 31
0.0
  0
LINE
  5
8C4
100
AcDbEntity
  8
GLAS_MED_FOGNING
100
AcDbLine
 10
9.0
 20
35.0
 30
0.0
 11
3.0
 21
35.0
 31
0.0
  0
LINE
  5
8C5
100
AcDbEntity
  8
GLAS_MED_FOGNING
100
AcDbLine
 10
9.0
 20
36.0
 30
0.0
 11
3.0
 21
36.0
 31
0.0
  0
LINE
  5
8C6
100
AcDbEntity
  8
GLAS_MED_FOGNING
100
AcDbLine
 10
9.0
 20
37.0
 30
0.0
 11
3.0
 21
37.0
 31
0.0
  0
LINE
  5
8C7
100
AcDbEntity
  8
GLAS_MED_FOGNING
100
AcDbLine
 10
9.0
 20
31.0
 30
0.0
 11
3.0
 21
31.0
 31
0.0
  0
LINE
  5
8C8
100
AcDbEntity
  8
GLAS_MED_FOGNING
100
AcDbLine
 10
20.0
 20
32.0
 30
0.0
 11
15.0
 21
32.0
 31
0.0
  0
LINE
  5
8C9
100
AcDbEntity
  8
GLAS_MED_FOGNING
100
AcDbLine
 10
20.0
 20
33.0
 30
0.0
 11
15.0
 21
33.0
 31
0.0
  0
LINE
  5
8CA
100
AcDbEntity
  8
GLAS_MED_FOGNING
100
AcDbLine
 10
20.0
 20
34.0
 30
0.0
 11
15.0
 21
34.0
 31
0.0
  0
LINE
  5
8CB
100
AcDbEntity
  8
GLAS_MED_FOGNING
100
AcDbLine
 10
20.0
 20
35.0
 30
0.0
 11
15.0
 21
35.0
 31
0.0
  0
LINE
  5
8CC
100
AcDbEntity
  8
GLAS_MED_FOGNING
100
AcDbLine
 10
20.0
 20
36.0
 30
0.0
 11
15.0
 21
36.0
 31
0.0
  0
LINE
  5
8CD
100
AcDbEntity
  8
GLAS_MED_FOGNING
100
AcDbLine
 10
20.0
 20
37.0
 30
0.0
 11
15.0
 21
37.0
 31
0.0
  0
LINE
  5
8CE
100
AcDbEntity
  8
GLAS_MED_FOGNING
100
AcDbLine
 10
20.0
 20
31.0
 30
0.0
 11
15.0
 21
31.0
 31
0.0
  0
ARC
  5
8CF
100
AcDbEntity
  8
GLAS_MED_FOGNING
100
AcDbCircle
 10
20.0
 20
48.0
 30
0.0
 40
5.0
100
AcDbArc
 50
180.0
 51
270.0
  0
LINE
  5
8D0
100
AcDbEntity
  8
GLAS_MED_FOGNING
100
AcDbLine
 10
9.0
 20
38.0
 30
0.0
 11
3.0
 21
38.0
 31
0.0
  0
LINE
  5
8D1
100
AcDbEntity
  8
GLAS_MED_FOGNING
100
AcDbLine
 10
9.0
 20
40.0
 30
0.0
 11
3.0
 21
40.0
 31
0.0
  0
LINE
  5
8D2
100
AcDbEntity
  8
GLAS_MED_FOGNING
100
AcDbLine
 10
9.0
 20
39.0
 30
0.0
 11
3.0
 21
39.0
 31
0.0
  0
LINE
  5
8D3
100
AcDbEntity
  8
GLAS_MED_FOGNING
100
AcDbLine
 10
9.0
 20
41.0
 30
0.0
 11
3.0
 21
41.0
 31
0.0
  0
INSERT
  5
8D4
100
AcDbEntity
  8
GLAS_MED_FOGNING
100
AcDbBlockReference
  2
*X29
 10
50.0
 20
0.0
 30
0.0
1001
ACAD
1000
HATCH
1002
{
1070
    16
1000
AR-SAND
1040
2.0
1040
0.0
1002
}
  0
ARC
  5
8D5
100
AcDbEntity
  8
GLAS_MED_FOGNING
100
AcDbCircle
 10
3.0
 20
49.0
 30
0.0
 40
6.0
100
AcDbArc
 50
270.0
 51
0.0
  0
LINE
  5
8D6
100
AcDbEntity
  8
GLAS_MED_FOGNING
100
AcDbLine
 10
20.0
 20
38.0
 30
0.0
 11
15.0
 21
38.0
 31
0.0
  0
LINE
  5
8D7
100
AcDbEntity
  8
GLAS_MED_FOGNING
100
AcDbLine
 10
20.0
 20
39.0
 30
0.0
 11
15.0
 21
39.0
 31
0.0
  0
LINE
  5
8D8
100
AcDbEntity
  8
GLAS_MED_FOGNING
100
AcDbLine
 10
20.0
 20
40.0
 30
0.0
 11
15.0
 21
40.0
 31
0.0
  0
LINE
  5
8D9
100
AcDbEntity
  8
GLAS_MED_FOGNING
100
AcDbLine
 10
20.0
 20
41.0
 30
0.0
 11
15.0
 21
41.0
 31
0.0
  0
INSERT
  5
8DA
100
AcDbEntity
  8
GLAS_MED_FOGNING
100
AcDbBlockReference
  2
*X30
 10
50.0
 20
0.0
 30
0.0
1001
ACAD
1000
HATCH
1002
{
1070
    16
1000
AR-SAND
1040
2.0
1040
0.0
1002
}
  0
ENDBLK
  5
8DC
100
AcDbEntity
  8
0
100
AcDbBlockEnd
  0
BLOCK
  5
8DE
100
AcDbEntity
  8
0
100
AcDbBlockBegin
  2
50_SP43020
 70
     0
 10
0.0
 20
0.0
 30
0.0
  3
50_SP43020
  1

  0
LINE
  5
890
100
AcDbEntity
  8
GLAS_MED_FOGNING
100
AcDbLine
 10
-35.0
 20
57.5
 30
0.0
 11
-35.0
 21
49.0
 31
0.0
  0
LINE
  5
891
100
AcDbEntity
  8
GLAS_MED_FOGNING
100
AcDbLine
 10
-41.0
 20
57.5
 30
0.0
 11
-41.0
 21
49.0
 31
0.0
  0
INSERT
  5
892
100
AcDbEntity
  8
0
100
AcDbBlockReference
  2
SP43020
 10
0.0
 20
0.0
 30
0.0
  0
INSERT
  5
893
100
AcDbEntity
  8
0
100
AcDbBlockReference
  2
GLAS6-6X5
 10
-50.0
 20
0.0
 30
0.0
  0
LWPOLYLINE
  5
8DD
100
AcDbEntity
  8
CENTRUM
100
AcDbPolyline
 90
        4
 70
     0
 43
0.0
 10
0.0
 20
57.5
 10
-35.0
 20
57.5
 10
-41.0
 20
57.5
 10
-50.0
 20
57.5
  0
ENDBLK
  5
8DF
100
AcDbEntity
  8
0
100
AcDbBlockEnd
  0
BLOCK
  5
79E
100
AcDbEntity
  8
0
100
AcDbBlockBegin
  2
50_SP43020DK
 70
     0
 10
0.0
 20
0.0
 30
0.0
  3
50_SP43020DK
  1

  0
INSERT
  5
76D
100
AcDbEntity
  8
0
100
AcDbBlockReference
  2
SP43020
 10
0.0
 20
0.0
 30
0.0
  0
LWPOLYLINE
  5
774
100
AcDbEntity
  8
CENTRUM
100
AcDbPolyline
 90
        4
 70
     0
 43
0.0
 10
0.0
 20
57.5
 10
-35.0
 20
57.5
 10
-41.0
 20
57.5
 10
-50.0
 20
57.5
  0
INSERT
  5
775
100
AcDbEntity
  8
0
100
AcDbBlockReference
  2
GLAS6-6X5DK
 10
-50.0
 20
0.0
 30
0.0
  0
LINE
  5
79C
100
AcDbEntity
  8
GLAS_MED_FOGNING
100
AcDbLine
 10
-41.0
 20
57.5
 30
0.0
 11
-41.0
 21
49.0
 31
0.0
  0
LINE
  5
79D
100
AcDbEntity
  8
GLAS_MED_FOGNING
100
AcDbLine
 10
-35.0
 20
57.5
 30
0.0
 11
-35.0
 21
49.0
 31
0.0
  0
ENDBLK
  5
79F
100
AcDbEntity
  8
0
100
AcDbBlockEnd
  0
BLOCK
  5
765
100
AcDbEntity
  8
0
100
AcDbBlockBegin
  2
GLAS11-6X5DK
 70
     0
 10
0.0
 20
0.0
 30
0.0
  3
GLAS11-6X5DK
  1

  0
LINE
  5
742
100
AcDbEntity
  8
GLAS_MED_FOGNING
100
AcDbLine
 10
9.0
 20
49.0
 30
0.0
 11
9.0
 21
30.0
 31
0.0
  0
LINE
  5
743
100
AcDbEntity
  8
GLAS_MED_FOGNING
100
AcDbLine
 10
20.0
 20
49.0
 30
0.0
 11
20.0
 21
30.0
 31
0.0
  0
INSERT
  5
744
100
AcDbEntity
  8
GLAS_MED_FOGNING
100
AcDbBlockReference
  2
*X32
 10
55.0
 20
0.0
 30
0.0
1001
ACAD
1000
HATCH
1002
{
1070
    16
1000
AR-SAND
1040
2.0
1040
0.0
1002
}
  0
LINE
  5
745
100
AcDbEntity
  8
GLAS_MED_FOGNING
100
AcDbLine
 10
20.0
 20
30.0
 30
0.0
 11
9.0
 21
25.0
 31
0.0
  0
LINE
  5
746
100
AcDbEntity
  8
GLAS_MED_FOGNING
100
AcDbLine
 10
9.0
 20
30.0
 30
0.0
 11
20.0
 21
25.0
 31
0.0
  0
LINE
  5
747
100
AcDbEntity
  8
GLAS_MED_FOGNING
100
AcDbLine
 10
20.0
 20
30.0
 30
0.0
 11
9.0
 21
30.0
 31
0.0
  0
LINE
  5
748
100
AcDbEntity
  8
GLAS_MED_FOGNING
100
AcDbLine
 10
9.0
 20
32.0
 30
0.0
 11
3.0
 21
32.0
 31
0.0
  0
LINE
  5
749
100
AcDbEntity
  8
GLAS_MED_FOGNING
100
AcDbLine
 10
9.0
 20
34.0
 30
0.0
 11
3.0
 21
34.0
 31
0.0
  0
LINE
  5
74A
100
AcDbEntity
  8
GLAS_MED_FOGNING
100
AcDbLine
 10
9.0
 20
33.0
 30
0.0
 11
3.0
 21
33.0
 31
0.0
  0
LINE
  5
74B
100
AcDbEntity
  8
GLAS_MED_FOGNING
100
AcDbLine
 10
9.0
 20
31.0
 30
0.0
 11
3.0
 21
31.0
 31
0.0
  0
LINE
  5
74C
100
AcDbEntity
  8
GLAS_MED_FOGNING
100
AcDbLine
 10
9.0
 20
30.0
 30
0.0
 11
9.0
 21
25.0
 31
0.0
  0
INSERT
  5
74D
100
AcDbEntity
  8
GLAS_MED_FOGNING
100
AcDbBlockReference
  2
*X31
 10
50.0
 20
0.0
 30
0.0
1001
ACAD
1000
HATCH
1002
{
1070
    16
1000
AR-SAND
1040
2.0
1040
0.0
1002
}
  0
LINE
  5
74E
100
AcDbEntity
  8
GLAS_MED_FOGNING
100
AcDbLine
 10
25.0
 20
31.0
 30
0.0
 11
20.0
 21
31.0
 31
0.0
  0
LINE
  5
74F
100
AcDbEntity
  8
GLAS_MED_FOGNING
100
AcDbLine
 10
25.0
 20
34.0
 30
0.0
 11
20.0
 21
34.0
 31
0.0
  0
LINE
  5
750
100
AcDbEntity
  8
GLAS_MED_FOGNING
100
AcDbLine
 10
25.0
 20
33.0
 30
0.0
 11
20.0
 21
33.0
 31
0.0
  0
LINE
  5
751
100
AcDbEntity
  8
GLAS_MED_FOGNING
100
AcDbLine
 10
25.0
 20
32.0
 30
0.0
 11
20.0
 21
32.0
 31
0.0
  0
LINE
  5
752
100
AcDbEntity
  8
GLAS_MED_FOGNING
100
AcDbLine
 10
20.0
 20
30.0
 30
0.0
 11
20.0
 21
25.0
 31
0.0
  0
INSERT
  5
753
100
AcDbEntity
  8
GLAS_MED_FOGNING
100
AcDbBlockReference
  2
*X29
 10
50.0
 20
0.0
 30
0.0
1001
ACAD
1000
HATCH
1002
{
1070
    16
1000
AR-SAND
1040
2.0
1040
0.0
1002
}
  0
ARC
  5
754
100
AcDbEntity
  8
GLAS_MED_FOGNING
100
AcDbCircle
 10
3.0
 20
49.0
 30
0.0
 40
6.0
100
AcDbArc
 50
270.0
 51
0.0
  0
ARC
  5
755
100
AcDbEntity
  8
GLAS_MED_FOGNING
100
AcDbCircle
 10
25.0
 20
48.0
 30
0.0
 40
5.0
100
AcDbArc
 50
180.0
 51
270.0
  0
LINE
  5
756
100
AcDbEntity
  8
GLAS_MED_FOGNING
100
AcDbLine
 10
9.0
 20
35.0
 30
0.0
 11
3.0
 21
35.0
 31
0.0
  0
LINE
  5
757
100
AcDbEntity
  8
GLAS_MED_FOGNING
100
AcDbLine
 10
9.0
 20
36.0
 30
0.0
 11
3.0
 21
36.0
 31
0.0
  0
LINE
  5
758
100
AcDbEntity
  8
GLAS_MED_FOGNING
100
AcDbLine
 10
9.0
 20
38.0
 30
0.0
 11
3.0
 21
38.0
 31
0.0
  0
LINE
  5
759
100
AcDbEntity
  8
GLAS_MED_FOGNING
100
AcDbLine
 10
9.0
 20
37.0
 30
0.0
 11
3.0
 21
37.0
 31
0.0
  0
LINE
  5
75A
100
AcDbEntity
  8
GLAS_MED_FOGNING
100
AcDbLine
 10
9.0
 20
40.0
 30
0.0
 11
3.0
 21
40.0
 31
0.0
  0
LINE
  5
75B
100
AcDbEntity
  8
GLAS_MED_FOGNING
100
AcDbLine
 10
9.0
 20
39.0
 30
0.0
 11
3.0
 21
39.0
 31
0.0
  0
LINE
  5
75C
100
AcDbEntity
  8
GLAS_MED_FOGNING
100
AcDbLine
 10
9.0
 20
41.0
 30
0.0
 11
3.0
 21
41.0
 31
0.0
  0
LINE
  5
75D
100
AcDbEntity
  8
GLAS_MED_FOGNING
100
AcDbLine
 10
25.0
 20
41.0
 30
0.0
 11
20.0
 21
41.0
 31
0.0
  0
LINE
  5
75E
100
AcDbEntity
  8
GLAS_MED_FOGNING
100
AcDbLine
 10
25.0
 20
40.0
 30
0.0
 11
20.0
 21
40.0
 31
0.0
  0
LINE
  5
75F
100
AcDbEntity
  8
GLAS_MED_FOGNING
100
AcDbLine
 10
25.0
 20
39.0
 30
0.0
 11
20.0
 21
39.0
 31
0.0
  0
LINE
  5
760
100
AcDbEntity
  8
GLAS_MED_FOGNING
100
AcDbLine
 10
25.0
 20
38.0
 30
0.0
 11
20.0
 21
38.0
 31
0.0
  0
LINE
  5
761
100
AcDbEntity
  8
GLAS_MED_FOGNING
100
AcDbLine
 10
25.0
 20
37.0
 30
0.0
 11
20.0
 21
37.0
 31
0.0
  0
LINE
  5
762
100
AcDbEntity
  8
GLAS_MED_FOGNING
100
AcDbLine
 10
25.0
 20
36.0
 30
0.0
 11
20.0
 21
36.0
 31
0.0
  0
LINE
  5
763
100
AcDbEntity
  8
GLAS_MED_FOGNING
100
AcDbLine
 10
25.0
 20
35.0
 30
0.0
 11
20.0
 21
35.0
 31
0.0
  0
INSERT
  5
764
100
AcDbEntity
  8
GLAS_MED_FOGNING
100
AcDbBlockReference
  2
*X30
 10
55.0
 20
0.0
 30
0.0
1001
ACAD
1000
HATCH
1002
{
1070
    16
1000
AR-SAND
1040
2.0
1040
0.0
1002
}
  0
ENDBLK
  5
766
100
AcDbEntity
  8
0
100
AcDbBlockEnd
  0
BLOCK
  5
6A3
100
AcDbEntity
  8
0
100
AcDbBlockBegin
  2
*X39
 70
     1
 10
0.0
 20
0.0
 30
0.0
  3
*X39
  1

  0
LINE
  5
676
100
AcDbEntity
  8
0
 62
     0
100
AcDbLine
 10
-32.388203
 20
26.501825
 30
0.0
 11
-32.388203
 21
26.501825
 31
0.0
  0
LINE
  5
677
100
AcDbEntity
  8
0
 62
     0
100
AcDbLine
 10
-29.976409
 20
28.35246
 30
0.0
 11
-29.976409
 21
28.35246
 31
0.0
  0
LINE
  5
678
100
AcDbEntity
  8
0
 62
     0
100
AcDbLine
 10
-27.279007
 20
30.422249
 30
0.0
 11
-27.279007
 21
30.422249
 31
0.0
  0
LINE
  5
679
100
AcDbEntity
  8
0
 62
     0
100
AcDbLine
 10
-37.789989
 20
26.307209
 30
0.0
 11
-37.789989
 21
26.307209
 31
0.0
  0
LINE
  5
67A
100
AcDbEntity
  8
0
 62
     0
100
AcDbLine
 10
-35.092588
 20
28.376998
 30
0.0
 11
-35.092588
 21
28.376998
 31
0.0
  0
LINE
  5
67B
100
AcDbEntity
  8
0
 62
     0
100
AcDbLine
 10
-42.906168
 20
26.331747
 30
0.0
 11
-42.906168
 21
26.331747
 31
0.0
  0
LINE
  5
67C
100
AcDbEntity
  8
0
 62
     0
100
AcDbLine
 10
-40.32777
 20
28.310222
 30
0.0
 11
-40.32777
 21
28.310222
 31
0.0
  0
LINE
  5
67D
100
AcDbEntity
  8
0
 62
     0
100
AcDbLine
 10
-45.729557
 20
28.115606
 30
0.0
 11
-45.729557
 21
28.115606
 31
0.0
  0
LINE
  5
67E
100
AcDbEntity
  8
0
 62
     0
100
AcDbLine
 10
-43.032155
 20
30.185395
 30
0.0
 11
-43.032155
 21
30.185395
 31
0.0
  0
LINE
  5
67F
100
AcDbEntity
  8
0
 62
     0
100
AcDbLine
 10
-27.153021
 20
26.568601
 30
0.0
 11
-27.153021
 21
26.568601
 31
0.0
  0
LINE
  5
680
100
AcDbEntity
  8
0
 62
     0
100
AcDbLine
 10
-44.406244
 20
25.223614
 30
0.0
 11
-44.406244
 21
25.223614
 31
0.0
  0
LINE
  5
681
100
AcDbEntity
  8
0
 62
     0
100
AcDbLine
 10
-43.365227
 20
25.360666
 30
0.0
 11
-43.365227
 21
25.360666
 31
0.0
  0
LINE
  5
682
100
AcDbEntity
  8
0
 62
     0
100
AcDbLine
 10
-41.739257
 20
25.574729
 30
0.0
 11
-41.739257
 21
25.574729
 31
0.0
  0
LINE
  5
683
100
AcDbEntity
  8
0
 62
     0
100
AcDbLine
 10
-39.022698
 20
25.932371
 30
0.0
 11
-39.022698
 21
25.932371
 31
0.0
  0
LINE
  5
684
100
AcDbEntity
  8
0
 62
     0
100
AcDbLine
 10
-37.981681
 20
26.069423
 30
0.0
 11
-37.981681
 21
26.069423
 31
0.0
  0
LINE
  5
685
100
AcDbEntity
  8
0
 62
     0
100
AcDbLine
 10
-36.355712
 20
26.283486
 30
0.0
 11
-36.355712
 21
26.283486
 31
0.0
  0
LINE
  5
686
100
AcDbEntity
  8
0
 62
     0
100
AcDbLine
 10
-33.639153
 20
26.641128
 30
0.0
 11
-33.639153
 21
26.641128
 31
0.0
  0
LINE
  5
687
100
AcDbEntity
  8
0
 62
     0
100
AcDbLine
 10
-32.598136
 20
26.778181
 30
0.0
 11
-32.598136
 21
26.778181
 31
0.0
  0
LINE
  5
688
100
AcDbEntity
  8
0
 62
     0
100
AcDbLine
 10
-30.972166
 20
26.992244
 30
0.0
 11
-30.972166
 21
26.992244
 31
0.0
  0
LINE
  5
689
100
AcDbEntity
  8
0
 62
     0
100
AcDbLine
 10
-28.255607
 20
27.349885
 30
0.0
 11
-28.255607
 21
27.349885
 31
0.0
  0
LINE
  5
68A
100
AcDbEntity
  8
0
 62
     0
100
AcDbLine
 10
-27.21459
 20
27.486938
 30
0.0
 11
-27.21459
 21
27.486938
 31
0.0
  0
LINE
  5
68B
100
AcDbEntity
  8
0
 62
     0
100
AcDbLine
 10
-25.58862
 20
27.701001
 30
0.0
 11
-25.58862
 21
27.701001
 31
0.0
  0
LINE
  5
68C
100
AcDbEntity
  8
0
 62
     0
100
AcDbLine
 10
-46.250236
 20
30.159149
 30
0.0
 11
-46.250236
 21
30.159149
 31
0.0
  0
LINE
  5
68D
100
AcDbEntity
  8
0
 62
     0
100
AcDbLine
 10
-45.209219
 20
30.296201
 30
0.0
 11
-45.209219
 21
30.296201
 31
0.0
  0
LINE
  5
68E
100
AcDbEntity
  8
0
 62
     0
100
AcDbLine
 10
-43.583249
 20
30.510264
 30
0.0
 11
-43.583249
 21
30.510264
 31
0.0
  0
LINE
  5
68F
100
AcDbEntity
  8
0
 62
     0
100
AcDbLine
 10
-43.292959
 20
29.992636
 30
0.0
 11
-43.292959
 21
29.992636
 31
0.0
  0
LINE
  5
690
100
AcDbEntity
  8
0
 62
     0
100
AcDbLine
 10
-42.449568
 20
29.455337
 30
0.0
 11
-42.449568
 21
29.455337
 31
0.0
  0
LINE
  5
691
100
AcDbEntity
  8
0
 62
     0
100
AcDbLine
 10
-39.413358
 20
27.521058
 30
0.0
 11
-39.413358
 21
27.521058
 31
0.0
  0
LINE
  5
692
100
AcDbEntity
  8
0
 62
     0
100
AcDbLine
 10
-36.221284
 20
29.466655
 30
0.0
 11
-36.221284
 21
29.466655
 31
0.0
  0
LINE
  5
693
100
AcDbEntity
  8
0
 62
     0
100
AcDbLine
 10
-33.185075
 20
27.532376
 30
0.0
 11
-33.185075
 21
27.532376
 31
0.0
  0
LINE
  5
694
100
AcDbEntity
  8
0
 62
     0
100
AcDbLine
 10
-29.221135
 20
25.007068
 30
0.0
 11
-29.221135
 21
25.007068
 31
0.0
  0
LINE
  5
695
100
AcDbEntity
  8
0
 62
     0
100
AcDbLine
 10
-29.993
 20
29.477973
 30
0.0
 11
-29.993
 21
29.477973
 31
0.0
  0
LINE
  5
696
100
AcDbEntity
  8
0
 62
     0
100
AcDbLine
 10
-26.956791
 20
27.543694
 30
0.0
 11
-26.956791
 21
27.543694
 31
0.0
  0
LINE
  5
697
100
AcDbEntity
  8
0
 62
     0
100
AcDbLine
 10
-45.641642
 20
27.50974
 30
0.0
 11
-45.641642
 21
27.50974
 31
0.0
  0
LINE
  5
698
100
AcDbEntity
  8
0
 62
     0
100
AcDbLine
 10
-34.885457
 20
29.712457
 30
0.0
 11
-34.885457
 21
29.712457
 31
0.0
  0
LINE
  5
699
100
AcDbEntity
  8
0
 62
     0
100
AcDbLine
 10
-33.145483
 20
28.118064
 30
0.0
 11
-33.145483
 21
28.118064
 31
0.0
  0
LINE
  5
69A
100
AcDbEntity
  8
0
 62
     0
100
AcDbLine
 10
-31.154834
 20
26.293971
 30
0.0
 11
-31.154834
 21
26.293971
 31
0.0
  0
LINE
  5
69B
100
AcDbEntity
  8
0
 62
     0
100
AcDbLine
 10
-30.786195
 20
25.956176
 30
0.0
 11
-30.786195
 21
25.956176
 31
0.0
  0
LINE
  5
69C
100
AcDbEntity
  8
0
 62
     0
100
AcDbLine
 10
-27.13323
 20
29.873416
 30
0.0
 11
-27.13323
 21
29.873416
 31
0.0
  0
LINE
  5
69D
100
AcDbEntity
  8
0
 62
     0
100
AcDbLine
 10
-25.142581
 20
28.049322
 30
0.0
 11
-25.142581
 21
28.049322
 31
0.0
  0
LINE
  5
69E
100
AcDbEntity
  8
0
 62
     0
100
AcDbLine
 10
-43.256998
 20
30.118995
 30
0.0
 11
-43.256998
 21
30.118995
 31
0.0
  0
LINE
  5
69F
100
AcDbEntity
  8
0
 62
     0
100
AcDbLine
 10
-41.266349
 20
28.294901
 30
0.0
 11
-41.266349
 21
28.294901
 31
0.0
  0
LINE
  5
6A0
100
AcDbEntity
  8
0
 62
     0
100
AcDbLine
 10
-40.89771
 20
27.957106
 30
0.0
 11
-40.89771
 21
27.957106
 31
0.0
  0
LINE
  5
6A1
100
AcDbEntity
  8
0
 62
     0
100
AcDbLine
 10
-39.157736
 20
26.362713
 30
0.0
 11
-39.157736
 21
26.362713
 31
0.0
  0
LINE
  5
6A2
100
AcDbEntity
  8
0
 62
     0
100
AcDbLine
 10
-46.909964
 20
26.201755
 30
0.0
 11
-46.909964
 21
26.201755
 31
0.0
  0
ENDBLK
  5
6A4
100
AcDbEntity
  8
0
100
AcDbBlockEnd
  0
BLOCK
  5
6C2
100
AcDbEntity
  8
0
100
AcDbBlockBegin
  2
GLAS11-6X5
 70
     0
 10
0.0
 20
0.0
 30
0.0
  3
GLAS11-6X5
  1

  0
INSERT
  5
674
100
AcDbEntity
  8
GLAS_MED_FOGNING
100
AcDbBlockReference
  2
*X39
 10
50.0
 20
0.0
 30
0.0
1001
ACAD
1000
HATCH
1002
{
1070
    16
1000
AR-SAND
1040
2.0
1040
0.0
1002
}
  0
LINE
  5
6A5
100
AcDbEntity
  8
GLAS_MED_FOGNING
100
AcDbLine
 10
20.0
 20
49.0
 30
0.0
 11
20.0
 21
30.0
 31
0.0
  0
LINE
  5
6A6
100
AcDbEntity
  8
GLAS_MED_FOGNING
100
AcDbLine
 10
9.0
 20
49.0
 30
0.0
 11
9.0
 21
30.0
 31
0.0
  0
LINE
  5
6A7
100
AcDbEntity
  8
GLAS_MED_FOGNING
100
AcDbLine
 10
20.0
 20
30.0
 30
0.0
 11
9.0
 21
30.0
 31
0.0
  0
LINE
  5
6A8
100
AcDbEntity
  8
GLAS_MED_FOGNING
100
AcDbLine
 10
9.0
 20
37.0
 30
0.0
 11
3.0
 21
37.0
 31
0.0
  0
LINE
  5
6A9
100
AcDbEntity
  8
GLAS_MED_FOGNING
100
AcDbLine
 10
9.0
 20
36.0
 30
0.0
 11
3.0
 21
36.0
 31
0.0
  0
LINE
  5
6AA
100
AcDbEntity
  8
GLAS_MED_FOGNING
100
AcDbLine
 10
9.0
 20
35.0
 30
0.0
 11
3.0
 21
35.0
 31
0.0
  0
LINE
  5
6AB
100
AcDbEntity
  8
GLAS_MED_FOGNING
100
AcDbLine
 10
9.0
 20
33.0
 30
0.0
 11
3.0
 21
33.0
 31
0.0
  0
LINE
  5
6AC
100
AcDbEntity
  8
GLAS_MED_FOGNING
100
AcDbLine
 10
9.0
 20
34.0
 30
0.0
 11
3.0
 21
34.0
 31
0.0
  0
LINE
  5
6AD
100
AcDbEntity
  8
GLAS_MED_FOGNING
100
AcDbLine
 10
9.0
 20
32.0
 30
0.0
 11
3.0
 21
32.0
 31
0.0
  0
LINE
  5
6AE
100
AcDbEntity
  8
GLAS_MED_FOGNING
100
AcDbLine
 10
9.0
 20
31.0
 30
0.0
 11
3.0
 21
31.0
 31
0.0
  0
LINE
  5
6AF
100
AcDbEntity
  8
GLAS_MED_FOGNING
100
AcDbLine
 10
25.0
 20
32.0
 30
0.0
 11
20.0
 21
32.0
 31
0.0
  0
LINE
  5
6B0
100
AcDbEntity
  8
GLAS_MED_FOGNING
100
AcDbLine
 10
25.0
 20
33.0
 30
0.0
 11
20.0
 21
33.0
 31
0.0
  0
LINE
  5
6B1
100
AcDbEntity
  8
GLAS_MED_FOGNING
100
AcDbLine
 10
25.0
 20
34.0
 30
0.0
 11
20.0
 21
34.0
 31
0.0
  0
LINE
  5
6B2
100
AcDbEntity
  8
GLAS_MED_FOGNING
100
AcDbLine
 10
25.0
 20
35.0
 30
0.0
 11
20.0
 21
35.0
 31
0.0
  0
LINE
  5
6B3
100
AcDbEntity
  8
GLAS_MED_FOGNING
100
AcDbLine
 10
25.0
 20
36.0
 30
0.0
 11
20.0
 21
36.0
 31
0.0
  0
LINE
  5
6B4
100
AcDbEntity
  8
GLAS_MED_FOGNING
100
AcDbLine
 10
25.0
 20
37.0
 30
0.0
 11
20.0
 21
37.0
 31
0.0
  0
LINE
  5
6B5
100
AcDbEntity
  8
GLAS_MED_FOGNING
100
AcDbLine
 10
25.0
 20
31.0
 30
0.0
 11
20.0
 21
31.0
 31
0.0
  0
LINE
  5
6B6
100
AcDbEntity
  8
GLAS_MED_FOGNING
100
AcDbLine
 10
9.0
 20
41.0
 30
0.0
 11
3.0
 21
41.0
 31
0.0
  0
LINE
  5
6B7
100
AcDbEntity
  8
GLAS_MED_FOGNING
100
AcDbLine
 10
9.0
 20
39.0
 30
0.0
 11
3.0
 21
39.0
 31
0.0
  0
LINE
  5
6B8
100
AcDbEntity
  8
GLAS_MED_FOGNING
100
AcDbLine
 10
9.0
 20
40.0
 30
0.0
 11
3.0
 21
40.0
 31
0.0
  0
LINE
  5
6B9
100
AcDbEntity
  8
GLAS_MED_FOGNING
100
AcDbLine
 10
9.0
 20
38.0
 30
0.0
 11
3.0
 21
38.0
 31
0.0
  0
ARC
  5
6BA
100
AcDbEntity
  8
GLAS_MED_FOGNING
100
AcDbCircle
 10
3.0
 20
49.0
 30
0.0
 40
6.0
100
AcDbArc
 50
270.0
 51
0.0
  0
INSERT
  5
6BB
100
AcDbEntity
  8
GLAS_MED_FOGNING
100
AcDbBlockReference
  2
*X29
 10
50.0
 20
0.0
 30
0.0
1001
ACAD
1000
HATCH
1002
{
1070
    16
1000
AR-SAND
1040
2.0
1040
0.0
1002
}
  0
LINE
  5
6BC
100
AcDbEntity
  8
GLAS_MED_FOGNING
100
AcDbLine
 10
25.0
 20
38.0
 30
0.0
 11
20.0
 21
38.0
 31
0.0
  0
LINE
  5
6BD
100
AcDbEntity
  8
GLAS_MED_FOGNING
100
AcDbLine
 10
25.0
 20
39.0
 30
0.0
 11
20.0
 21
39.0
 31
0.0
  0
LINE
  5
6BE
100
AcDbEntity
  8
GLAS_MED_FOGNING
100
AcDbLine
 10
25.0
 20
40.0
 30
0.0
 11
20.0
 21
40.0
 31
0.0
  0
LINE
  5
6BF
100
AcDbEntity
  8
GLAS_MED_FOGNING
100
AcDbLine
 10
25.0
 20
41.0
 30
0.0
 11
20.0
 21
41.0
 31
0.0
  0
INSERT
  5
6C0
100
AcDbEntity
  8
GLAS_MED_FOGNING
100
AcDbBlockReference
  2
*X30
 10
55.0
 20
0.0
 30
0.0
1001
ACAD
1000
HATCH
1002
{
1070
    16
1000
AR-SAND
1040
2.0
1040
0.0
1002
}
  0
ARC
  5
6C1
100
AcDbEntity
  8
GLAS_MED_FOGNING
100
AcDbCircle
 10
25.0
 20
48.0
 30
0.0
 40
5.0
100
AcDbArc
 50
180.0
 51
270.0
  0
ENDBLK
  5
6C3
100
AcDbEntity
  8
0
100
AcDbBlockEnd
  0
BLOCK
  5
769
100
AcDbEntity
  8
0
100
AcDbBlockBegin
  2
50_SP42520DK
 70
     0
 10
0.0
 20
0.0
 30
0.0
  3
50_SP42520DK
  1

  0
LWPOLYLINE
  5
73E
100
AcDbEntity
  8
CENTRUM
100
AcDbPolyline
 90
        4
 70
     0
 43
0.0
 10
0.0
 20
57.5
 10
-30.0
 20
57.5
 10
-41.0
 20
57.5
 10
-50.0
 20
57.5
  0
INSERT
  5
73F
100
AcDbEntity
  8
0
100
AcDbBlockReference
  2
SP42520
 10
0.0
 20
0.0
 30
0.0
  0
INSERT
  5
740
100
AcDbEntity
  8
0
100
AcDbBlockReference
  2
GLAS11-6X5DK
 10
-50.0
 20
0.0
 30
0.0
  0
LINE
  5
767
100
AcDbEntity
  8
GLAS_MED_FOGNING
100
AcDbLine
 10
-41.0
 20
57.5
 30
0.0
 11
-41.0
 21
49.0
 31
0.0
  0
LINE
  5
768
100
AcDbEntity
  8
GLAS_MED_FOGNING
100
AcDbLine
 10
-30.0
 20
57.5
 30
0.0
 11
-30.0
 21
49.0
 31
0.0
  0
ENDBLK
  5
76A
100
AcDbEntity
  8
0
100
AcDbBlockEnd
  0
BLOCK
  5
8E8
100
AcDbEntity
  8
0
100
AcDbBlockBegin
  2
50_SP42520
 70
     0
 10
0.0
 20
0.0
 30
0.0
  3
50_SP42520
  1

  0
INSERT
  5
8E3
100
AcDbEntity
  8
0
100
AcDbBlockReference
  2
SP42520
 10
0.0
 20
0.0
 30
0.0
  0
LWPOLYLINE
  5
8E4
100
AcDbEntity
  8
CENTRUM
100
AcDbPolyline
 90
        4
 70
     0
 43
0.0
 10
0.0
 20
57.5
 10
-30.0
 20
57.5
 10
-41.0
 20
57.5
 10
-50.0
 20
57.5
  0
LINE
  5
8E5
100
AcDbEntity
  8
GLAS_MED_FOGNING
100
AcDbLine
 10
-30.0
 20
57.5
 30
0.0
 11
-30.0
 21
49.0
 31
0.0
  0
LINE
  5
8E6
100
AcDbEntity
  8
GLAS_MED_FOGNING
100
AcDbLine
 10
-41.0
 20
57.5
 30
0.0
 11
-41.0
 21
49.0
 31
0.0
  0
INSERT
  5
8E7
100
AcDbEntity
  8
0
100
AcDbBlockReference
  2
GLAS11-6X5
 10
-50.0
 20
0.0
 30
0.0
  0
ENDBLK
  5
8E9
100
AcDbEntity
  8
0
100
AcDbBlockEnd
  0
BLOCK
  5
96
100
AcDbEntity
  8
0
100
AcDbBlockBegin
  2
GLAS16-6X5DK
 70
     0
 10
0.0
 20
0.0
 30
0.0
  3
GLAS16-6X5DK
  1

  0
LINE
  5
3C
100
AcDbEntity
  8
GLAS_MED_FOGNING
100
AcDbLine
 10
9.0
 20
31.0
 30
0.0
 11
3.0
 21
31.0
 31
0.0
  0
LINE
  5
3D
100
AcDbEntity
  8
GLAS_MED_FOGNING
100
AcDbLine
 10
9.0
 20
41.0
 30
0.0
 11
3.0
 21
41.0
 31
0.0
  0
LINE
  5
3E
100
AcDbEntity
  8
GLAS_MED_FOGNING
100
AcDbLine
 10
9.0
 20
39.0
 30
0.0
 11
3.0
 21
39.0
 31
0.0
  0
LINE
  5
3F
100
AcDbEntity
  8
GLAS_MED_FOGNING
100
AcDbLine
 10
9.0
 20
40.0
 30
0.0
 11
3.0
 21
40.0
 31
0.0
  0
LINE
  5
40
100
AcDbEntity
  8
GLAS_MED_FOGNING
100
AcDbLine
 10
9.0
 20
37.0
 30
0.0
 11
3.0
 21
37.0
 31
0.0
  0
LINE
  5
41
100
AcDbEntity
  8
GLAS_MED_FOGNING
100
AcDbLine
 10
9.0
 20
38.0
 30
0.0
 11
3.0
 21
38.0
 31
0.0
  0
LINE
  5
42
100
AcDbEntity
  8
GLAS_MED_FOGNING
100
AcDbLine
 10
9.0
 20
36.0
 30
0.0
 11
3.0
 21
36.0
 31
0.0
  0
LINE
  5
43
100
AcDbEntity
  8
GLAS_MED_FOGNING
100
AcDbLine
 10
9.0
 20
35.0
 30
0.0
 11
3.0
 21
35.0
 31
0.0
  0
LINE
  5
44
100
AcDbEntity
  8
GLAS_MED_FOGNING
100
AcDbLine
 10
9.0
 20
33.0
 30
0.0
 11
3.0
 21
33.0
 31
0.0
  0
LINE
  5
45
100
AcDbEntity
  8
GLAS_MED_FOGNING
100
AcDbLine
 10
9.0
 20
34.0
 30
0.0
 11
3.0
 21
34.0
 31
0.0
  0
LINE
  5
46
100
AcDbEntity
  8
GLAS_MED_FOGNING
100
AcDbLine
 10
9.0
 20
32.0
 30
0.0
 11
3.0
 21
32.0
 31
0.0
  0
INSERT
  5
47
100
AcDbEntity
  8
GLAS_MED_FOGNING
100
AcDbBlockReference
  2
*X31
 10
50.0
 20
0.0
 30
0.0
1001
ACAD
1000
HATCH
1002
{
1070
    16
1000
AR-SAND
1040
2.0
1040
0.0
1002
}
  0
ARC
  5
5A
100
AcDbEntity
  8
GLAS_MED_FOGNING
100
AcDbCircle
 10
3.0
 20
49.0
 30
0.0
 40
6.0
100
AcDbArc
 50
270.0
 51
0.0
  0
LINE
  5
5B
100
AcDbEntity
  8
GLAS_MED_FOGNING
100
AcDbLine
 10
9.0
 20
49.0
 30
0.0
 11
9.0
 21
30.0
 31
0.0
  0
LINE
  5
5C
100
AcDbEntity
  8
GLAS_MED_FOGNING
100
AcDbLine
 10
25.0
 20
49.0
 30
0.0
 11
25.0
 21
30.0
 31
0.0
  0
ARC
  5
5D
100
AcDbEntity
  8
GLAS_MED_FOGNING
100
AcDbCircle
 10
30.0
 20
48.0
 30
0.0
 40
5.0
100
AcDbArc
 50
180.0
 51
270.0
  0
LINE
  5
5E
100
AcDbEntity
  8
GLAS_MED_FOGNING
100
AcDbLine
 10
30.0
 20
31.0
 30
0.0
 11
25.0
 21
31.0
 31
0.0
  0
LINE
  5
5F
100
AcDbEntity
  8
GLAS_MED_FOGNING
100
AcDbLine
 10
30.0
 20
41.0
 30
0.0
 11
25.0
 21
41.0
 31
0.0
  0
LINE
  5
60
100
AcDbEntity
  8
GLAS_MED_FOGNING
100
AcDbLine
 10
30.0
 20
40.0
 30
0.0
 11
25.0
 21
40.0
 31
0.0
  0
LINE
  5
61
100
AcDbEntity
  8
GLAS_MED_FOGNING
100
AcDbLine
 10
30.0
 20
39.0
 30
0.0
 11
25.0
 21
39.0
 31
0.0
  0
LINE
  5
62
100
AcDbEntity
  8
GLAS_MED_FOGNING
100
AcDbLine
 10
30.0
 20
38.0
 30
0.0
 11
25.0
 21
38.0
 31
0.0
  0
LINE
  5
63
100
AcDbEntity
  8
GLAS_MED_FOGNING
100
AcDbLine
 10
30.0
 20
37.0
 30
0.0
 11
25.0
 21
37.0
 31
0.0
  0
LINE
  5
64
100
AcDbEntity
  8
GLAS_MED_FOGNING
100
AcDbLine
 10
30.0
 20
36.0
 30
0.0
 11
25.0
 21
36.0
 31
0.0
  0
LINE
  5
65
100
AcDbEntity
  8
GLAS_MED_FOGNING
100
AcDbLine
 10
30.0
 20
35.0
 30
0.0
 11
25.0
 21
35.0
 31
0.0
  0
LINE
  5
66
100
AcDbEntity
  8
GLAS_MED_FOGNING
100
AcDbLine
 10
30.0
 20
34.0
 30
0.0
 11
25.0
 21
34.0
 31
0.0
  0
LINE
  5
67
100
AcDbEntity
  8
GLAS_MED_FOGNING
100
AcDbLine
 10
30.0
 20
33.0
 30
0.0
 11
25.0
 21
33.0
 31
0.0
  0
LINE
  5
68
100
AcDbEntity
  8
GLAS_MED_FOGNING
100
AcDbLine
 10
30.0
 20
32.0
 30
0.0
 11
25.0
 21
32.0
 31
0.0
  0
INSERT
  5
69
100
AcDbEntity
  8
GLAS_MED_FOGNING
100
AcDbBlockReference
  2
*X32
 10
60.0
 20
0.0
 30
0.0
1001
ACAD
1000
HATCH
1002
{
1070
    16
1000
AR-SAND
1040
2.0
1040
0.0
1002
}
  0
INSERT
  5
79
100
AcDbEntity
  8
GLAS_MED_FOGNING
100
AcDbBlockReference
  2
*X30
 10
60.0
 20
0.0
 30
0.0
1001
ACAD
1000
HATCH
1002
{
1070
    16
1000
AR-SAND
1040
2.0
1040
0.0
1002
}
  0
LINE
  5
85
100
AcDbEntity
  8
GLAS_MED_FOGNING
100
AcDbLine
 10
25.0
 20
30.0
 30
0.0
 11
9.0
 21
25.0
 31
0.0
  0
LINE
  5
86
100
AcDbEntity
  8
GLAS_MED_FOGNING
100
AcDbLine
 10
9.0
 20
30.0
 30
0.0
 11
25.0
 21
25.0
 31
0.0
  0
LINE
  5
87
100
AcDbEntity
  8
GLAS_MED_FOGNING
100
AcDbLine
 10
25.0
 20
30.0
 30
0.0
 11
9.0
 21
30.0
 31
0.0
  0
LINE
  5
88
100
AcDbEntity
  8
GLAS_MED_FOGNING
100
AcDbLine
 10
9.0
 20
30.0
 30
0.0
 11
9.0
 21
25.0
 31
0.0
  0
LINE
  5
89
100
AcDbEntity
  8
GLAS_MED_FOGNING
100
AcDbLine
 10
25.0
 20
30.0
 30
0.0
 11
25.0
 21
25.0
 31
0.0
  0
INSERT
  5
8A
100
AcDbEntity
  8
GLAS_MED_FOGNING
100
AcDbBlockReference
  2
*X29
 10
50.0
 20
0.0
 30
0.0
1001
ACAD
1000
HATCH
1002
{
1070
    16
1000
AR-SAND
1040
2.0
1040
0.0
1002
}
  0
ENDBLK
  5
97
100
AcDbEntity
  8
0
100
AcDbBlockEnd
  0
BLOCK
  5
53A
100
AcDbEntity
  8
0
100
AcDbBlockBegin
  2
*X44
 70
     1
 10
0.0
 20
0.0
 30
0.0
  3
*X44
  1

  0
LINE
  5
502
100
AcDbEntity
  8
0
 62
     0
100
AcDbLine
 10
-32.388203
 20
26.501825
 30
0.0
 11
-32.388203
 21
26.501825
 31
0.0
  0
LINE
  5
503
100
AcDbEntity
  8
0
 62
     0
100
AcDbLine
 10
-29.976409
 20
28.35246
 30
0.0
 11
-29.976409
 21
28.35246
 31
0.0
  0
LINE
  5
504
100
AcDbEntity
  8
0
 62
     0
100
AcDbLine
 10
-37.789989
 20
26.307209
 30
0.0
 11
-37.789989
 21
26.307209
 31
0.0
  0
LINE
  5
505
100
AcDbEntity
  8
0
 62
     0
100
AcDbLine
 10
-35.092588
 20
28.376998
 30
0.0
 11
-35.092588
 21
28.376998
 31
0.0
  0
LINE
  5
506
100
AcDbEntity
  8
0
 62
     0
100
AcDbLine
 10
-42.906168
 20
26.331747
 30
0.0
 11
-42.906168
 21
26.331747
 31
0.0
  0
LINE
  5
507
100
AcDbEntity
  8
0
 62
     0
100
AcDbLine
 10
-40.32777
 20
28.310222
 30
0.0
 11
-40.32777
 21
28.310222
 31
0.0
  0
LINE
  5
508
100
AcDbEntity
  8
0
 62
     0
100
AcDbLine
 10
-45.729557
 20
28.115606
 30
0.0
 11
-45.729557
 21
28.115606
 31
0.0
  0
LINE
  5
509
100
AcDbEntity
  8
0
 62
     0
100
AcDbLine
 10
-43.032155
 20
30.185395
 30
0.0
 11
-43.032155
 21
30.185395
 31
0.0
  0
LINE
  5
50A
100
AcDbEntity
  8
0
 62
     0
100
AcDbLine
 10
-27.153021
 20
26.568601
 30
0.0
 11
-27.153021
 21
26.568601
 31
0.0
  0
LINE
  5
50B
100
AcDbEntity
  8
0
 62
     0
100
AcDbLine
 10
-24.574622
 20
28.547076
 30
0.0
 11
-24.574622
 21
28.547076
 31
0.0
  0
LINE
  5
50C
100
AcDbEntity
  8
0
 62
     0
100
AcDbLine
 10
-22.162828
 20
30.39771
 30
0.0
 11
-22.162828
 21
30.39771
 31
0.0
  0
LINE
  5
50D
100
AcDbEntity
  8
0
 62
     0
100
AcDbLine
 10
-22.036841
 20
26.544063
 30
0.0
 11
-22.036841
 21
26.544063
 31
0.0
  0
LINE
  5
50E
100
AcDbEntity
  8
0
 62
     0
100
AcDbLine
 10
-44.406244
 20
25.223614
 30
0.0
 11
-44.406244
 21
25.223614
 31
0.0
  0
LINE
  5
50F
100
AcDbEntity
  8
0
 62
     0
100
AcDbLine
 10
-43.365227
 20
25.360666
 30
0.0
 11
-43.365227
 21
25.360666
 31
0.0
  0
LINE
  5
510
100
AcDbEntity
  8
0
 62
     0
100
AcDbLine
 10
-41.739257
 20
25.574729
 30
0.0
 11
-41.739257
 21
25.574729
 31
0.0
  0
LINE
  5
511
100
AcDbEntity
  8
0
 62
     0
100
AcDbLine
 10
-39.022698
 20
25.932371
 30
0.0
 11
-39.022698
 21
25.932371
 31
0.0
  0
LINE
  5
512
100
AcDbEntity
  8
0
 62
     0
100
AcDbLine
 10
-37.981681
 20
26.069423
 30
0.0
 11
-37.981681
 21
26.069423
 31
0.0
  0
LINE
  5
513
100
AcDbEntity
  8
0
 62
     0
100
AcDbLine
 10
-36.355712
 20
26.283486
 30
0.0
 11
-36.355712
 21
26.283486
 31
0.0
  0
LINE
  5
514
100
AcDbEntity
  8
0
 62
     0
100
AcDbLine
 10
-33.639153
 20
26.641128
 30
0.0
 11
-33.639153
 21
26.641128
 31
0.0
  0
LINE
  5
515
100
AcDbEntity
  8
0
 62
     0
100
AcDbLine
 10
-32.598136
 20
26.778181
 30
0.0
 11
-32.598136
 21
26.778181
 31
0.0
  0
LINE
  5
516
100
AcDbEntity
  8
0
 62
     0
100
AcDbLine
 10
-30.972166
 20
26.992244
 30
0.0
 11
-30.972166
 21
26.992244
 31
0.0
  0
LINE
  5
517
100
AcDbEntity
  8
0
 62
     0
100
AcDbLine
 10
-28.255607
 20
27.349885
 30
0.0
 11
-28.255607
 21
27.349885
 31
0.0
  0
LINE
  5
518
100
AcDbEntity
  8
0
 62
     0
100
AcDbLine
 10
-27.21459
 20
27.486938
 30
0.0
 11
-27.21459
 21
27.486938
 31
0.0
  0
LINE
  5
519
100
AcDbEntity
  8
0
 62
     0
100
AcDbLine
 10
-25.58862
 20
27.701001
 30
0.0
 11
-25.58862
 21
27.701001
 31
0.0
  0
LINE
  5
51A
100
AcDbEntity
  8
0
 62
     0
100
AcDbLine
 10
-22.872061
 20
28.058642
 30
0.0
 11
-22.872061
 21
28.058642
 31
0.0
  0
LINE
  5
51B
100
AcDbEntity
  8
0
 62
     0
100
AcDbLine
 10
-21.831044
 20
28.195695
 30
0.0
 11
-21.831044
 21
28.195695
 31
0.0
  0
LINE
  5
51C
100
AcDbEntity
  8
0
 62
     0
100
AcDbLine
 10
-20.205075
 20
28.409758
 30
0.0
 11
-20.205075
 21
28.409758
 31
0.0
  0
LINE
  5
51D
100
AcDbEntity
  8
0
 62
     0
100
AcDbLine
 10
-46.250236
 20
30.159149
 30
0.0
 11
-46.250236
 21
30.159149
 31
0.0
  0
LINE
  5
51E
100
AcDbEntity
  8
0
 62
     0
100
AcDbLine
 10
-45.209219
 20
30.296201
 30
0.0
 11
-45.209219
 21
30.296201
 31
0.0
  0
LINE
  5
51F
100
AcDbEntity
  8
0
 62
     0
100
AcDbLine
 10
-43.583249
 20
30.510264
 30
0.0
 11
-43.583249
 21
30.510264
 31
0.0
  0
LINE
  5
520
100
AcDbEntity
  8
0
 62
     0
100
AcDbLine
 10
-36.221284
 20
29.466655
 30
0.0
 11
-36.221284
 21
29.466655
 31
0.0
  0
LINE
  5
521
100
AcDbEntity
  8
0
 62
     0
100
AcDbLine
 10
-33.185075
 20
27.532376
 30
0.0
 11
-33.185075
 21
27.532376
 31
0.0
  0
LINE
  5
522
100
AcDbEntity
  8
0
 62
     0
100
AcDbLine
 10
-29.221135
 20
25.007068
 30
0.0
 11
-29.221135
 21
25.007068
 31
0.0
  0
LINE
  5
523
100
AcDbEntity
  8
0
 62
     0
100
AcDbLine
 10
-29.993
 20
29.477973
 30
0.0
 11
-29.993
 21
29.477973
 31
0.0
  0
LINE
  5
524
100
AcDbEntity
  8
0
 62
     0
100
AcDbLine
 10
-26.956791
 20
27.543694
 30
0.0
 11
-26.956791
 21
27.543694
 31
0.0
  0
LINE
  5
525
100
AcDbEntity
  8
0
 62
     0
100
AcDbLine
 10
-22.992851
 20
25.018386
 30
0.0
 11
-22.992851
 21
25.018386
 31
0.0
  0
LINE
  5
526
100
AcDbEntity
  8
0
 62
     0
100
AcDbLine
 10
-24.608108
 20
30.026591
 30
0.0
 11
-24.608108
 21
30.026591
 31
0.0
  0
LINE
  5
527
100
AcDbEntity
  8
0
 62
     0
100
AcDbLine
 10
-23.764716
 20
29.489291
 30
0.0
 11
-23.764716
 21
29.489291
 31
0.0
  0
LINE
  5
528
100
AcDbEntity
  8
0
 62
     0
100
AcDbLine
 10
-20.728507
 20
27.555012
 30
0.0
 11
-20.728507
 21
27.555012
 31
0.0
  0
LINE
  5
529
100
AcDbEntity
  8
0
 62
     0
100
AcDbLine
 10
-43.292959
 20
29.992636
 30
0.0
 11
-43.292959
 21
29.992636
 31
0.0
  0
LINE
  5
52A
100
AcDbEntity
  8
0
 62
     0
100
AcDbLine
 10
-42.449568
 20
29.455337
 30
0.0
 11
-42.449568
 21
29.455337
 31
0.0
  0
LINE
  5
52B
100
AcDbEntity
  8
0
 62
     0
100
AcDbLine
 10
-39.413358
 20
27.521058
 30
0.0
 11
-39.413358
 21
27.521058
 31
0.0
  0
LINE
  5
52C
100
AcDbEntity
  8
0
 62
     0
100
AcDbLine
 10
-45.641642
 20
27.50974
 30
0.0
 11
-45.641642
 21
27.50974
 31
0.0
  0
LINE
  5
52D
100
AcDbEntity
  8
0
 62
     0
100
AcDbLine
 10
-34.885457
 20
29.712457
 30
0.0
 11
-34.885457
 21
29.712457
 31
0.0
  0
LINE
  5
52E
100
AcDbEntity
  8
0
 62
     0
100
AcDbLine
 10
-33.145483
 20
28.118064
 30
0.0
 11
-33.145483
 21
28.118064
 31
0.0
  0
LINE
  5
52F
100
AcDbEntity
  8
0
 62
     0
100
AcDbLine
 10
-31.154834
 20
26.293971
 30
0.0
 11
-31.154834
 21
26.293971
 31
0.0
  0
LINE
  5
530
100
AcDbEntity
  8
0
 62
     0
100
AcDbLine
 10
-30.786195
 20
25.956176
 30
0.0
 11
-30.786195
 21
25.956176
 31
0.0
  0
LINE
  5
531
100
AcDbEntity
  8
0
 62
     0
100
AcDbLine
 10
-27.13323
 20
29.873416
 30
0.0
 11
-27.13323
 21
29.873416
 31
0.0
  0
LINE
  5
532
100
AcDbEntity
  8
0
 62
     0
100
AcDbLine
 10
-25.142581
 20
28.049322
 30
0.0
 11
-25.142581
 21
28.049322
 31
0.0
  0
LINE
  5
533
100
AcDbEntity
  8
0
 62
     0
100
AcDbLine
 10
-24.773942
 20
27.711527
 30
0.0
 11
-24.773942
 21
27.711527
 31
0.0
  0
LINE
  5
534
100
AcDbEntity
  8
0
 62
     0
100
AcDbLine
 10
-23.033968
 20
26.117134
 30
0.0
 11
-23.033968
 21
26.117134
 31
0.0
  0
LINE
  5
535
100
AcDbEntity
  8
0
 62
     0
100
AcDbLine
 10
-43.256998
 20
30.118995
 30
0.0
 11
-43.256998
 21
30.118995
 31
0.0
  0
LINE
  5
536
100
AcDbEntity
  8
0
 62
     0
100
AcDbLine
 10
-41.266349
 20
28.294901
 30
0.0
 11
-41.266349
 21
28.294901
 31
0.0
  0
LINE
  5
537
100
AcDbEntity
  8
0
 62
     0
100
AcDbLine
 10
-40.89771
 20
27.957106
 30
0.0
 11
-40.89771
 21
27.957106
 31
0.0
  0
LINE
  5
538
100
AcDbEntity
  8
0
 62
     0
100
AcDbLine
 10
-39.157736
 20
26.362713
 30
0.0
 11
-39.157736
 21
26.362713
 31
0.0
  0
LINE
  5
539
100
AcDbEntity
  8
0
 62
     0
100
AcDbLine
 10
-46.909964
 20
26.201755
 30
0.0
 11
-46.909964
 21
26.201755
 31
0.0
  0
ENDBLK
  5
53B
100
AcDbEntity
  8
0
100
AcDbBlockEnd
  0
BLOCK
  5
54D
100
AcDbEntity
  8
0
100
AcDbBlockBegin
  2
GLAS16-6X5
 70
     0
 10
0.0
 20
0.0
 30
0.0
  3
GLAS16-6X5
  1

  0
LINE
  5
4F4
100
AcDbEntity
  8
GLAS_MED_FOGNING
100
AcDbLine
 10
9.0
 20
32.0
 30
0.0
 11
3.0
 21
32.0
 31
0.0
  0
LINE
  5
4F5
100
AcDbEntity
  8
GLAS_MED_FOGNING
100
AcDbLine
 10
9.0
 20
34.0
 30
0.0
 11
3.0
 21
34.0
 31
0.0
  0
LINE
  5
4F6
100
AcDbEntity
  8
GLAS_MED_FOGNING
100
AcDbLine
 10
9.0
 20
33.0
 30
0.0
 11
3.0
 21
33.0
 31
0.0
  0
LINE
  5
4F7
100
AcDbEntity
  8
GLAS_MED_FOGNING
100
AcDbLine
 10
9.0
 20
35.0
 30
0.0
 11
3.0
 21
35.0
 31
0.0
  0
LINE
  5
4F8
100
AcDbEntity
  8
GLAS_MED_FOGNING
100
AcDbLine
 10
9.0
 20
36.0
 30
0.0
 11
3.0
 21
36.0
 31
0.0
  0
LINE
  5
4F9
100
AcDbEntity
  8
GLAS_MED_FOGNING
100
AcDbLine
 10
9.0
 20
38.0
 30
0.0
 11
3.0
 21
38.0
 31
0.0
  0
LINE
  5
4FA
100
AcDbEntity
  8
GLAS_MED_FOGNING
100
AcDbLine
 10
9.0
 20
37.0
 30
0.0
 11
3.0
 21
37.0
 31
0.0
  0
LINE
  5
4FB
100
AcDbEntity
  8
GLAS_MED_FOGNING
100
AcDbLine
 10
9.0
 20
40.0
 30
0.0
 11
3.0
 21
40.0
 31
0.0
  0
LINE
  5
4FC
100
AcDbEntity
  8
GLAS_MED_FOGNING
100
AcDbLine
 10
9.0
 20
39.0
 30
0.0
 11
3.0
 21
39.0
 31
0.0
  0
LINE
  5
4FD
100
AcDbEntity
  8
GLAS_MED_FOGNING
100
AcDbLine
 10
9.0
 20
41.0
 30
0.0
 11
3.0
 21
41.0
 31
0.0
  0
LINE
  5
4FE
100
AcDbEntity
  8
GLAS_MED_FOGNING
100
AcDbLine
 10
9.0
 20
31.0
 30
0.0
 11
3.0
 21
31.0
 31
0.0
  0
ARC
  5
4FF
100
AcDbEntity
  8
GLAS_MED_FOGNING
100
AcDbCircle
 10
3.0
 20
49.0
 30
0.0
 40
6.0
100
AcDbArc
 50
270.0
 51
0.0
  0
INSERT
  5
500
100
AcDbEntity
  8
GLAS_MED_FOGNING
100
AcDbBlockReference
  2
*X44
 10
50.0
 20
0.0
 30
0.0
1001
ACAD
1000
HATCH
1002
{
1070
    16
1000
AR-SAND
1040
2.0
1040
0.0
1002
}
  0
LINE
  5
53C
100
AcDbEntity
  8
GLAS_MED_FOGNING
100
AcDbLine
 10
25.0
 20
49.0
 30
0.0
 11
25.0
 21
30.0
 31
0.0
  0
LINE
  5
53D
100
AcDbEntity
  8
GLAS_MED_FOGNING
100
AcDbLine
 10
9.0
 20
49.0
 30
0.0
 11
9.0
 21
30.0
 31
0.0
  0
LINE
  5
53E
100
AcDbEntity
  8
GLAS_MED_FOGNING
100
AcDbLine
 10
30.0
 20
32.0
 30
0.0
 11
25.0
 21
32.0
 31
0.0
  0
LINE
  5
53F
100
AcDbEntity
  8
GLAS_MED_FOGNING
100
AcDbLine
 10
30.0
 20
33.0
 30
0.0
 11
25.0
 21
33.0
 31
0.0
  0
LINE
  5
540
100
AcDbEntity
  8
GLAS_MED_FOGNING
100
AcDbLine
 10
30.0
 20
34.0
 30
0.0
 11
25.0
 21
34.0
 31
0.0
  0
LINE
  5
541
100
AcDbEntity
  8
GLAS_MED_FOGNING
100
AcDbLine
 10
30.0
 20
35.0
 30
0.0
 11
25.0
 21
35.0
 31
0.0
  0
LINE
  5
542
100
AcDbEntity
  8
GLAS_MED_FOGNING
100
AcDbLine
 10
30.0
 20
36.0
 30
0.0
 11
25.0
 21
36.0
 31
0.0
  0
LINE
  5
543
100
AcDbEntity
  8
GLAS_MED_FOGNING
100
AcDbLine
 10
30.0
 20
37.0
 30
0.0
 11
25.0
 21
37.0
 31
0.0
  0
LINE
  5
544
100
AcDbEntity
  8
GLAS_MED_FOGNING
100
AcDbLine
 10
30.0
 20
38.0
 30
0.0
 11
25.0
 21
38.0
 31
0.0
  0
LINE
  5
545
100
AcDbEntity
  8
GLAS_MED_FOGNING
100
AcDbLine
 10
30.0
 20
31.0
 30
0.0
 11
25.0
 21
31.0
 31
0.0
  0
LINE
  5
546
100
AcDbEntity
  8
GLAS_MED_FOGNING
100
AcDbLine
 10
25.0
 20
30.0
 30
0.0
 11
9.0
 21
30.0
 31
0.0
  0
INSERT
  5
547
100
AcDbEntity
  8
GLAS_MED_FOGNING
100
AcDbBlockReference
  2
*X30
 10
60.0
 20
0.0
 30
0.0
1001
ACAD
1000
HATCH
1002
{
1070
    16
1000
AR-SAND
1040
2.0
1040
0.0
1002
}
  0
LINE
  5
548
100
AcDbEntity
  8
GLAS_MED_FOGNING
100
AcDbLine
 10
30.0
 20
39.0
 30
0.0
 11
25.0
 21
39.0
 31
0.0
  0
LINE
  5
549
100
AcDbEntity
  8
GLAS_MED_FOGNING
100
AcDbLine
 10
30.0
 20
40.0
 30
0.0
 11
25.0
 21
40.0
 31
0.0
  0
LINE
  5
54A
100
AcDbEntity
  8
GLAS_MED_FOGNING
100
AcDbLine
 10
30.0
 20
41.0
 30
0.0
 11
25.0
 21
41.0
 31
0.0
  0
ARC
  5
54B
100
AcDbEntity
  8
GLAS_MED_FOGNING
100
AcDbCircle
 10
30.0
 20
48.0
 30
0.0
 40
5.0
100
AcDbArc
 50
180.0
 51
270.0
  0
INSERT
  5
54C
100
AcDbEntity
  8
GLAS_MED_FOGNING
100
AcDbBlockReference
  2
*X29
 10
50.0
 20
0.0
 30
0.0
1001
ACAD
1000
HATCH
1002
{
1070
    16
1000
AR-SAND
1040
2.0
1040
0.0
1002
}
  0
ENDBLK
  5
54E
100
AcDbEntity
  8
0
100
AcDbBlockEnd
  0
BLOCK
  5
553
100
AcDbEntity
  8
0
100
AcDbBlockBegin
  2
50_SP42020
 70
     0
 10
0.0
 20
0.0
 30
0.0
  3
50_SP42020
  1

  0
INSERT
  5
4F2
100
AcDbEntity
  8
0
100
AcDbBlockReference
  2
GLAS16-6X5
 10
-50.0
 20
0.0
 30
0.0
  0
LWPOLYLINE
  5
54F
100
AcDbEntity
  8
CENTRUM
100
AcDbPolyline
 90
        4
 70
     0
 43
0.0
 10
0.0
 20
57.5
 10
-25.0
 20
57.5
 10
-41.0
 20
57.5
 10
-50.0
 20
57.5
  0
INSERT
  5
550
100
AcDbEntity
  8
0
100
AcDbBlockReference
  2
SP42020
 10
0.0
 20
0.0
 30
0.0
  0
LINE
  5
551
100
AcDbEntity
  8
GLAS_MED_FOGNING
100
AcDbLine
 10
-25.0
 20
57.5
 30
0.0
 11
-25.0
 21
49.0
 31
0.0
  0
LINE
  5
552
100
AcDbEntity
  8
GLAS_MED_FOGNING
100
AcDbLine
 10
-41.0
 20
57.5
 30
0.0
 11
-41.0
 21
49.0
 31
0.0
  0
ENDBLK
  5
554
100
AcDbEntity
  8
0
100
AcDbBlockEnd
  0
BLOCK
  5
B8
100
AcDbEntity
  8
0
100
AcDbBlockBegin
  2
50_SP42020DK
 70
     0
 10
0.0
 20
0.0
 30
0.0
  3
50_SP42020DK
  1

  0
INSERT
  5
3A
100
AcDbEntity
  8
0
100
AcDbBlockReference
  2
GLAS16-6X5DK
 10
-50.0
 20
0.0
 30
0.0
  0
LWPOLYLINE
  5
98
100
AcDbEntity
  8
CENTRUM
100
AcDbPolyline
 90
        4
 70
     0
 43
0.0
 10
0.0
 20
57.5
 10
-25.0
 20
57.5
 10
-41.0
 20
57.5
 10
-50.0
 20
57.5
  0
INSERT
  5
9A
100
AcDbEntity
  8
0
100
AcDbBlockReference
  2
SP42020
 10
0.0
 20
0.0
 30
0.0
  0
LINE
  5
B6
100
AcDbEntity
  8
GLAS_MED_FOGNING
100
AcDbLine
 10
-41.0
 20
57.5
 30
0.0
 11
-41.0
 21
49.0
 31
0.0
  0
LINE
  5
B7
100
AcDbEntity
  8
GLAS_MED_FOGNING
100
AcDbLine
 10
-25.0
 20
57.5
 30
0.0
 11
-25.0
 21
49.0
 31
0.0
  0
ENDBLK
  5
B9
100
AcDbEntity
  8
0
100
AcDbBlockEnd
  0
BLOCK
  5
5CD
100
AcDbEntity
  8
0
100
AcDbBlockBegin
  2
GLAS21-6X5DK
 70
     0
 10
0.0
 20
0.0
 30
0.0
  3
GLAS21-6X5DK
  1

  0
ARC
  5
5AA
100
AcDbEntity
  8
GLAS_MED_FOGNING
100
AcDbCircle
 10
35.0
 20
48.0
 30
0.0
 40
5.0
100
AcDbArc
 50
180.0
 51
270.0
  0
LINE
  5
5AB
100
AcDbEntity
  8
GLAS_MED_FOGNING
100
AcDbLine
 10
30.0
 20
49.0
 30
0.0
 11
30.0
 21
30.0
 31
0.0
  0
LINE
  5
5AC
100
AcDbEntity
  8
GLAS_MED_FOGNING
100
AcDbLine
 10
9.0
 20
49.0
 30
0.0
 11
9.0
 21
30.0
 31
0.0
  0
ARC
  5
5AD
100
AcDbEntity
  8
GLAS_MED_FOGNING
100
AcDbCircle
 10
3.0
 20
49.0
 30
0.0
 40
6.0
100
AcDbArc
 50
270.0
 51
0.0
  0
LINE
  5
5AE
100
AcDbEntity
  8
GLAS_MED_FOGNING
100
AcDbLine
 10
30.0
 20
30.0
 30
0.0
 11
9.0
 21
25.0
 31
0.0
  0
LINE
  5
5AF
100
AcDbEntity
  8
GLAS_MED_FOGNING
100
AcDbLine
 10
9.0
 20
30.0
 30
0.0
 11
30.0
 21
25.0
 31
0.0
  0
LINE
  5
5B0
100
AcDbEntity
  8
GLAS_MED_FOGNING
100
AcDbLine
 10
30.0
 20
30.0
 30
0.0
 11
9.0
 21
30.0
 31
0.0
  0
LINE
  5
5B1
100
AcDbEntity
  8
GLAS_MED_FOGNING
100
AcDbLine
 10
9.0
 20
30.0
 30
0.0
 11
9.0
 21
25.0
 31
0.0
  0
INSERT
  5
5B2
100
AcDbEntity
  8
GLAS_MED_FOGNING
100
AcDbBlockReference
  2
*X31
 10
50.0
 20
0.0
 30
0.0
1001
ACAD
1000
HATCH
1002
{
1070
    16
1000
AR-SAND
1040
2.0
1040
0.0
1002
}
  0
LINE
  5
5B3
100
AcDbEntity
  8
GLAS_MED_FOGNING
100
AcDbLine
 10
9.0
 20
32.0
 30
0.0
 11
3.0
 21
32.0
 31
0.0
  0
LINE
  5
5B4
100
AcDbEntity
  8
GLAS_MED_FOGNING
100
AcDbLine
 10
9.0
 20
34.0
 30
0.0
 11
3.0
 21
34.0
 31
0.0
  0
LINE
  5
5B5
100
AcDbEntity
  8
GLAS_MED_FOGNING
100
AcDbLine
 10
9.0
 20
33.0
 30
0.0
 11
3.0
 21
33.0
 31
0.0
  0
LINE
  5
5B6
100
AcDbEntity
  8
GLAS_MED_FOGNING
100
AcDbLine
 10
9.0
 20
35.0
 30
0.0
 11
3.0
 21
35.0
 31
0.0
  0
LINE
  5
5B7
100
AcDbEntity
  8
GLAS_MED_FOGNING
100
AcDbLine
 10
9.0
 20
31.0
 30
0.0
 11
3.0
 21
31.0
 31
0.0
  0
LINE
  5
5B8
100
AcDbEntity
  8
GLAS_MED_FOGNING
100
AcDbLine
 10
9.0
 20
36.0
 30
0.0
 11
3.0
 21
36.0
 31
0.0
  0
LINE
  5
5B9
100
AcDbEntity
  8
GLAS_MED_FOGNING
100
AcDbLine
 10
9.0
 20
38.0
 30
0.0
 11
3.0
 21
38.0
 31
0.0
  0
LINE
  5
5BA
100
AcDbEntity
  8
GLAS_MED_FOGNING
100
AcDbLine
 10
9.0
 20
37.0
 30
0.0
 11
3.0
 21
37.0
 31
0.0
  0
LINE
  5
5BB
100
AcDbEntity
  8
GLAS_MED_FOGNING
100
AcDbLine
 10
9.0
 20
40.0
 30
0.0
 11
3.0
 21
40.0
 31
0.0
  0
LINE
  5
5BC
100
AcDbEntity
  8
GLAS_MED_FOGNING
100
AcDbLine
 10
9.0
 20
39.0
 30
0.0
 11
3.0
 21
39.0
 31
0.0
  0
LINE
  5
5BD
100
AcDbEntity
  8
GLAS_MED_FOGNING
100
AcDbLine
 10
9.0
 20
41.0
 30
0.0
 11
3.0
 21
41.0
 31
0.0
  0
INSERT
  5
5BE
100
AcDbEntity
  8
GLAS_MED_FOGNING
100
AcDbBlockReference
  2
*X29
 10
50.0
 20
0.0
 30
0.0
1001
ACAD
1000
HATCH
1002
{
1070
    16
1000
AR-SAND
1040
2.0
1040
0.0
1002
}
  0
LINE
  5
5BF
100
AcDbEntity
  8
GLAS_MED_FOGNING
100
AcDbLine
 10
35.0
 20
31.0
 30
0.0
 11
30.0
 21
31.0
 31
0.0
  0
LINE
  5
5C0
100
AcDbEntity
  8
GLAS_MED_FOGNING
100
AcDbLine
 10
35.0
 20
35.0
 30
0.0
 11
30.0
 21
35.0
 31
0.0
  0
LINE
  5
5C1
100
AcDbEntity
  8
GLAS_MED_FOGNING
100
AcDbLine
 10
35.0
 20
34.0
 30
0.0
 11
30.0
 21
34.0
 31
0.0
  0
LINE
  5
5C2
100
AcDbEntity
  8
GLAS_MED_FOGNING
100
AcDbLine
 10
35.0
 20
33.0
 30
0.0
 11
30.0
 21
33.0
 31
0.0
  0
LINE
  5
5C3
100
AcDbEntity
  8
GLAS_MED_FOGNING
100
AcDbLine
 10
35.0
 20
32.0
 30
0.0
 11
30.0
 21
32.0
 31
0.0
  0
LINE
  5
5C4
100
AcDbEntity
  8
GLAS_MED_FOGNING
100
AcDbLine
 10
30.0
 20
30.0
 30
0.0
 11
30.0
 21
25.0
 31
0.0
  0
INSERT
  5
5C5
100
AcDbEntity
  8
GLAS_MED_FOGNING
100
AcDbBlockReference
  2
*X32
 10
65.0
 20
0.0
 30
0.0
1001
ACAD
1000
HATCH
1002
{
1070
    16
1000
AR-SAND
1040
2.0
1040
0.0
1002
}
  0
LINE
  5
5C6
100
AcDbEntity
  8
GLAS_MED_FOGNING
100
AcDbLine
 10
35.0
 20
41.0
 30
0.0
 11
30.0
 21
41.0
 31
0.0
  0
LINE
  5
5C7
100
AcDbEntity
  8
GLAS_MED_FOGNING
100
AcDbLine
 10
35.0
 20
40.0
 30
0.0
 11
30.0
 21
40.0
 31
0.0
  0
LINE
  5
5C8
100
AcDbEntity
  8
GLAS_MED_FOGNING
100
AcDbLine
 10
35.0
 20
39.0
 30
0.0
 11
30.0
 21
39.0
 31
0.0
  0
LINE
  5
5C9
100
AcDbEntity
  8
GLAS_MED_FOGNING
100
AcDbLine
 10
35.0
 20
38.0
 30
0.0
 11
30.0
 21
38.0
 31
0.0
  0
LINE
  5
5CA
100
AcDbEntity
  8
GLAS_MED_FOGNING
100
AcDbLine
 10
35.0
 20
37.0
 30
0.0
 11
30.0
 21
37.0
 31
0.0
  0
LINE
  5
5CB
100
AcDbEntity
  8
GLAS_MED_FOGNING
100
AcDbLine
 10
35.0
 20
36.0
 30
0.0
 11
30.0
 21
36.0
 31
0.0
  0
INSERT
  5
5CC
100
AcDbEntity
  8
GLAS_MED_FOGNING
100
AcDbBlockReference
  2
*X30
 10
65.0
 20
0.0
 30
0.0
1001
ACAD
1000
HATCH
1002
{
1070
    16
1000
AR-SAND
1040
2.0
1040
0.0
1002
}
  0
ENDBLK
  5
5CE
100
AcDbEntity
  8
0
100
AcDbBlockEnd
  0
BLOCK
  5
7EC
100
AcDbEntity
  8
0
100
AcDbBlockBegin
  2
*X49
 70
     1
 10
0.0
 20
0.0
 30
0.0
  3
*X49
  1

  0
LINE
  5
7A9
100
AcDbEntity
  8
0
 62
     0
100
AcDbLine
 10
-27.153021
 20
26.568601
 30
0.0
 11
-27.153021
 21
26.568601
 31
0.0
  0
LINE
  5
7AA
100
AcDbEntity
  8
0
 62
     0
100
AcDbLine
 10
-24.574622
 20
28.547076
 30
0.0
 11
-24.574622
 21
28.547076
 31
0.0
  0
LINE
  5
7AB
100
AcDbEntity
  8
0
 62
     0
100
AcDbLine
 10
-32.388203
 20
26.501825
 30
0.0
 11
-32.388203
 21
26.501825
 31
0.0
  0
LINE
  5
7AC
100
AcDbEntity
  8
0
 62
     0
100
AcDbLine
 10
-29.976409
 20
28.35246
 30
0.0
 11
-29.976409
 21
28.35246
 31
0.0
  0
LINE
  5
7AD
100
AcDbEntity
  8
0
 62
     0
100
AcDbLine
 10
-37.789989
 20
26.307209
 30
0.0
 11
-37.789989
 21
26.307209
 31
0.0
  0
LINE
  5
7AE
100
AcDbEntity
  8
0
 62
     0
100
AcDbLine
 10
-35.092588
 20
28.376998
 30
0.0
 11
-35.092588
 21
28.376998
 31
0.0
  0
LINE
  5
7AF
100
AcDbEntity
  8
0
 62
     0
100
AcDbLine
 10
-42.906168
 20
26.331747
 30
0.0
 11
-42.906168
 21
26.331747
 31
0.0
  0
LINE
  5
7B0
100
AcDbEntity
  8
0
 62
     0
100
AcDbLine
 10
-40.32777
 20
28.310222
 30
0.0
 11
-40.32777
 21
28.310222
 31
0.0
  0
LINE
  5
7B1
100
AcDbEntity
  8
0
 62
     0
100
AcDbLine
 10
-45.729557
 20
28.115606
 30
0.0
 11
-45.729557
 21
28.115606
 31
0.0
  0
LINE
  5
7B2
100
AcDbEntity
  8
0
 62
     0
100
AcDbLine
 10
-43.032155
 20
30.185395
 30
0.0
 11
-43.032155
 21
30.185395
 31
0.0
  0
LINE
  5
7B3
100
AcDbEntity
  8
0
 62
     0
100
AcDbLine
 10
-22.036841
 20
26.544063
 30
0.0
 11
-22.036841
 21
26.544063
 31
0.0
  0
LINE
  5
7B4
100
AcDbEntity
  8
0
 62
     0
100
AcDbLine
 10
-19.33944
 20
28.613852
 30
0.0
 11
-19.33944
 21
28.613852
 31
0.0
  0
LINE
  5
7B5
100
AcDbEntity
  8
0
 62
     0
100
AcDbLine
 10
-16.761042
 20
30.592326
 30
0.0
 11
-16.761042
 21
30.592326
 31
0.0
  0
LINE
  5
7B6
100
AcDbEntity
  8
0
 62
     0
100
AcDbLine
 10
-16.635055
 20
26.738679
 30
0.0
 11
-16.635055
 21
26.738679
 31
0.0
  0
LINE
  5
7B7
100
AcDbEntity
  8
0
 62
     0
100
AcDbLine
 10
-44.406244
 20
25.223614
 30
0.0
 11
-44.406244
 21
25.223614
 31
0.0
  0
LINE
  5
7B8
100
AcDbEntity
  8
0
 62
     0
100
AcDbLine
 10
-43.365227
 20
25.360666
 30
0.0
 11
-43.365227
 21
25.360666
 31
0.0
  0
LINE
  5
7B9
100
AcDbEntity
  8
0
 62
     0
100
AcDbLine
 10
-41.739257
 20
25.574729
 30
0.0
 11
-41.739257
 21
25.574729
 31
0.0
  0
LINE
  5
7BA
100
AcDbEntity
  8
0
 62
     0
100
AcDbLine
 10
-39.022698
 20
25.932371
 30
0.0
 11
-39.022698
 21
25.932371
 31
0.0
  0
LINE
  5
7BB
100
AcDbEntity
  8
0
 62
     0
100
AcDbLine
 10
-37.981681
 20
26.069423
 30
0.0
 11
-37.981681
 21
26.069423
 31
0.0
  0
LINE
  5
7BC
100
AcDbEntity
  8
0
 62
     0
100
AcDbLine
 10
-36.355712
 20
26.283486
 30
0.0
 11
-36.355712
 21
26.283486
 31
0.0
  0
LINE
  5
7BD
100
AcDbEntity
  8
0
 62
     0
100
AcDbLine
 10
-33.639153
 20
26.641128
 30
0.0
 11
-33.639153
 21
26.641128
 31
0.0
  0
LINE
  5
7BE
100
AcDbEntity
  8
0
 62
     0
100
AcDbLine
 10
-32.598136
 20
26.778181
 30
0.0
 11
-32.598136
 21
26.778181
 31
0.0
  0
LINE
  5
7BF
100
AcDbEntity
  8
0
 62
     0
100
AcDbLine
 10
-30.972166
 20
26.992244
 30
0.0
 11
-30.972166
 21
26.992244
 31
0.0
  0
LINE
  5
7C0
100
AcDbEntity
  8
0
 62
     0
100
AcDbLine
 10
-28.255607
 20
27.349885
 30
0.0
 11
-28.255607
 21
27.349885
 31
0.0
  0
LINE
  5
7C1
100
AcDbEntity
  8
0
 62
     0
100
AcDbLine
 10
-27.21459
 20
27.486938
 30
0.0
 11
-27.21459
 21
27.486938
 31
0.0
  0
LINE
  5
7C2
100
AcDbEntity
  8
0
 62
     0
100
AcDbLine
 10
-25.58862
 20
27.701001
 30
0.0
 11
-25.58862
 21
27.701001
 31
0.0
  0
LINE
  5
7C3
100
AcDbEntity
  8
0
 62
     0
100
AcDbLine
 10
-22.872061
 20
28.058642
 30
0.0
 11
-22.872061
 21
28.058642
 31
0.0
  0
LINE
  5
7C4
100
AcDbEntity
  8
0
 62
     0
100
AcDbLine
 10
-21.831044
 20
28.195695
 30
0.0
 11
-21.831044
 21
28.195695
 31
0.0
  0
LINE
  5
7C5
100
AcDbEntity
  8
0
 62
     0
100
AcDbLine
 10
-20.205075
 20
28.409758
 30
0.0
 11
-20.205075
 21
28.409758
 31
0.0
  0
LINE
  5
7C6
100
AcDbEntity
  8
0
 62
     0
100
AcDbLine
 10
-17.488516
 20
28.7674
 30
0.0
 11
-17.488516
 21
28.7674
 31
0.0
  0
LINE
  5
7C7
100
AcDbEntity
  8
0
 62
     0
100
AcDbLine
 10
-16.447499
 20
28.904452
 30
0.0
 11
-16.447499
 21
28.904452
 31
0.0
  0
LINE
  5
7C8
100
AcDbEntity
  8
0
 62
     0
100
AcDbLine
 10
-46.250236
 20
30.159149
 30
0.0
 11
-46.250236
 21
30.159149
 31
0.0
  0
LINE
  5
7C9
100
AcDbEntity
  8
0
 62
     0
100
AcDbLine
 10
-45.209219
 20
30.296201
 30
0.0
 11
-45.209219
 21
30.296201
 31
0.0
  0
LINE
  5
7CA
100
AcDbEntity
  8
0
 62
     0
100
AcDbLine
 10
-43.583249
 20
30.510264
 30
0.0
 11
-43.583249
 21
30.510264
 31
0.0
  0
LINE
  5
7CB
100
AcDbEntity
  8
0
 62
     0
100
AcDbLine
 10
-36.221284
 20
29.466655
 30
0.0
 11
-36.221284
 21
29.466655
 31
0.0
  0
LINE
  5
7CC
100
AcDbEntity
  8
0
 62
     0
100
AcDbLine
 10
-33.185075
 20
27.532376
 30
0.0
 11
-33.185075
 21
27.532376
 31
0.0
  0
LINE
  5
7CD
100
AcDbEntity
  8
0
 62
     0
100
AcDbLine
 10
-29.221135
 20
25.007068
 30
0.0
 11
-29.221135
 21
25.007068
 31
0.0
  0
LINE
  5
7CE
100
AcDbEntity
  8
0
 62
     0
100
AcDbLine
 10
-29.993
 20
29.477973
 30
0.0
 11
-29.993
 21
29.477973
 31
0.0
  0
LINE
  5
7CF
100
AcDbEntity
  8
0
 62
     0
100
AcDbLine
 10
-26.956791
 20
27.543694
 30
0.0
 11
-26.956791
 21
27.543694
 31
0.0
  0
LINE
  5
7D0
100
AcDbEntity
  8
0
 62
     0
100
AcDbLine
 10
-22.992851
 20
25.018386
 30
0.0
 11
-22.992851
 21
25.018386
 31
0.0
  0
LINE
  5
7D1
100
AcDbEntity
  8
0
 62
     0
100
AcDbLine
 10
-23.764716
 20
29.489291
 30
0.0
 11
-23.764716
 21
29.489291
 31
0.0
  0
LINE
  5
7D2
100
AcDbEntity
  8
0
 62
     0
100
AcDbLine
 10
-20.728507
 20
27.555012
 30
0.0
 11
-20.728507
 21
27.555012
 31
0.0
  0
LINE
  5
7D3
100
AcDbEntity
  8
0
 62
     0
100
AcDbLine
 10
-16.764567
 20
25.029704
 30
0.0
 11
-16.764567
 21
25.029704
 31
0.0
  0
LINE
  5
7D4
100
AcDbEntity
  8
0
 62
     0
100
AcDbLine
 10
-18.379824
 20
30.037909
 30
0.0
 11
-18.379824
 21
30.037909
 31
0.0
  0
LINE
  5
7D5
100
AcDbEntity
  8
0
 62
     0
100
AcDbLine
 10
-17.536433
 20
29.500609
 30
0.0
 11
-17.536433
 21
29.500609
 31
0.0
  0
LINE
  5
7D6
100
AcDbEntity
  8
0
 62
     0
100
AcDbLine
 10
-43.292959
 20
29.992636
 30
0.0
 11
-43.292959
 21
29.992636
 31
0.0
  0
LINE
  5
7D7
100
AcDbEntity
  8
0
 62
     0
100
AcDbLine
 10
-42.449568
 20
29.455337
 30
0.0
 11
-42.449568
 21
29.455337
 31
0.0
  0
LINE
  5
7D8
100
AcDbEntity
  8
0
 62
     0
100
AcDbLine
 10
-39.413358
 20
27.521058
 30
0.0
 11
-39.413358
 21
27.521058
 31
0.0
  0
LINE
  5
7D9
100
AcDbEntity
  8
0
 62
     0
100
AcDbLine
 10
-45.641642
 20
27.50974
 30
0.0
 11
-45.641642
 21
27.50974
 31
0.0
  0
LINE
  5
7DA
100
AcDbEntity
  8
0
 62
     0
100
AcDbLine
 10
-34.885457
 20
29.712457
 30
0.0
 11
-34.885457
 21
29.712457
 31
0.0
  0
LINE
  5
7DB
100
AcDbEntity
  8
0
 62
     0
100
AcDbLine
 10
-33.145483
 20
28.118064
 30
0.0
 11
-33.145483
 21
28.118064
 31
0.0
  0
LINE
  5
7DC
100
AcDbEntity
  8
0
 62
     0
100
AcDbLine
 10
-31.154834
 20
26.293971
 30
0.0
 11
-31.154834
 21
26.293971
 31
0.0
  0
LINE
  5
7DD
100
AcDbEntity
  8
0
 62
     0
100
AcDbLine
 10
-30.786195
 20
25.956176
 30
0.0
 11
-30.786195
 21
25.956176
 31
0.0
  0
LINE
  5
7DE
100
AcDbEntity
  8
0
 62
     0
100
AcDbLine
 10
-27.13323
 20
29.873416
 30
0.0
 11
-27.13323
 21
29.873416
 31
0.0
  0
LINE
  5
7DF
100
AcDbEntity
  8
0
 62
     0
100
AcDbLine
 10
-25.142581
 20
28.049322
 30
0.0
 11
-25.142581
 21
28.049322
 31
0.0
  0
LINE
  5
7E0
100
AcDbEntity
  8
0
 62
     0
100
AcDbLine
 10
-24.773942
 20
27.711527
 30
0.0
 11
-24.773942
 21
27.711527
 31
0.0
  0
LINE
  5
7E1
100
AcDbEntity
  8
0
 62
     0
100
AcDbLine
 10
-23.033968
 20
26.117134
 30
0.0
 11
-23.033968
 21
26.117134
 31
0.0
  0
LINE
  5
7E2
100
AcDbEntity
  8
0
 62
     0
100
AcDbLine
 10
-19.130328
 20
29.804673
 30
0.0
 11
-19.130328
 21
29.804673
 31
0.0
  0
LINE
  5
7E3
100
AcDbEntity
  8
0
 62
     0
100
AcDbLine
 10
-18.761689
 20
29.466878
 30
0.0
 11
-18.761689
 21
29.466878
 31
0.0
  0
LINE
  5
7E4
100
AcDbEntity
  8
0
 62
     0
100
AcDbLine
 10
-17.021714
 20
27.872485
 30
0.0
 11
-17.021714
 21
27.872485
 31
0.0
  0
LINE
  5
7E5
100
AcDbEntity
  8
0
 62
     0
100
AcDbLine
 10
-15.031066
 20
26.048392
 30
0.0
 11
-15.031066
 21
26.048392
 31
0.0
  0
LINE
  5
7E6
100
AcDbEntity
  8
0
 62
     0
100
AcDbLine
 10
-14.662427
 20
25.710596
 30
0.0
 11
-14.662427
 21
25.710596
 31
0.0
  0
LINE
  5
7E7
100
AcDbEntity
  8
0
 62
     0
100
AcDbLine
 10
-43.256998
 20
30.118995
 30
0.0
 11
-43.256998
 21
30.118995
 31
0.0
  0
LINE
  5
7E8
100
AcDbEntity
  8
0
 62
     0
100
AcDbLine
 10
-41.266349
 20
28.294901
 30
0.0
 11
-41.266349
 21
28.294901
 31
0.0
  0
LINE
  5
7E9
100
AcDbEntity
  8
0
 62
     0
100
AcDbLine
 10
-40.89771
 20
27.957106
 30
0.0
 11
-40.89771
 21
27.957106
 31
0.0
  0
LINE
  5
7EA
100
AcDbEntity
  8
0
 62
     0
100
AcDbLine
 10
-39.157736
 20
26.362713
 30
0.0
 11
-39.157736
 21
26.362713
 31
0.0
  0
LINE
  5
7EB
100
AcDbEntity
  8
0
 62
     0
100
AcDbLine
 10
-46.909964
 20
26.201755
 30
0.0
 11
-46.909964
 21
26.201755
 31
0.0
  0
ENDBLK
  5
7ED
100
AcDbEntity
  8
0
100
AcDbBlockEnd
  0
BLOCK
  5
809
100
AcDbEntity
  8
0
100
AcDbBlockBegin
  2
GLAS21-6X5
 70
     0
 10
0.0
 20
0.0
 30
0.0
  3
GLAS21-6X5
  1

  0
LINE
  5
7A5
100
AcDbEntity
  8
GLAS_MED_FOGNING
100
AcDbLine
 10
30.0
 20
49.0
 30
0.0
 11
30.0
 21
30.0
 31
0.0
  0
LINE
  5
7A6
100
AcDbEntity
  8
GLAS_MED_FOGNING
100
AcDbLine
 10
9.0
 20
49.0
 30
0.0
 11
9.0
 21
30.0
 31
0.0
  0
INSERT
  5
7A7
100
AcDbEntity
  8
GLAS_MED_FOGNING
100
AcDbBlockReference
  2
*X49
 10
50.0
 20
0.0
 30
0.0
1001
ACAD
1000
HATCH
1002
{
1070
    16
1000
AR-SAND
1040
2.0
1040
0.0
1002
}
  0
LINE
  5
7EE
100
AcDbEntity
  8
GLAS_MED_FOGNING
100
AcDbLine
 10
30.0
 20
30.0
 30
0.0
 11
9.0
 21
30.0
 31
0.0
  0
LINE
  5
7EF
100
AcDbEntity
  8
GLAS_MED_FOGNING
100
AcDbLine
 10
9.0
 20
37.0
 30
0.0
 11
3.0
 21
37.0
 31
0.0
  0
LINE
  5
7F0
100
AcDbEntity
  8
GLAS_MED_FOGNING
100
AcDbLine
 10
9.0
 20
38.0
 30
0.0
 11
3.0
 21
38.0
 31
0.0
  0
LINE
  5
7F1
100
AcDbEntity
  8
GLAS_MED_FOGNING
100
AcDbLine
 10
9.0
 20
36.0
 30
0.0
 11
3.0
 21
36.0
 31
0.0
  0
LINE
  5
7F2
100
AcDbEntity
  8
GLAS_MED_FOGNING
100
AcDbLine
 10
9.0
 20
35.0
 30
0.0
 11
3.0
 21
35.0
 31
0.0
  0
LINE
  5
7F3
100
AcDbEntity
  8
GLAS_MED_FOGNING
100
AcDbLine
 10
9.0
 20
33.0
 30
0.0
 11
3.0
 21
33.0
 31
0.0
  0
LINE
  5
7F4
100
AcDbEntity
  8
GLAS_MED_FOGNING
100
AcDbLine
 10
9.0
 20
34.0
 30
0.0
 11
3.0
 21
34.0
 31
0.0
  0
LINE
  5
7F5
100
AcDbEntity
  8
GLAS_MED_FOGNING
100
AcDbLine
 10
9.0
 20
32.0
 30
0.0
 11
3.0
 21
32.0
 31
0.0
  0
LINE
  5
7F6
100
AcDbEntity
  8
GLAS_MED_FOGNING
100
AcDbLine
 10
9.0
 20
31.0
 30
0.0
 11
3.0
 21
31.0
 31
0.0
  0
LINE
  5
7F7
100
AcDbEntity
  8
GLAS_MED_FOGNING
100
AcDbLine
 10
35.0
 20
32.0
 30
0.0
 11
30.0
 21
32.0
 31
0.0
  0
LINE
  5
7F8
100
AcDbEntity
  8
GLAS_MED_FOGNING
100
AcDbLine
 10
35.0
 20
33.0
 30
0.0
 11
30.0
 21
33.0
 31
0.0
  0
LINE
  5
7F9
100
AcDbEntity
  8
GLAS_MED_FOGNING
100
AcDbLine
 10
35.0
 20
34.0
 30
0.0
 11
30.0
 21
34.0
 31
0.0
  0
LINE
  5
7FA
100
AcDbEntity
  8
GLAS_MED_FOGNING
100
AcDbLine
 10
35.0
 20
35.0
 30
0.0
 11
30.0
 21
35.0
 31
0.0
  0
LINE
  5
7FB
100
AcDbEntity
  8
GLAS_MED_FOGNING
100
AcDbLine
 10
35.0
 20
36.0
 30
0.0
 11
30.0
 21
36.0
 31
0.0
  0
LINE
  5
7FC
100
AcDbEntity
  8
GLAS_MED_FOGNING
100
AcDbLine
 10
35.0
 20
37.0
 30
0.0
 11
30.0
 21
37.0
 31
0.0
  0
LINE
  5
7FD
100
AcDbEntity
  8
GLAS_MED_FOGNING
100
AcDbLine
 10
35.0
 20
38.0
 30
0.0
 11
30.0
 21
38.0
 31
0.0
  0
LINE
  5
7FE
100
AcDbEntity
  8
GLAS_MED_FOGNING
100
AcDbLine
 10
35.0
 20
31.0
 30
0.0
 11
30.0
 21
31.0
 31
0.0
  0
LINE
  5
7FF
100
AcDbEntity
  8
GLAS_MED_FOGNING
100
AcDbLine
 10
9.0
 20
41.0
 30
0.0
 11
3.0
 21
41.0
 31
0.0
  0
LINE
  5
800
100
AcDbEntity
  8
GLAS_MED_FOGNING
100
AcDbLine
 10
9.0
 20
39.0
 30
0.0
 11
3.0
 21
39.0
 31
0.0
  0
LINE
  5
801
100
AcDbEntity
  8
GLAS_MED_FOGNING
100
AcDbLine
 10
9.0
 20
40.0
 30
0.0
 11
3.0
 21
40.0
 31
0.0
  0
ARC
  5
802
100
AcDbEntity
  8
GLAS_MED_FOGNING
100
AcDbCircle
 10
3.0
 20
49.0
 30
0.0
 40
6.0
100
AcDbArc
 50
270.0
 51
0.0
  0
INSERT
  5
803
100
AcDbEntity
  8
GLAS_MED_FOGNING
100
AcDbBlockReference
  2
*X29
 10
50.0
 20
0.0
 30
0.0
1001
ACAD
1000
HATCH
1002
{
1070
    16
1000
AR-SAND
1040
2.0
1040
0.0
1002
}
  0
LINE
  5
804
100
AcDbEntity
  8
GLAS_MED_FOGNING
100
AcDbLine
 10
35.0
 20
39.0
 30
0.0
 11
30.0
 21
39.0
 31
0.0
  0
LINE
  5
805
100
AcDbEntity
  8
GLAS_MED_FOGNING
100
AcDbLine
 10
35.0
 20
40.0
 30
0.0
 11
30.0
 21
40.0
 31
0.0
  0
LINE
  5
806
100
AcDbEntity
  8
GLAS_MED_FOGNING
100
AcDbLine
 10
35.0
 20
41.0
 30
0.0
 11
30.0
 21
41.0
 31
0.0
  0
INSERT
  5
807
100
AcDbEntity
  8
GLAS_MED_FOGNING
100
AcDbBlockReference
  2
*X30
 10
65.0
 20
0.0
 30
0.0
1001
ACAD
1000
HATCH
1002
{
1070
    16
1000
AR-SAND
1040
2.0
1040
0.0
1002
}
  0
ARC
  5
808
100
AcDbEntity
  8
GLAS_MED_FOGNING
100
AcDbCircle
 10
35.0
 20
48.0
 30
0.0
 40
5.0
100
AcDbArc
 50
180.0
 51
270.0
  0
ENDBLK
  5
80A
100
AcDbEntity
  8
0
100
AcDbBlockEnd
  0
BLOCK
  5
5D9
100
AcDbEntity
  8
0
100
AcDbBlockBegin
  2
50_SP41520DK
 70
     0
 10
0.0
 20
0.0
 30
0.0
  3
50_SP41520DK
  1

  0
INSERT
  5
5A8
100
AcDbEntity
  8
0
100
AcDbBlockReference
  2
GLAS21-6X5DK
 10
-50.0
 20
0.0
 30
0.0
  0
INSERT
  5
5CF
100
AcDbEntity
  8
0
100
AcDbBlockReference
  2
SP41520
 10
0.0
 20
0.0
 30
0.0
  0
LWPOLYLINE
  5
5D6
100
AcDbEntity
  8
CENTRUM
100
AcDbPolyline
 90
        4
 70
     0
 43
0.0
 10
0.0
 20
57.5
 10
-20.0
 20
57.5
 10
-41.0
 20
57.5
 10
-50.0
 20
57.5
  0
LINE
  5
5D7
100
AcDbEntity
  8
GLAS_MED_FOGNING
100
AcDbLine
 10
-41.0
 20
57.5
 30
0.0
 11
-41.0
 21
49.0
 31
0.0
  0
LINE
  5
5D8
100
AcDbEntity
  8
GLAS_MED_FOGNING
100
AcDbLine
 10
-20.0
 20
57.5
 30
0.0
 11
-20.0
 21
49.0
 31
0.0
  0
ENDBLK
  5
5DA
100
AcDbEntity
  8
0
100
AcDbBlockEnd
  0
BLOCK
  5
80F
100
AcDbEntity
  8
0
100
AcDbBlockBegin
  2
50_SP41520
 70
     0
 10
0.0
 20
0.0
 30
0.0
  3
50_SP41520
  1

  0
INSERT
  5
7A3
100
AcDbEntity
  8
0
100
AcDbBlockReference
  2
GLAS21-6X5
 10
-50.0
 20
0.0
 30
0.0
  0
INSERT
  5
80B
100
AcDbEntity
  8
0
100
AcDbBlockReference
  2
SP41520
 10
0.0
 20
0.0
 30
0.0
  0
LWPOLYLINE
  5
80C
100
AcDbEntity
  8
CENTRUM
100
AcDbPolyline
 90
        4
 70
     0
 43
0.0
 10
0.0
 20
57.5
 10
-20.0
 20
57.5
 10
-41.0
 20
57.5
 10
-50.0
 20
57.5
  0
LINE
  5
80D
100
AcDbEntity
  8
GLAS_MED_FOGNING
100
AcDbLine
 10
-41.0
 20
57.5
 30
0.0
 11
-41.0
 21
49.0
 31
0.0
  0
LINE
  5
80E
100
AcDbEntity
  8
GLAS_MED_FOGNING
100
AcDbLine
 10
-20.0
 20
57.5
 30
0.0
 11
-20.0
 21
49.0
 31
0.0
  0
ENDBLK
  5
810
100
AcDbEntity
  8
0
100
AcDbBlockEnd
  0
BLOCK
  5
258
100
AcDbEntity
  8
0
100
AcDbBlockBegin
  2
SP41000
 70
     0
 10
0.0
 20
0.0
 30
0.0
  3
SP41000
  1

  0
LINE
  5
256
100
AcDbEntity
  8
CENTRUM
100
AcDbLine
 10
-15.999975
 20
26.099901
 30
0.0
 11
-16.000124
 21
20.099901
 31
0.0
  0
LWPOLYLINE
  5
257
100
AcDbEntity
  8
GLAS_MED_FOGNING
100
AcDbPolyline
 90
        9
 70
     0
 43
0.0
 10
-21.895347
 20
26.821776
 10
-20.0
 20
25.1
 10
-12.5
 20
25.099814
 42
0.315299
 10
-11.278378
 20
25.955158
 10
-10.496797
 20
28.102371
 42
-0.419684
 10
-10.107042
 20
28.279701
 10
-6.40871
 20
26.461158
 42
0.414233
 10
-4.670299
 20
27.059616
 10
-2.916703
 20
30.654738
  0
ENDBLK
  5
259
100
AcDbEntity
  8
0
100
AcDbBlockEnd
  0
BLOCK
  5
605
100
AcDbEntity
  8
0
100
AcDbBlockBegin
  2
GLAS26-6X5DK
 70
     0
 10
0.0
 20
0.0
 30
0.0
  3
GLAS26-6X5DK
  1

  0
ARC
  5
5E2
100
AcDbEntity
  8
GLAS_MED_FOGNING
100
AcDbCircle
 10
40.0
 20
48.0
 30
0.0
 40
5.0
100
AcDbArc
 50
180.0
 51
270.0
  0
LINE
  5
5E3
100
AcDbEntity
  8
GLAS_MED_FOGNING
100
AcDbLine
 10
35.0
 20
49.0
 30
0.0
 11
35.0
 21
30.0
 31
0.0
  0
ARC
  5
5E4
100
AcDbEntity
  8
GLAS_MED_FOGNING
100
AcDbCircle
 10
3.0
 20
49.0
 30
0.0
 40
6.0
100
AcDbArc
 50
270.0
 51
0.0
  0
LINE
  5
5E5
100
AcDbEntity
  8
GLAS_MED_FOGNING
100
AcDbLine
 10
9.0
 20
49.0
 30
0.0
 11
9.0
 21
30.0
 31
0.0
  0
LINE
  5
5E6
100
AcDbEntity
  8
GLAS_MED_FOGNING
100
AcDbLine
 10
35.0
 20
30.0
 30
0.0
 11
9.0
 21
25.0
 31
0.0
  0
LINE
  5
5E7
100
AcDbEntity
  8
GLAS_MED_FOGNING
100
AcDbLine
 10
9.0
 20
30.0
 30
0.0
 11
35.0
 21
25.0
 31
0.0
  0
LINE
  5
5E8
100
AcDbEntity
  8
GLAS_MED_FOGNING
100
AcDbLine
 10
35.0
 20
30.0
 30
0.0
 11
9.0
 21
30.0
 31
0.0
  0
LINE
  5
5E9
100
AcDbEntity
  8
GLAS_MED_FOGNING
100
AcDbLine
 10
9.0
 20
31.0
 30
0.0
 11
3.0
 21
31.0
 31
0.0
  0
LINE
  5
5EA
100
AcDbEntity
  8
GLAS_MED_FOGNING
100
AcDbLine
 10
9.0
 20
35.0
 30
0.0
 11
3.0
 21
35.0
 31
0.0
  0
LINE
  5
5EB
100
AcDbEntity
  8
GLAS_MED_FOGNING
100
AcDbLine
 10
9.0
 20
33.0
 30
0.0
 11
3.0
 21
33.0
 31
0.0
  0
LINE
  5
5EC
100
AcDbEntity
  8
GLAS_MED_FOGNING
100
AcDbLine
 10
9.0
 20
34.0
 30
0.0
 11
3.0
 21
34.0
 31
0.0
  0
LINE
  5
5ED
100
AcDbEntity
  8
GLAS_MED_FOGNING
100
AcDbLine
 10
9.0
 20
32.0
 30
0.0
 11
3.0
 21
32.0
 31
0.0
  0
INSERT
  5
5EE
100
AcDbEntity
  8
GLAS_MED_FOGNING
100
AcDbBlockReference
  2
*X31
 10
50.0
 20
0.0
 30
0.0
1001
ACAD
1000
HATCH
1002
{
1070
    16
1000
AR-SAND
1040
2.0
1040
0.0
1002
}
  0
LINE
  5
5EF
100
AcDbEntity
  8
GLAS_MED_FOGNING
100
AcDbLine
 10
9.0
 20
30.0
 30
0.0
 11
9.0
 21
25.0
 31
0.0
  0
LINE
  5
5F0
100
AcDbEntity
  8
GLAS_MED_FOGNING
100
AcDbLine
 10
9.0
 20
41.0
 30
0.0
 11
3.0
 21
41.0
 31
0.0
  0
LINE
  5
5F1
100
AcDbEntity
  8
GLAS_MED_FOGNING
100
AcDbLine
 10
9.0
 20
39.0
 30
0.0
 11
3.0
 21
39.0
 31
0.0
  0
LINE
  5
5F2
100
AcDbEntity
  8
GLAS_MED_FOGNING
100
AcDbLine
 10
9.0
 20
40.0
 30
0.0
 11
3.0
 21
40.0
 31
0.0
  0
LINE
  5
5F3
100
AcDbEntity
  8
GLAS_MED_FOGNING
100
AcDbLine
 10
9.0
 20
37.0
 30
0.0
 11
3.0
 21
37.0
 31
0.0
  0
LINE
  5
5F4
100
AcDbEntity
  8
GLAS_MED_FOGNING
100
AcDbLine
 10
9.0
 20
38.0
 30
0.0
 11
3.0
 21
38.0
 31
0.0
  0
LINE
  5
5F5
100
AcDbEntity
  8
GLAS_MED_FOGNING
100
AcDbLine
 10
9.0
 20
36.0
 30
0.0
 11
3.0
 21
36.0
 31
0.0
  0
INSERT
  5
5F6
100
AcDbEntity
  8
GLAS_MED_FOGNING
100
AcDbBlockReference
  2
*X29
 10
50.0
 20
0.0
 30
0.0
1001
ACAD
1000
HATCH
1002
{
1070
    16
1000
AR-SAND
1040
2.0
1040
0.0
1002
}
  0
LINE
  5
5F7
100
AcDbEntity
  8
GLAS_MED_FOGNING
100
AcDbLine
 10
40.0
 20
31.0
 30
0.0
 11
35.0
 21
31.0
 31
0.0
  0
LINE
  5
5F8
100
AcDbEntity
  8
GLAS_MED_FOGNING
100
AcDbLine
 10
40.0
 20
35.0
 30
0.0
 11
35.0
 21
35.0
 31
0.0
  0
LINE
  5
5F9
100
AcDbEntity
  8
GLAS_MED_FOGNING
100
AcDbLine
 10
40.0
 20
34.0
 30
0.0
 11
35.0
 21
34.0
 31
0.0
  0
LINE
  5
5FA
100
AcDbEntity
  8
GLAS_MED_FOGNING
100
AcDbLine
 10
40.0
 20
33.0
 30
0.0
 11
35.0
 21
33.0
 31
0.0
  0
LINE
  5
5FB
100
AcDbEntity
  8
GLAS_MED_FOGNING
100
AcDbLine
 10
40.0
 20
32.0
 30
0.0
 11
35.0
 21
32.0
 31
0.0
  0
INSERT
  5
5FC
100
AcDbEntity
  8
GLAS_MED_FOGNING
100
AcDbBlockReference
  2
*X32
 10
70.0
 20
0.0
 30
0.0
1001
ACAD
1000
HATCH
1002
{
1070
    16
1000
AR-SAND
1040
2.0
1040
0.0
1002
}
  0
LINE
  5
5FD
100
AcDbEntity
  8
GLAS_MED_FOGNING
100
AcDbLine
 10
35.0
 20
30.0
 30
0.0
 11
35.0
 21
25.0
 31
0.0
  0
LINE
  5
5FE
100
AcDbEntity
  8
GLAS_MED_FOGNING
100
AcDbLine
 10
40.0
 20
41.0
 30
0.0
 11
35.0
 21
41.0
 31
0.0
  0
LINE
  5
5FF
100
AcDbEntity
  8
GLAS_MED_FOGNING
100
AcDbLine
 10
40.0
 20
40.0
 30
0.0
 11
35.0
 21
40.0
 31
0.0
  0
LINE
  5
600
100
AcDbEntity
  8
GLAS_MED_FOGNING
100
AcDbLine
 10
40.0
 20
39.0
 30
0.0
 11
35.0
 21
39.0
 31
0.0
  0
LINE
  5
601
100
AcDbEntity
  8
GLAS_MED_FOGNING
100
AcDbLine
 10
40.0
 20
38.0
 30
0.0
 11
35.0
 21
38.0
 31
0.0
  0
LINE
  5
602
100
AcDbEntity
  8
GLAS_MED_FOGNING
100
AcDbLine
 10
40.0
 20
37.0
 30
0.0
 11
35.0
 21
37.0
 31
0.0
  0
LINE
  5
603
100
AcDbEntity
  8
GLAS_MED_FOGNING
100
AcDbLine
 10
40.0
 20
36.0
 30
0.0
 11
35.0
 21
36.0
 31
0.0
  0
INSERT
  5
604
100
AcDbEntity
  8
GLAS_MED_FOGNING
100
AcDbBlockReference
  2
*X30
 10
70.0
 20
0.0
 30
0.0
1001
ACAD
1000
HATCH
1002
{
1070
    16
1000
AR-SAND
1040
2.0
1040
0.0
1002
}
  0
ENDBLK
  5
606
100
AcDbEntity
  8
0
100
AcDbBlockEnd
  0
BLOCK
  5
867
100
AcDbEntity
  8
0
100
AcDbBlockBegin
  2
*X55
 70
     1
 10
0.0
 20
0.0
 30
0.0
  3
*X55
  1

  0
LINE
  5
81B
100
AcDbEntity
  8
0
 62
     0
100
AcDbLine
 10
-27.153021
 20
26.568601
 30
0.0
 11
-27.153021
 21
26.568601
 31
0.0
  0
LINE
  5
81C
100
AcDbEntity
  8
0
 62
     0
100
AcDbLine
 10
-24.574622
 20
28.547076
 30
0.0
 11
-24.574622
 21
28.547076
 31
0.0
  0
LINE
  5
81D
100
AcDbEntity
  8
0
 62
     0
100
AcDbLine
 10
-32.388203
 20
26.501825
 30
0.0
 11
-32.388203
 21
26.501825
 31
0.0
  0
LINE
  5
81E
100
AcDbEntity
  8
0
 62
     0
100
AcDbLine
 10
-29.976409
 20
28.35246
 30
0.0
 11
-29.976409
 21
28.35246
 31
0.0
  0
LINE
  5
81F
100
AcDbEntity
  8
0
 62
     0
100
AcDbLine
 10
-37.789989
 20
26.307209
 30
0.0
 11
-37.789989
 21
26.307209
 31
0.0
  0
LINE
  5
820
100
AcDbEntity
  8
0
 62
     0
100
AcDbLine
 10
-35.092588
 20
28.376998
 30
0.0
 11
-35.092588
 21
28.376998
 31
0.0
  0
LINE
  5
821
100
AcDbEntity
  8
0
 62
     0
100
AcDbLine
 10
-42.906168
 20
26.331747
 30
0.0
 11
-42.906168
 21
26.331747
 31
0.0
  0
LINE
  5
822
100
AcDbEntity
  8
0
 62
     0
100
AcDbLine
 10
-40.32777
 20
28.310222
 30
0.0
 11
-40.32777
 21
28.310222
 31
0.0
  0
LINE
  5
823
100
AcDbEntity
  8
0
 62
     0
100
AcDbLine
 10
-45.729557
 20
28.115606
 30
0.0
 11
-45.729557
 21
28.115606
 31
0.0
  0
LINE
  5
824
100
AcDbEntity
  8
0
 62
     0
100
AcDbLine
 10
-43.032155
 20
30.185395
 30
0.0
 11
-43.032155
 21
30.185395
 31
0.0
  0
LINE
  5
825
100
AcDbEntity
  8
0
 62
     0
100
AcDbLine
 10
-22.036841
 20
26.544063
 30
0.0
 11
-22.036841
 21
26.544063
 31
0.0
  0
LINE
  5
826
100
AcDbEntity
  8
0
 62
     0
100
AcDbLine
 10
-19.33944
 20
28.613852
 30
0.0
 11
-19.33944
 21
28.613852
 31
0.0
  0
LINE
  5
827
100
AcDbEntity
  8
0
 62
     0
100
AcDbLine
 10
-16.635055
 20
26.738679
 30
0.0
 11
-16.635055
 21
26.738679
 31
0.0
  0
LINE
  5
828
100
AcDbEntity
  8
0
 62
     0
100
AcDbLine
 10
-14.223261
 20
28.589314
 30
0.0
 11
-14.223261
 21
28.589314
 31
0.0
  0
LINE
  5
829
100
AcDbEntity
  8
0
 62
     0
100
AcDbLine
 10
-11.525859
 20
30.659102
 30
0.0
 11
-11.525859
 21
30.659102
 31
0.0
  0
LINE
  5
82A
100
AcDbEntity
  8
0
 62
     0
100
AcDbLine
 10
-11.399873
 20
26.805455
 30
0.0
 11
-11.399873
 21
26.805455
 31
0.0
  0
LINE
  5
82B
100
AcDbEntity
  8
0
 62
     0
100
AcDbLine
 10
-44.406244
 20
25.223614
 30
0.0
 11
-44.406244
 21
25.223614
 31
0.0
  0
LINE
  5
82C
100
AcDbEntity
  8
0
 62
     0
100
AcDbLine
 10
-43.365227
 20
25.360666
 30
0.0
 11
-43.365227
 21
25.360666
 31
0.0
  0
LINE
  5
82D
100
AcDbEntity
  8
0
 62
     0
100
AcDbLine
 10
-41.739257
 20
25.574729
 30
0.0
 11
-41.739257
 21
25.574729
 31
0.0
  0
LINE
  5
82E
100
AcDbEntity
  8
0
 62
     0
100
AcDbLine
 10
-39.022698
 20
25.932371
 30
0.0
 11
-39.022698
 21
25.932371
 31
0.0
  0
LINE
  5
82F
100
AcDbEntity
  8
0
 62
     0
100
AcDbLine
 10
-37.981681
 20
26.069423
 30
0.0
 11
-37.981681
 21
26.069423
 31
0.0
  0
LINE
  5
830
100
AcDbEntity
  8
0
 62
     0
100
AcDbLine
 10
-36.355712
 20
26.283486
 30
0.0
 11
-36.355712
 21
26.283486
 31
0.0
  0
LINE
  5
831
100
AcDbEntity
  8
0
 62
     0
100
AcDbLine
 10
-33.639153
 20
26.641128
 30
0.0
 11
-33.639153
 21
26.641128
 31
0.0
  0
LINE
  5
832
100
AcDbEntity
  8
0
 62
     0
100
AcDbLine
 10
-32.598136
 20
26.778181
 30
0.0
 11
-32.598136
 21
26.778181
 31
0.0
  0
LINE
  5
833
100
AcDbEntity
  8
0
 62
     0
100
AcDbLine
 10
-30.972166
 20
26.992244
 30
0.0
 11
-30.972166
 21
26.992244
 31
0.0
  0
LINE
  5
834
100
AcDbEntity
  8
0
 62
     0
100
AcDbLine
 10
-28.255607
 20
27.349885
 30
0.0
 11
-28.255607
 21
27.349885
 31
0.0
  0
LINE
  5
835
100
AcDbEntity
  8
0
 62
     0
100
AcDbLine
 10
-27.21459
 20
27.486938
 30
0.0
 11
-27.21459
 21
27.486938
 31
0.0
  0
LINE
  5
836
100
AcDbEntity
  8
0
 62
     0
100
AcDbLine
 10
-25.58862
 20
27.701001
 30
0.0
 11
-25.58862
 21
27.701001
 31
0.0
  0
LINE
  5
837
100
AcDbEntity
  8
0
 62
     0
100
AcDbLine
 10
-22.872061
 20
28.058642
 30
0.0
 11
-22.872061
 21
28.058642
 31
0.0
  0
LINE
  5
838
100
AcDbEntity
  8
0
 62
     0
100
AcDbLine
 10
-21.831044
 20
28.195695
 30
0.0
 11
-21.831044
 21
28.195695
 31
0.0
  0
LINE
  5
839
100
AcDbEntity
  8
0
 62
     0
100
AcDbLine
 10
-20.205075
 20
28.409758
 30
0.0
 11
-20.205075
 21
28.409758
 31
0.0
  0
LINE
  5
83A
100
AcDbEntity
  8
0
 62
     0
100
AcDbLine
 10
-17.488516
 20
28.7674
 30
0.0
 11
-17.488516
 21
28.7674
 31
0.0
  0
LINE
  5
83B
100
AcDbEntity
  8
0
 62
     0
100
AcDbLine
 10
-16.447499
 20
28.904452
 30
0.0
 11
-16.447499
 21
28.904452
 31
0.0
  0
LINE
  5
83C
100
AcDbEntity
  8
0
 62
     0
100
AcDbLine
 10
-14.821529
 20
29.118515
 30
0.0
 11
-14.821529
 21
29.118515
 31
0.0
  0
LINE
  5
83D
100
AcDbEntity
  8
0
 62
     0
100
AcDbLine
 10
-12.10497
 20
29.476157
 30
0.0
 11
-12.10497
 21
29.476157
 31
0.0
  0
LINE
  5
83E
100
AcDbEntity
  8
0
 62
     0
100
AcDbLine
 10
-11.063953
 20
29.613209
 30
0.0
 11
-11.063953
 21
29.613209
 31
0.0
  0
LINE
  5
83F
100
AcDbEntity
  8
0
 62
     0
100
AcDbLine
 10
-46.250236
 20
30.159149
 30
0.0
 11
-46.250236
 21
30.159149
 31
0.0
  0
LINE
  5
840
100
AcDbEntity
  8
0
 62
     0
100
AcDbLine
 10
-45.209219
 20
30.296201
 30
0.0
 11
-45.209219
 21
30.296201
 31
0.0
  0
LINE
  5
841
100
AcDbEntity
  8
0
 62
     0
100
AcDbLine
 10
-43.583249
 20
30.510264
 30
0.0
 11
-43.583249
 21
30.510264
 31
0.0
  0
LINE
  5
842
100
AcDbEntity
  8
0
 62
     0
100
AcDbLine
 10
-29.993
 20
29.477973
 30
0.0
 11
-29.993
 21
29.477973
 31
0.0
  0
LINE
  5
843
100
AcDbEntity
  8
0
 62
     0
100
AcDbLine
 10
-26.956791
 20
27.543694
 30
0.0
 11
-26.956791
 21
27.543694
 31
0.0
  0
LINE
  5
844
100
AcDbEntity
  8
0
 62
     0
100
AcDbLine
 10
-22.992851
 20
25.018386
 30
0.0
 11
-22.992851
 21
25.018386
 31
0.0
  0
LINE
  5
845
100
AcDbEntity
  8
0
 62
     0
100
AcDbLine
 10
-23.764716
 20
29.489291
 30
0.0
 11
-23.764716
 21
29.489291
 31
0.0
  0
LINE
  5
846
100
AcDbEntity
  8
0
 62
     0
100
AcDbLine
 10
-20.728507
 20
27.555012
 30
0.0
 11
-20.728507
 21
27.555012
 31
0.0
  0
LINE
  5
847
100
AcDbEntity
  8
0
 62
     0
100
AcDbLine
 10
-16.764567
 20
25.029704
 30
0.0
 11
-16.764567
 21
25.029704
 31
0.0
  0
LINE
  5
848
100
AcDbEntity
  8
0
 62
     0
100
AcDbLine
 10
-17.536433
 20
29.500609
 30
0.0
 11
-17.536433
 21
29.500609
 31
0.0
  0
LINE
  5
849
100
AcDbEntity
  8
0
 62
     0
100
AcDbLine
 10
-14.500223
 20
27.56633
 30
0.0
 11
-14.500223
 21
27.56633
 31
0.0
  0
LINE
  5
84A
100
AcDbEntity
  8
0
 62
     0
100
AcDbLine
 10
-10.536284
 20
25.041022
 30
0.0
 11
-10.536284
 21
25.041022
 31
0.0
  0
LINE
  5
84B
100
AcDbEntity
  8
0
 62
     0
100
AcDbLine
 10
-12.15154
 20
30.049227
 30
0.0
 11
-12.15154
 21
30.049227
 31
0.0
  0
LINE
  5
84C
100
AcDbEntity
  8
0
 62
     0
100
AcDbLine
 10
-11.308149
 20
29.511927
 30
0.0
 11
-11.308149
 21
29.511927
 31
0.0
  0
LINE
  5
84D
100
AcDbEntity
  8
0
 62
     0
100
AcDbLine
 10
-36.221284
 20
29.466655
 30
0.0
 11
-36.221284
 21
29.466655
 31
0.0
  0
LINE
  5
84E
100
AcDbEntity
  8
0
 62
     0
100
AcDbLine
 10
-33.185075
 20
27.532376
 30
0.0
 11
-33.185075
 21
27.532376
 31
0.0
  0
LINE
  5
84F
100
AcDbEntity
  8
0
 62
     0
100
AcDbLine
 10
-29.221135
 20
25.007068
 30
0.0
 11
-29.221135
 21
25.007068
 31
0.0
  0
LINE
  5
850
100
AcDbEntity
  8
0
 62
     0
100
AcDbLine
 10
-43.292959
 20
29.992636
 30
0.0
 11
-43.292959
 21
29.992636
 31
0.0
  0
LINE
  5
851
100
AcDbEntity
  8
0
 62
     0
100
AcDbLine
 10
-42.449568
 20
29.455337
 30
0.0
 11
-42.449568
 21
29.455337
 31
0.0
  0
LINE
  5
852
100
AcDbEntity
  8
0
 62
     0
100
AcDbLine
 10
-39.413358
 20
27.521058
 30
0.0
 11
-39.413358
 21
27.521058
 31
0.0
  0
LINE
  5
853
100
AcDbEntity
  8
0
 62
     0
100
AcDbLine
 10
-45.641642
 20
27.50974
 30
0.0
 11
-45.641642
 21
27.50974
 31
0.0
  0
LINE
  5
854
100
AcDbEntity
  8
0
 62
     0
100
AcDbLine
 10
-34.885457
 20
29.712457
 30
0.0
 11
-34.885457
 21
29.712457
 31
0.0
  0
LINE
  5
855
100
AcDbEntity
  8
0
 62
     0
100
AcDbLine
 10
-33.145483
 20
28.118064
 30
0.0
 11
-33.145483
 21
28.118064
 31
0.0
  0
LINE
  5
856
100
AcDbEntity
  8
0
 62
     0
100
AcDbLine
 10
-31.154834
 20
26.293971
 30
0.0
 11
-31.154834
 21
26.293971
 31
0.0
  0
LINE
  5
857
100
AcDbEntity
  8
0
 62
     0
100
AcDbLine
 10
-30.786195
 20
25.956176
 30
0.0
 11
-30.786195
 21
25.956176
 31
0.0
  0
LINE
  5
858
100
AcDbEntity
  8
0
 62
     0
100
AcDbLine
 10
-27.13323
 20
29.873416
 30
0.0
 11
-27.13323
 21
29.873416
 31
0.0
  0
LINE
  5
859
100
AcDbEntity
  8
0
 62
     0
100
AcDbLine
 10
-25.142581
 20
28.049322
 30
0.0
 11
-25.142581
 21
28.049322
 31
0.0
  0
LINE
  5
85A
100
AcDbEntity
  8
0
 62
     0
100
AcDbLine
 10
-24.773942
 20
27.711527
 30
0.0
 11
-24.773942
 21
27.711527
 31
0.0
  0
LINE
  5
85B
100
AcDbEntity
  8
0
 62
     0
100
AcDbLine
 10
-23.033968
 20
26.117134
 30
0.0
 11
-23.033968
 21
26.117134
 31
0.0
  0
LINE
  5
85C
100
AcDbEntity
  8
0
 62
     0
100
AcDbLine
 10
-19.130328
 20
29.804673
 30
0.0
 11
-19.130328
 21
29.804673
 31
0.0
  0
LINE
  5
85D
100
AcDbEntity
  8
0
 62
     0
100
AcDbLine
 10
-18.761689
 20
29.466878
 30
0.0
 11
-18.761689
 21
29.466878
 31
0.0
  0
LINE
  5
85E
100
AcDbEntity
  8
0
 62
     0
100
AcDbLine
 10
-17.021714
 20
27.872485
 30
0.0
 11
-17.021714
 21
27.872485
 31
0.0
  0
LINE
  5
85F
100
AcDbEntity
  8
0
 62
     0
100
AcDbLine
 10
-15.031066
 20
26.048392
 30
0.0
 11
-15.031066
 21
26.048392
 31
0.0
  0
LINE
  5
860
100
AcDbEntity
  8
0
 62
     0
100
AcDbLine
 10
-14.662427
 20
25.710596
 30
0.0
 11
-14.662427
 21
25.710596
 31
0.0
  0
LINE
  5
861
100
AcDbEntity
  8
0
 62
     0
100
AcDbLine
 10
-11.009461
 20
29.627836
 30
0.0
 11
-11.009461
 21
29.627836
 31
0.0
  0
LINE
  5
862
100
AcDbEntity
  8
0
 62
     0
100
AcDbLine
 10
-43.256998
 20
30.118995
 30
0.0
 11
-43.256998
 21
30.118995
 31
0.0
  0
LINE
  5
863
100
AcDbEntity
  8
0
 62
     0
100
AcDbLine
 10
-41.266349
 20
28.294901
 30
0.0
 11
-41.266349
 21
28.294901
 31
0.0
  0
LINE
  5
864
100
AcDbEntity
  8
0
 62
     0
100
AcDbLine
 10
-40.89771
 20
27.957106
 30
0.0
 11
-40.89771
 21
27.957106
 31
0.0
  0
LINE
  5
865
100
AcDbEntity
  8
0
 62
     0
100
AcDbLine
 10
-39.157736
 20
26.362713
 30
0.0
 11
-39.157736
 21
26.362713
 31
0.0
  0
LINE
  5
866
100
AcDbEntity
  8
0
 62
     0
100
AcDbLine
 10
-46.909964
 20
26.201755
 30
0.0
 11
-46.909964
 21
26.201755
 31
0.0
  0
ENDBLK
  5
868
100
AcDbEntity
  8
0
100
AcDbBlockEnd
  0
BLOCK
  5
884
100
AcDbEntity
  8
0
100
AcDbBlockBegin
  2
GLAS26-6X5
 70
     0
 10
0.0
 20
0.0
 30
0.0
  3
GLAS26-6X5
  1

  0
LINE
  5
817
100
AcDbEntity
  8
GLAS_MED_FOGNING
100
AcDbLine
 10
35.0
 20
49.0
 30
0.0
 11
35.0
 21
30.0
 31
0.0
  0
LINE
  5
818
100
AcDbEntity
  8
GLAS_MED_FOGNING
100
AcDbLine
 10
9.0
 20
49.0
 30
0.0
 11
9.0
 21
30.0
 31
0.0
  0
INSERT
  5
819
100
AcDbEntity
  8
GLAS_MED_FOGNING
100
AcDbBlockReference
  2
*X55
 10
50.0
 20
0.0
 30
0.0
1001
ACAD
1000
HATCH
1002
{
1070
    16
1000
AR-SAND
1040
2.0
1040
0.0
1002
}
  0
LINE
  5
869
100
AcDbEntity
  8
GLAS_MED_FOGNING
100
AcDbLine
 10
35.0
 20
30.0
 30
0.0
 11
9.0
 21
30.0
 31
0.0
  0
LINE
  5
86A
100
AcDbEntity
  8
GLAS_MED_FOGNING
100
AcDbLine
 10
9.0
 20
32.0
 30
0.0
 11
3.0
 21
32.0
 31
0.0
  0
LINE
  5
86B
100
AcDbEntity
  8
GLAS_MED_FOGNING
100
AcDbLine
 10
9.0
 20
34.0
 30
0.0
 11
3.0
 21
34.0
 31
0.0
  0
LINE
  5
86C
100
AcDbEntity
  8
GLAS_MED_FOGNING
100
AcDbLine
 10
9.0
 20
33.0
 30
0.0
 11
3.0
 21
33.0
 31
0.0
  0
LINE
  5
86D
100
AcDbEntity
  8
GLAS_MED_FOGNING
100
AcDbLine
 10
9.0
 20
35.0
 30
0.0
 11
3.0
 21
35.0
 31
0.0
  0
LINE
  5
86E
100
AcDbEntity
  8
GLAS_MED_FOGNING
100
AcDbLine
 10
9.0
 20
36.0
 30
0.0
 11
3.0
 21
36.0
 31
0.0
  0
LINE
  5
86F
100
AcDbEntity
  8
GLAS_MED_FOGNING
100
AcDbLine
 10
9.0
 20
38.0
 30
0.0
 11
3.0
 21
38.0
 31
0.0
  0
LINE
  5
870
100
AcDbEntity
  8
GLAS_MED_FOGNING
100
AcDbLine
 10
9.0
 20
37.0
 30
0.0
 11
3.0
 21
37.0
 31
0.0
  0
LINE
  5
871
100
AcDbEntity
  8
GLAS_MED_FOGNING
100
AcDbLine
 10
9.0
 20
31.0
 30
0.0
 11
3.0
 21
31.0
 31
0.0
  0
LINE
  5
872
100
AcDbEntity
  8
GLAS_MED_FOGNING
100
AcDbLine
 10
40.0
 20
32.0
 30
0.0
 11
35.0
 21
32.0
 31
0.0
  0
LINE
  5
873
100
AcDbEntity
  8
GLAS_MED_FOGNING
100
AcDbLine
 10
40.0
 20
33.0
 30
0.0
 11
35.0
 21
33.0
 31
0.0
  0
LINE
  5
874
100
AcDbEntity
  8
GLAS_MED_FOGNING
100
AcDbLine
 10
40.0
 20
34.0
 30
0.0
 11
35.0
 21
34.0
 31
0.0
  0
LINE
  5
875
100
AcDbEntity
  8
GLAS_MED_FOGNING
100
AcDbLine
 10
40.0
 20
35.0
 30
0.0
 11
35.0
 21
35.0
 31
0.0
  0
LINE
  5
876
100
AcDbEntity
  8
GLAS_MED_FOGNING
100
AcDbLine
 10
40.0
 20
36.0
 30
0.0
 11
35.0
 21
36.0
 31
0.0
  0
LINE
  5
877
100
AcDbEntity
  8
GLAS_MED_FOGNING
100
AcDbLine
 10
40.0
 20
37.0
 30
0.0
 11
35.0
 21
37.0
 31
0.0
  0
LINE
  5
878
100
AcDbEntity
  8
GLAS_MED_FOGNING
100
AcDbLine
 10
40.0
 20
38.0
 30
0.0
 11
35.0
 21
38.0
 31
0.0
  0
LINE
  5
879
100
AcDbEntity
  8
GLAS_MED_FOGNING
100
AcDbLine
 10
40.0
 20
31.0
 30
0.0
 11
35.0
 21
31.0
 31
0.0
  0
LINE
  5
87A
100
AcDbEntity
  8
GLAS_MED_FOGNING
100
AcDbLine
 10
9.0
 20
40.0
 30
0.0
 11
3.0
 21
40.0
 31
0.0
  0
LINE
  5
87B
100
AcDbEntity
  8
GLAS_MED_FOGNING
100
AcDbLine
 10
9.0
 20
39.0
 30
0.0
 11
3.0
 21
39.0
 31
0.0
  0
LINE
  5
87C
100
AcDbEntity
  8
GLAS_MED_FOGNING
100
AcDbLine
 10
9.0
 20
41.0
 30
0.0
 11
3.0
 21
41.0
 31
0.0
  0
INSERT
  5
87D
100
AcDbEntity
  8
GLAS_MED_FOGNING
100
AcDbBlockReference
  2
*X29
 10
50.0
 20
0.0
 30
0.0
1001
ACAD
1000
HATCH
1002
{
1070
    16
1000
AR-SAND
1040
2.0
1040
0.0
1002
}
  0
ARC
  5
87E
100
AcDbEntity
  8
GLAS_MED_FOGNING
100
AcDbCircle
 10
3.0
 20
49.0
 30
0.0
 40
6.0
100
AcDbArc
 50
270.0
 51
0.0
  0
LINE
  5
87F
100
AcDbEntity
  8
GLAS_MED_FOGNING
100
AcDbLine
 10
40.0
 20
39.0
 30
0.0
 11
35.0
 21
39.0
 31
0.0
  0
LINE
  5
880
100
AcDbEntity
  8
GLAS_MED_FOGNING
100
AcDbLine
 10
40.0
 20
40.0
 30
0.0
 11
35.0
 21
40.0
 31
0.0
  0
LINE
  5
881
100
AcDbEntity
  8
GLAS_MED_FOGNING
100
AcDbLine
 10
40.0
 20
41.0
 30
0.0
 11
35.0
 21
41.0
 31
0.0
  0
INSERT
  5
882
100
AcDbEntity
  8
GLAS_MED_FOGNING
100
AcDbBlockReference
  2
*X30
 10
70.0
 20
0.0
 30
0.0
1001
ACAD
1000
HATCH
1002
{
1070
    16
1000
AR-SAND
1040
2.0
1040
0.0
1002
}
  0
ARC
  5
883
100
AcDbEntity
  8
GLAS_MED_FOGNING
100
AcDbCircle
 10
40.0
 20
48.0
 30
0.0
 40
5.0
100
AcDbArc
 50
180.0
 51
270.0
  0
ENDBLK
  5
885
100
AcDbEntity
  8
0
100
AcDbBlockEnd
  0
BLOCK
  5
609
100
AcDbEntity
  8
0
100
AcDbBlockBegin
  2
50_SP41020DK
 70
     0
 10
0.0
 20
0.0
 30
0.0
  3
50_SP41020DK
  1

  0
INSERT
  5
5DE
100
AcDbEntity
  8
0
100
AcDbBlockReference
  2
SP41020
 10
0.0
 20
0.0
 30
0.0
  0
LWPOLYLINE
  5
5DF
100
AcDbEntity
  8
CENTRUM
100
AcDbPolyline
 90
        4
 70
     0
 43
0.0
 10
0.0
 20
57.5
 10
-15.0
 20
57.5
 10
-41.0
 20
57.5
 10
-50.0
 20
57.5
  0
INSERT
  5
5E0
100
AcDbEntity
  8
0
100
AcDbBlockReference
  2
GLAS26-6X5DK
 10
-50.0
 20
0.0
 30
0.0
  0
LINE
  5
607
100
AcDbEntity
  8
GLAS_MED_FOGNING
100
AcDbLine
 10
-41.0
 20
57.5
 30
0.0
 11
-41.0
 21
49.0
 31
0.0
  0
LINE
  5
608
100
AcDbEntity
  8
GLAS_MED_FOGNING
100
AcDbLine
 10
-15.0
 20
57.5
 30
0.0
 11
-15.0
 21
49.0
 31
0.0
  0
ENDBLK
  5
60A
100
AcDbEntity
  8
0
100
AcDbBlockEnd
  0
BLOCK
  5
88A
100
AcDbEntity
  8
0
100
AcDbBlockBegin
  2
50_SP41020
 70
     0
 10
0.0
 20
0.0
 30
0.0
  3
50_SP41020
  1

  0
INSERT
  5
815
100
AcDbEntity
  8
0
100
AcDbBlockReference
  2
GLAS26-6X5
 10
-50.0
 20
0.0
 30
0.0
  0
INSERT
  5
886
100
AcDbEntity
  8
0
100
AcDbBlockReference
  2
SP41020
 10
0.0
 20
0.0
 30
0.0
  0
LWPOLYLINE
  5
887
100
AcDbEntity
  8
CENTRUM
100
AcDbPolyline
 90
        4
 70
     0
 43
0.0
 10
0.0
 20
57.5
 10
-15.0
 20
57.5
 10
-41.0
 20
57.5
 10
-50.0
 20
57.5
  0
LINE
  5
888
100
AcDbEntity
  8
GLAS_MED_FOGNING
100
AcDbLine
 10
-41.0
 20
57.5
 30
0.0
 11
-41.0
 21
49.0
 31
0.0
  0
LINE
  5
889
100
AcDbEntity
  8
GLAS_MED_FOGNING
100
AcDbLine
 10
-15.0
 20
57.5
 30
0.0
 11
-15.0
 21
49.0
 31
0.0
  0
ENDBLK
  5
88B
100
AcDbEntity
  8
0
100
AcDbBlockEnd
  0
BLOCK
  5
23E
100
AcDbEntity
  8
0
100
AcDbBlockBegin
  2
*X59
 70
     1
 10
0.0
 20
0.0
 30
0.0
  3
*X59
  1

  0
LINE
  5
23D
100
AcDbEntity
  8
0
 62
     0
100
AcDbLine
 10
-59.163263
 20
41.509483
 30
0.0
 11
-59.163263
 21
41.509483
 31
0.0
  0
ENDBLK
  5
23F
100
AcDbEntity
  8
0
100
AcDbBlockEnd
  0
BLOCK
  5
24B
100
AcDbEntity
  8
0
100
AcDbBlockBegin
  2
*X60
 70
     1
 10
0.0
 20
0.0
 30
0.0
  3
*X60
  1

  0
LINE
  5
248
100
AcDbEntity
  8
0
 62
     0
100
AcDbLine
 10
-17.139002
 20
42.153269
 30
0.0
 11
-17.139002
 21
42.153269
 31
0.0
  0
LINE
  5
249
100
AcDbEntity
  8
0
 62
     0
100
AcDbLine
 10
-17.636947
 20
44.282762
 30
0.0
 11
-17.636947
 21
44.282762
 31
0.0
  0
LINE
  5
24A
100
AcDbEntity
  8
0
 62
     0
100
AcDbLine
 10
-17.294994
 20
42.652032
 30
0.0
 11
-17.294994
 21
42.652032
 31
0.0
  0
ENDBLK
  5
24C
100
AcDbEntity
  8
0
100
AcDbBlockEnd
  0
BLOCK
  5
21E
100
AcDbEntity
  8
0
100
AcDbBlockBegin
  2
*X61
 70
     1
 10
0.0
 20
0.0
 30
0.0
  3
*X61
  1

  0
LINE
  5
215
100
AcDbEntity
  8
0
 62
     0
100
AcDbLine
 10
-58.659316
 20
26.094893
 30
0.0
 11
-58.659316
 21
26.094893
 31
0.0
  0
LINE
  5
216
100
AcDbEntity
  8
0
 62
     0
100
AcDbLine
 10
-61.482704
 20
27.878752
 30
0.0
 11
-61.482704
 21
27.878752
 31
0.0
  0
LINE
  5
217
100
AcDbEntity
  8
0
 62
     0
100
AcDbLine
 10
-58.785303
 20
29.948541
 30
0.0
 11
-58.785303
 21
29.948541
 31
0.0
  0
LINE
  5
218
100
AcDbEntity
  8
0
 62
     0
100
AcDbLine
 10
-61.359856
 20
28.169929
 30
0.0
 11
-61.359856
 21
28.169929
 31
0.0
  0
LINE
  5
219
100
AcDbEntity
  8
0
 62
     0
100
AcDbLine
 10
-59.733886
 20
28.383992
 30
0.0
 11
-59.733886
 21
28.383992
 31
0.0
  0
LINE
  5
21A
100
AcDbEntity
  8
0
 62
     0
100
AcDbLine
 10
-61.97781
 20
29.958682
 30
0.0
 11
-61.97781
 21
29.958682
 31
0.0
  0
LINE
  5
21B
100
AcDbEntity
  8
0
 62
     0
100
AcDbLine
 10
-61.134419
 20
29.421382
 30
0.0
 11
-61.134419
 21
29.421382
 31
0.0
  0
LINE
  5
21C
100
AcDbEntity
  8
0
 62
     0
100
AcDbLine
 10
-58.098209
 20
27.487104
 30
0.0
 11
-58.098209
 21
27.487104
 31
0.0
  0
LINE
  5
21D
100
AcDbEntity
  8
0
 62
     0
100
AcDbLine
 10
-59.380766
 20
30.364574
 30
0.0
 11
-59.380766
 21
30.364574
 31
0.0
  0
ENDBLK
  5
21F
100
AcDbEntity
  8
0
100
AcDbBlockEnd
  0
BLOCK
  5
238
100
AcDbEntity
  8
0
100
AcDbBlockBegin
  2
*X62
 70
     1
 10
0.0
 20
0.0
 30
0.0
  3
*X62
  1

  0
LINE
  5
22F
100
AcDbEntity
  8
0
 62
     0
100
AcDbLine
 10
-16.635055
 20
26.738679
 30
0.0
 11
-16.635055
 21
26.738679
 31
0.0
  0
LINE
  5
230
100
AcDbEntity
  8
0
 62
     0
100
AcDbLine
 10
-16.761042
 20
30.592326
 30
0.0
 11
-16.761042
 21
30.592326
 31
0.0
  0
LINE
  5
231
100
AcDbEntity
  8
0
 62
     0
100
AcDbLine
 10
-17.488516
 20
28.7674
 30
0.0
 11
-17.488516
 21
28.7674
 31
0.0
  0
LINE
  5
232
100
AcDbEntity
  8
0
 62
     0
100
AcDbLine
 10
-16.447499
 20
28.904452
 30
0.0
 11
-16.447499
 21
28.904452
 31
0.0
  0
LINE
  5
233
100
AcDbEntity
  8
0
 62
     0
100
AcDbLine
 10
-16.764567
 20
25.029704
 30
0.0
 11
-16.764567
 21
25.029704
 31
0.0
  0
LINE
  5
234
100
AcDbEntity
  8
0
 62
     0
100
AcDbLine
 10
-17.536433
 20
29.500609
 30
0.0
 11
-17.536433
 21
29.500609
 31
0.0
  0
LINE
  5
235
100
AcDbEntity
  8
0
 62
     0
100
AcDbLine
 10
-17.021714
 20
27.872485
 30
0.0
 11
-17.021714
 21
27.872485
 31
0.0
  0
LINE
  5
236
100
AcDbEntity
  8
0
 62
     0
100
AcDbLine
 10
-15.031066
 20
26.048392
 30
0.0
 11
-15.031066
 21
26.048392
 31
0.0
  0
LINE
  5
237
100
AcDbEntity
  8
0
 62
     0
100
AcDbLine
 10
-14.662427
 20
25.710596
 30
0.0
 11
-14.662427
 21
25.710596
 31
0.0
  0
ENDBLK
  5
239
100
AcDbEntity
  8
0
100
AcDbBlockEnd
  0
BLOCK
  5
668
100
AcDbEntity
  8
0
100
AcDbBlockBegin
  2
50_SP40520FYLLN
 70
     0
 10
0.0
 20
0.0
 30
0.0
  3
50_SP40520FYLLN
  1

  0
INSERT
  5
619
100
AcDbEntity
  8
0
100
AcDbBlockReference
  2
FYLLNV
 10
-50.0
 20
0.0
 30
0.0
  0
INSERT
  5
63B
100
AcDbEntity
  8
0
100
AcDbBlockReference
  2
FYLLNH
 10
0.0
 20
0.0
 30
0.0
  0
INSERT
  5
65A
100
AcDbEntity
  8
0
100
AcDbBlockReference
  2
SP40520
 10
0.0
 20
0.0
 30
0.0
  0
LWPOLYLINE
  5
662
100
AcDbEntity
  8
ISOLERING
100
AcDbPolyline
 90
       14
 70
     0
 43
0.0
 10
-9.518759
 20
30.805791
 42
0.107028
 10
-11.203417
 20
30.974219
 10
-37.046583
 20
28.025781
 42
-1.120577
 10
-37.046583
 20
35.974219
 10
-11.203417
 20
33.025781
 42
1.120577
 10
-11.203417
 20
40.974219
 10
-37.046583
 20
38.025781
 42
-1.120577
 10
-37.046583
 20
45.974219
 10
-11.203417
 20
43.025781
 42
1.120577
 10
-11.203417
 20
50.974219
 10
-37.046583
 20
48.025781
 42
-1.120577
 10
-37.046583
 20
55.974219
 10
-11.203417
 20
53.025781
 42
0.486056
 10
-6.781373
 20
57.5
  0
LWPOLYLINE
  5
663
100
AcDbEntity
  8
CENTRUM
100
AcDbPolyline
 90
        6
 70
     0
 43
0.0
 10
0.0
 20
57.5
 10
-4.25
 20
57.5
 10
-6.25
 20
57.5
 10
-42.0
 20
57.5
 10
-44.0
 20
57.5
 10
-50.0
 20
57.5
  0
LWPOLYLINE
  5
664
100
AcDbEntity
  8
SPKONTUR
100
AcDbPolyline
 90
        2
 70
     0
 43
0.0
 10
-44.0
 20
46.001
 10
-44.0
 20
57.5
  0
LWPOLYLINE
  5
665
100
AcDbEntity
  8
STALPROFIL
100
AcDbPolyline
 90
        2
 70
     0
 43
2.0
 10
-43.0
 20
46.001
 10
-43.0
 20
57.5
  0
LWPOLYLINE
  5
666
100
AcDbEntity
  8
STALPROFIL
100
AcDbPolyline
 90
        2
 70
     0
 43
2.0
 10
-5.25
 20
46.001
 10
-5.25
 20
57.5
  0
LWPOLYLINE
  5
667
100
AcDbEntity
  8
SPKONTUR
100
AcDbPolyline
 90
        2
 70
     0
 43
0.0
 10
-4.25
 20
46.001
 10
-4.25
 20
57.5
  0
ENDBLK
  5
669
100
AcDbEntity
  8
0
100
AcDbBlockEnd
  0
BLOCK
  5
24D
100
AcDbEntity
  8
0
100
AcDbBlockBegin
  2
GLAS30-4X3DK
 70
     0
 10
0.0
 20
0.0
 30
0.0
  3
GLAS30-4X3DK
  1

  0
LINE
  5
208
100
AcDbEntity
  8
GLAS_MED_FOGNING
100
AcDbLine
 10
7.0
 20
32.0
 30
0.0
 11
3.0
 21
32.0
 31
0.0
  0
LINE
  5
209
100
AcDbEntity
  8
GLAS_MED_FOGNING
100
AcDbLine
 10
7.0
 20
34.0
 30
0.0
 11
3.0
 21
34.0
 31
0.0
  0
LINE
  5
20A
100
AcDbEntity
  8
GLAS_MED_FOGNING
100
AcDbLine
 10
7.0
 20
33.0
 30
0.0
 11
3.0
 21
33.0
 31
0.0
  0
LINE
  5
20B
100
AcDbEntity
  8
GLAS_MED_FOGNING
100
AcDbLine
 10
7.0
 20
35.0
 30
0.0
 11
3.0
 21
35.0
 31
0.0
  0
LINE
  5
20C
100
AcDbEntity
  8
GLAS_MED_FOGNING
100
AcDbLine
 10
7.0
 20
36.0
 30
0.0
 11
3.0
 21
36.0
 31
0.0
  0
LINE
  5
20D
100
AcDbEntity
  8
GLAS_MED_FOGNING
100
AcDbLine
 10
7.0
 20
38.0
 30
0.0
 11
3.0
 21
38.0
 31
0.0
  0
LINE
  5
20E
100
AcDbEntity
  8
GLAS_MED_FOGNING
100
AcDbLine
 10
7.0
 20
37.0
 30
0.0
 11
3.0
 21
37.0
 31
0.0
  0
LINE
  5
20F
100
AcDbEntity
  8
GLAS_MED_FOGNING
100
AcDbLine
 10
7.0
 20
40.0
 30
0.0
 11
3.0
 21
40.0
 31
0.0
  0
LINE
  5
210
100
AcDbEntity
  8
GLAS_MED_FOGNING
100
AcDbLine
 10
7.0
 20
39.0
 30
0.0
 11
3.0
 21
39.0
 31
0.0
  0
LINE
  5
211
100
AcDbEntity
  8
GLAS_MED_FOGNING
100
AcDbLine
 10
7.0
 20
41.0
 30
0.0
 11
3.0
 21
41.0
 31
0.0
  0
LINE
  5
212
100
AcDbEntity
  8
GLAS_MED_FOGNING
100
AcDbLine
 10
7.0
 20
31.0
 30
0.0
 11
3.0
 21
31.0
 31
0.0
  0
INSERT
  5
213
100
AcDbEntity
  8
GLAS_MED_FOGNING
100
AcDbBlockReference
  2
*X61
 10
65.0
 20
0.0
 30
0.0
1001
ACAD
1000
HATCH
1002
{
1070
    16
1000
AR-SAND
1040
2.0
1040
0.0
1002
}
  0
ARC
  5
220
100
AcDbEntity
  8
GLAS_MED_FOGNING
100
AcDbCircle
 10
3.0
 20
47.0
 30
0.0
 40
4.0
100
AcDbArc
 50
270.0
 51
0.0
  0
LINE
  5
221
100
AcDbEntity
  8
GLAS_MED_FOGNING
100
AcDbLine
 10
37.0
 20
49.0
 30
0.0
 11
37.0
 21
30.0
 31
0.0
  0
LINE
  5
222
100
AcDbEntity
  8
GLAS_MED_FOGNING
100
AcDbLine
 10
7.0
 20
49.0
 30
0.0
 11
7.0
 21
30.0
 31
0.0
  0
LINE
  5
223
100
AcDbEntity
  8
GLAS_MED_FOGNING
100
AcDbLine
 10
37.0
 20
30.0
 30
0.0
 11
7.0
 21
30.0
 31
0.0
  0
LINE
  5
224
100
AcDbEntity
  8
GLAS_MED_FOGNING
100
AcDbLine
 10
7.0
 20
30.0
 30
0.0
 11
37.0
 21
25.0
 31
0.0
  0
LINE
  5
225
100
AcDbEntity
  8
GLAS_MED_FOGNING
100
AcDbLine
 10
37.0
 20
30.0
 30
0.0
 11
7.0
 21
25.0
 31
0.0
  0
LINE
  5
226
100
AcDbEntity
  8
GLAS_MED_FOGNING
100
AcDbLine
 10
7.0
 20
30.0
 30
0.0
 11
7.0
 21
25.0
 31
0.0
  0
LINE
  5
227
100
AcDbEntity
  8
GLAS_MED_FOGNING
100
AcDbLine
 10
40.0
 20
32.0
 30
0.0
 11
37.0
 21
32.0
 31
0.0
  0
LINE
  5
228
100
AcDbEntity
  8
GLAS_MED_FOGNING
100
AcDbLine
 10
40.0
 20
33.0
 30
0.0
 11
37.0
 21
33.0
 31
0.0
  0
LINE
  5
229
100
AcDbEntity
  8
GLAS_MED_FOGNING
100
AcDbLine
 10
40.0
 20
34.0
 30
0.0
 11
37.0
 21
34.0
 31
0.0
  0
LINE
  5
22A
100
AcDbEntity
  8
GLAS_MED_FOGNING
100
AcDbLine
 10
40.0
 20
35.0
 30
0.0
 11
37.0
 21
35.0
 31
0.0
  0
LINE
  5
22B
100
AcDbEntity
  8
GLAS_MED_FOGNING
100
AcDbLine
 10
40.0
 20
36.0
 30
0.0
 11
37.0
 21
36.0
 31
0.0
  0
LINE
  5
22C
100
AcDbEntity
  8
GLAS_MED_FOGNING
100
AcDbLine
 10
40.0
 20
31.0
 30
0.0
 11
37.0
 21
31.0
 31
0.0
  0
INSERT
  5
22D
100
AcDbEntity
  8
GLAS_MED_FOGNING
100
AcDbBlockReference
  2
*X62
 10
55.0
 20
0.0
 30
0.0
1001
ACAD
1000
HATCH
1002
{
1070
    16
1000
AR-SAND
1040
2.0
1040
0.0
1002
}
  0
LINE
  5
23A
100
AcDbEntity
  8
GLAS_MED_FOGNING
100
AcDbLine
 10
37.0
 20
30.0
 30
0.0
 11
37.0
 21
25.0
 31
0.0
  0
INSERT
  5
23B
100
AcDbEntity
  8
GLAS_MED_FOGNING
100
AcDbBlockReference
  2
*X59
 10
65.0
 20
0.0
 30
0.0
1001
ACAD
1000
HATCH
1002
{
1070
    16
1000
AR-SAND
1040
2.0
1040
0.0
1002
}
  0
LINE
  5
240
100
AcDbEntity
  8
GLAS_MED_FOGNING
100
AcDbLine
 10
40.0
 20
37.0
 30
0.0
 11
37.0
 21
37.0
 31
0.0
  0
LINE
  5
241
100
AcDbEntity
  8
GLAS_MED_FOGNING
100
AcDbLine
 10
40.0
 20
38.0
 30
0.0
 11
37.0
 21
38.0
 31
0.0
  0
LINE
  5
242
100
AcDbEntity
  8
GLAS_MED_FOGNING
100
AcDbLine
 10
40.0
 20
39.0
 30
0.0
 11
37.0
 21
39.0
 31
0.0
  0
LINE
  5
243
100
AcDbEntity
  8
GLAS_MED_FOGNING
100
AcDbLine
 10
40.0
 20
40.0
 30
0.0
 11
37.0
 21
40.0
 31
0.0
  0
LINE
  5
244
100
AcDbEntity
  8
GLAS_MED_FOGNING
100
AcDbLine
 10
40.0
 20
41.0
 30
0.0
 11
37.0
 21
41.0
 31
0.0
  0
ARC
  5
245
100
AcDbEntity
  8
GLAS_MED_FOGNING
100
AcDbCircle
 10
40.0
 20
46.0
 30
0.0
 40
3.0
100
AcDbArc
 50
180.0
 51
270.0
  0
INSERT
  5
246
100
AcDbEntity
  8
GLAS_MED_FOGNING
100
AcDbBlockReference
  2
*X60
 10
55.0
 20
0.0
 30
0.0
1001
ACAD
1000
HATCH
1002
{
1070
    16
1000
AR-SAND
1040
2.0
1040
0.0
1002
}
  0
ENDBLK
  5
24E
100
AcDbEntity
  8
0
100
AcDbBlockEnd
  0
BLOCK
  5
454
100
AcDbEntity
  8
0
100
AcDbBlockBegin
  2
*X65
 70
     1
 10
0.0
 20
0.0
 30
0.0
  3
*X65
  1

  0
LINE
  5
408
100
AcDbEntity
  8
0
 62
     0
100
AcDbLine
 10
-27.153021
 20
26.568601
 30
0.0
 11
-27.153021
 21
26.568601
 31
0.0
  0
LINE
  5
409
100
AcDbEntity
  8
0
 62
     0
100
AcDbLine
 10
-24.574622
 20
28.547076
 30
0.0
 11
-24.574622
 21
28.547076
 31
0.0
  0
LINE
  5
40A
100
AcDbEntity
  8
0
 62
     0
100
AcDbLine
 10
-32.388203
 20
26.501825
 30
0.0
 11
-32.388203
 21
26.501825
 31
0.0
  0
LINE
  5
40B
100
AcDbEntity
  8
0
 62
     0
100
AcDbLine
 10
-29.976409
 20
28.35246
 30
0.0
 11
-29.976409
 21
28.35246
 31
0.0
  0
LINE
  5
40C
100
AcDbEntity
  8
0
 62
     0
100
AcDbLine
 10
-37.789989
 20
26.307209
 30
0.0
 11
-37.789989
 21
26.307209
 31
0.0
  0
LINE
  5
40D
100
AcDbEntity
  8
0
 62
     0
100
AcDbLine
 10
-35.092588
 20
28.376998
 30
0.0
 11
-35.092588
 21
28.376998
 31
0.0
  0
LINE
  5
40E
100
AcDbEntity
  8
0
 62
     0
100
AcDbLine
 10
-42.906168
 20
26.331747
 30
0.0
 11
-42.906168
 21
26.331747
 31
0.0
  0
LINE
  5
40F
100
AcDbEntity
  8
0
 62
     0
100
AcDbLine
 10
-40.32777
 20
28.310222
 30
0.0
 11
-40.32777
 21
28.310222
 31
0.0
  0
LINE
  5
410
100
AcDbEntity
  8
0
 62
     0
100
AcDbLine
 10
-45.729557
 20
28.115606
 30
0.0
 11
-45.729557
 21
28.115606
 31
0.0
  0
LINE
  5
411
100
AcDbEntity
  8
0
 62
     0
100
AcDbLine
 10
-43.032155
 20
30.185395
 30
0.0
 11
-43.032155
 21
30.185395
 31
0.0
  0
LINE
  5
412
100
AcDbEntity
  8
0
 62
     0
100
AcDbLine
 10
-22.036841
 20
26.544063
 30
0.0
 11
-22.036841
 21
26.544063
 31
0.0
  0
LINE
  5
413
100
AcDbEntity
  8
0
 62
     0
100
AcDbLine
 10
-19.33944
 20
28.613852
 30
0.0
 11
-19.33944
 21
28.613852
 31
0.0
  0
LINE
  5
414
100
AcDbEntity
  8
0
 62
     0
100
AcDbLine
 10
-16.635055
 20
26.738679
 30
0.0
 11
-16.635055
 21
26.738679
 31
0.0
  0
LINE
  5
415
100
AcDbEntity
  8
0
 62
     0
100
AcDbLine
 10
-14.223261
 20
28.589314
 30
0.0
 11
-14.223261
 21
28.589314
 31
0.0
  0
LINE
  5
416
100
AcDbEntity
  8
0
 62
     0
100
AcDbLine
 10
-11.525859
 20
30.659102
 30
0.0
 11
-11.525859
 21
30.659102
 31
0.0
  0
LINE
  5
417
100
AcDbEntity
  8
0
 62
     0
100
AcDbLine
 10
-11.399873
 20
26.805455
 30
0.0
 11
-11.399873
 21
26.805455
 31
0.0
  0
LINE
  5
418
100
AcDbEntity
  8
0
 62
     0
100
AcDbLine
 10
-44.406244
 20
25.223614
 30
0.0
 11
-44.406244
 21
25.223614
 31
0.0
  0
LINE
  5
419
100
AcDbEntity
  8
0
 62
     0
100
AcDbLine
 10
-43.365227
 20
25.360666
 30
0.0
 11
-43.365227
 21
25.360666
 31
0.0
  0
LINE
  5
41A
100
AcDbEntity
  8
0
 62
     0
100
AcDbLine
 10
-41.739257
 20
25.574729
 30
0.0
 11
-41.739257
 21
25.574729
 31
0.0
  0
LINE
  5
41B
100
AcDbEntity
  8
0
 62
     0
100
AcDbLine
 10
-39.022698
 20
25.932371
 30
0.0
 11
-39.022698
 21
25.932371
 31
0.0
  0
LINE
  5
41C
100
AcDbEntity
  8
0
 62
     0
100
AcDbLine
 10
-37.981681
 20
26.069423
 30
0.0
 11
-37.981681
 21
26.069423
 31
0.0
  0
LINE
  5
41D
100
AcDbEntity
  8
0
 62
     0
100
AcDbLine
 10
-36.355712
 20
26.283486
 30
0.0
 11
-36.355712
 21
26.283486
 31
0.0
  0
LINE
  5
41E
100
AcDbEntity
  8
0
 62
     0
100
AcDbLine
 10
-33.639153
 20
26.641128
 30
0.0
 11
-33.639153
 21
26.641128
 31
0.0
  0
LINE
  5
41F
100
AcDbEntity
  8
0
 62
     0
100
AcDbLine
 10
-32.598136
 20
26.778181
 30
0.0
 11
-32.598136
 21
26.778181
 31
0.0
  0
LINE
  5
420
100
AcDbEntity
  8
0
 62
     0
100
AcDbLine
 10
-30.972166
 20
26.992244
 30
0.0
 11
-30.972166
 21
26.992244
 31
0.0
  0
LINE
  5
421
100
AcDbEntity
  8
0
 62
     0
100
AcDbLine
 10
-28.255607
 20
27.349885
 30
0.0
 11
-28.255607
 21
27.349885
 31
0.0
  0
LINE
  5
422
100
AcDbEntity
  8
0
 62
     0
100
AcDbLine
 10
-27.21459
 20
27.486938
 30
0.0
 11
-27.21459
 21
27.486938
 31
0.0
  0
LINE
  5
423
100
AcDbEntity
  8
0
 62
     0
100
AcDbLine
 10
-25.58862
 20
27.701001
 30
0.0
 11
-25.58862
 21
27.701001
 31
0.0
  0
LINE
  5
424
100
AcDbEntity
  8
0
 62
     0
100
AcDbLine
 10
-22.872061
 20
28.058642
 30
0.0
 11
-22.872061
 21
28.058642
 31
0.0
  0
LINE
  5
425
100
AcDbEntity
  8
0
 62
     0
100
AcDbLine
 10
-21.831044
 20
28.195695
 30
0.0
 11
-21.831044
 21
28.195695
 31
0.0
  0
LINE
  5
426
100
AcDbEntity
  8
0
 62
     0
100
AcDbLine
 10
-20.205075
 20
28.409758
 30
0.0
 11
-20.205075
 21
28.409758
 31
0.0
  0
LINE
  5
427
100
AcDbEntity
  8
0
 62
     0
100
AcDbLine
 10
-17.488516
 20
28.7674
 30
0.0
 11
-17.488516
 21
28.7674
 31
0.0
  0
LINE
  5
428
100
AcDbEntity
  8
0
 62
     0
100
AcDbLine
 10
-16.447499
 20
28.904452
 30
0.0
 11
-16.447499
 21
28.904452
 31
0.0
  0
LINE
  5
429
100
AcDbEntity
  8
0
 62
     0
100
AcDbLine
 10
-14.821529
 20
29.118515
 30
0.0
 11
-14.821529
 21
29.118515
 31
0.0
  0
LINE
  5
42A
100
AcDbEntity
  8
0
 62
     0
100
AcDbLine
 10
-12.10497
 20
29.476157
 30
0.0
 11
-12.10497
 21
29.476157
 31
0.0
  0
LINE
  5
42B
100
AcDbEntity
  8
0
 62
     0
100
AcDbLine
 10
-11.063953
 20
29.613209
 30
0.0
 11
-11.063953
 21
29.613209
 31
0.0
  0
LINE
  5
42C
100
AcDbEntity
  8
0
 62
     0
100
AcDbLine
 10
-46.250236
 20
30.159149
 30
0.0
 11
-46.250236
 21
30.159149
 31
0.0
  0
LINE
  5
42D
100
AcDbEntity
  8
0
 62
     0
100
AcDbLine
 10
-45.209219
 20
30.296201
 30
0.0
 11
-45.209219
 21
30.296201
 31
0.0
  0
LINE
  5
42E
100
AcDbEntity
  8
0
 62
     0
100
AcDbLine
 10
-43.583249
 20
30.510264
 30
0.0
 11
-43.583249
 21
30.510264
 31
0.0
  0
LINE
  5
42F
100
AcDbEntity
  8
0
 62
     0
100
AcDbLine
 10
-29.993
 20
29.477973
 30
0.0
 11
-29.993
 21
29.477973
 31
0.0
  0
LINE
  5
430
100
AcDbEntity
  8
0
 62
     0
100
AcDbLine
 10
-26.956791
 20
27.543694
 30
0.0
 11
-26.956791
 21
27.543694
 31
0.0
  0
LINE
  5
431
100
AcDbEntity
  8
0
 62
     0
100
AcDbLine
 10
-22.992851
 20
25.018386
 30
0.0
 11
-22.992851
 21
25.018386
 31
0.0
  0
LINE
  5
432
100
AcDbEntity
  8
0
 62
     0
100
AcDbLine
 10
-23.764716
 20
29.489291
 30
0.0
 11
-23.764716
 21
29.489291
 31
0.0
  0
LINE
  5
433
100
AcDbEntity
  8
0
 62
     0
100
AcDbLine
 10
-20.728507
 20
27.555012
 30
0.0
 11
-20.728507
 21
27.555012
 31
0.0
  0
LINE
  5
434
100
AcDbEntity
  8
0
 62
     0
100
AcDbLine
 10
-16.764567
 20
25.029704
 30
0.0
 11
-16.764567
 21
25.029704
 31
0.0
  0
LINE
  5
435
100
AcDbEntity
  8
0
 62
     0
100
AcDbLine
 10
-17.536433
 20
29.500609
 30
0.0
 11
-17.536433
 21
29.500609
 31
0.0
  0
LINE
  5
436
100
AcDbEntity
  8
0
 62
     0
100
AcDbLine
 10
-14.500223
 20
27.56633
 30
0.0
 11
-14.500223
 21
27.56633
 31
0.0
  0
LINE
  5
437
100
AcDbEntity
  8
0
 62
     0
100
AcDbLine
 10
-10.536284
 20
25.041022
 30
0.0
 11
-10.536284
 21
25.041022
 31
0.0
  0
LINE
  5
438
100
AcDbEntity
  8
0
 62
     0
100
AcDbLine
 10
-12.15154
 20
30.049227
 30
0.0
 11
-12.15154
 21
30.049227
 31
0.0
  0
LINE
  5
439
100
AcDbEntity
  8
0
 62
     0
100
AcDbLine
 10
-11.308149
 20
29.511927
 30
0.0
 11
-11.308149
 21
29.511927
 31
0.0
  0
LINE
  5
43A
100
AcDbEntity
  8
0
 62
     0
100
AcDbLine
 10
-36.221284
 20
29.466655
 30
0.0
 11
-36.221284
 21
29.466655
 31
0.0
  0
LINE
  5
43B
100
AcDbEntity
  8
0
 62
     0
100
AcDbLine
 10
-33.185075
 20
27.532376
 30
0.0
 11
-33.185075
 21
27.532376
 31
0.0
  0
LINE
  5
43C
100
AcDbEntity
  8
0
 62
     0
100
AcDbLine
 10
-29.221135
 20
25.007068
 30
0.0
 11
-29.221135
 21
25.007068
 31
0.0
  0
LINE
  5
43D
100
AcDbEntity
  8
0
 62
     0
100
AcDbLine
 10
-43.292959
 20
29.992636
 30
0.0
 11
-43.292959
 21
29.992636
 31
0.0
  0
LINE
  5
43E
100
AcDbEntity
  8
0
 62
     0
100
AcDbLine
 10
-42.449568
 20
29.455337
 30
0.0
 11
-42.449568
 21
29.455337
 31
0.0
  0
LINE
  5
43F
100
AcDbEntity
  8
0
 62
     0
100
AcDbLine
 10
-39.413358
 20
27.521058
 30
0.0
 11
-39.413358
 21
27.521058
 31
0.0
  0
LINE
  5
440
100
AcDbEntity
  8
0
 62
     0
100
AcDbLine
 10
-45.641642
 20
27.50974
 30
0.0
 11
-45.641642
 21
27.50974
 31
0.0
  0
LINE
  5
441
100
AcDbEntity
  8
0
 62
     0
100
AcDbLine
 10
-34.885457
 20
29.712457
 30
0.0
 11
-34.885457
 21
29.712457
 31
0.0
  0
LINE
  5
442
100
AcDbEntity
  8
0
 62
     0
100
AcDbLine
 10
-33.145483
 20
28.118064
 30
0.0
 11
-33.145483
 21
28.118064
 31
0.0
  0
LINE
  5
443
100
AcDbEntity
  8
0
 62
     0
100
AcDbLine
 10
-31.154834
 20
26.293971
 30
0.0
 11
-31.154834
 21
26.293971
 31
0.0
  0
LINE
  5
444
100
AcDbEntity
  8
0
 62
     0
100
AcDbLine
 10
-30.786195
 20
25.956176
 30
0.0
 11
-30.786195
 21
25.956176
 31
0.0
  0
LINE
  5
445
100
AcDbEntity
  8
0
 62
     0
100
AcDbLine
 10
-27.13323
 20
29.873416
 30
0.0
 11
-27.13323
 21
29.873416
 31
0.0
  0
LINE
  5
446
100
AcDbEntity
  8
0
 62
     0
100
AcDbLine
 10
-25.142581
 20
28.049322
 30
0.0
 11
-25.142581
 21
28.049322
 31
0.0
  0
LINE
  5
447
100
AcDbEntity
  8
0
 62
     0
100
AcDbLine
 10
-24.773942
 20
27.711527
 30
0.0
 11
-24.773942
 21
27.711527
 31
0.0
  0
LINE
  5
448
100
AcDbEntity
  8
0
 62
     0
100
AcDbLine
 10
-23.033968
 20
26.117134
 30
0.0
 11
-23.033968
 21
26.117134
 31
0.0
  0
LINE
  5
449
100
AcDbEntity
  8
0
 62
     0
100
AcDbLine
 10
-19.130328
 20
29.804673
 30
0.0
 11
-19.130328
 21
29.804673
 31
0.0
  0
LINE
  5
44A
100
AcDbEntity
  8
0
 62
     0
100
AcDbLine
 10
-18.761689
 20
29.466878
 30
0.0
 11
-18.761689
 21
29.466878
 31
0.0
  0
LINE
  5
44B
100
AcDbEntity
  8
0
 62
     0
100
AcDbLine
 10
-17.021714
 20
27.872485
 30
0.0
 11
-17.021714
 21
27.872485
 31
0.0
  0
LINE
  5
44C
100
AcDbEntity
  8
0
 62
     0
100
AcDbLine
 10
-15.031066
 20
26.048392
 30
0.0
 11
-15.031066
 21
26.048392
 31
0.0
  0
LINE
  5
44D
100
AcDbEntity
  8
0
 62
     0
100
AcDbLine
 10
-14.662427
 20
25.710596
 30
0.0
 11
-14.662427
 21
25.710596
 31
0.0
  0
LINE
  5
44E
100
AcDbEntity
  8
0
 62
     0
100
AcDbLine
 10
-11.009461
 20
29.627836
 30
0.0
 11
-11.009461
 21
29.627836
 31
0.0
  0
LINE
  5
44F
100
AcDbEntity
  8
0
 62
     0
100
AcDbLine
 10
-43.256998
 20
30.118995
 30
0.0
 11
-43.256998
 21
30.118995
 31
0.0
  0
LINE
  5
450
100
AcDbEntity
  8
0
 62
     0
100
AcDbLine
 10
-41.266349
 20
28.294901
 30
0.0
 11
-41.266349
 21
28.294901
 31
0.0
  0
LINE
  5
451
100
AcDbEntity
  8
0
 62
     0
100
AcDbLine
 10
-40.89771
 20
27.957106
 30
0.0
 11
-40.89771
 21
27.957106
 31
0.0
  0
LINE
  5
452
100
AcDbEntity
  8
0
 62
     0
100
AcDbLine
 10
-39.157736
 20
26.362713
 30
0.0
 11
-39.157736
 21
26.362713
 31
0.0
  0
LINE
  5
453
100
AcDbEntity
  8
0
 62
     0
100
AcDbLine
 10
-46.909964
 20
26.201755
 30
0.0
 11
-46.909964
 21
26.201755
 31
0.0
  0
ENDBLK
  5
455
100
AcDbEntity
  8
0
100
AcDbBlockEnd
  0
BLOCK
  5
467
100
AcDbEntity
  8
0
100
AcDbBlockBegin
  2
GLAS30-4X3
 70
     0
 10
0.0
 20
0.0
 30
0.0
  3
GLAS30-4X3
  1

  0
LINE
  5
3FA
100
AcDbEntity
  8
GLAS_MED_FOGNING
100
AcDbLine
 10
7.0
 20
41.0
 30
0.0
 11
3.0
 21
41.0
 31
0.0
  0
LINE
  5
3FB
100
AcDbEntity
  8
GLAS_MED_FOGNING
100
AcDbLine
 10
7.0
 20
39.0
 30
0.0
 11
3.0
 21
39.0
 31
0.0
  0
LINE
  5
3FC
100
AcDbEntity
  8
GLAS_MED_FOGNING
100
AcDbLine
 10
7.0
 20
40.0
 30
0.0
 11
3.0
 21
40.0
 31
0.0
  0
LINE
  5
3FD
100
AcDbEntity
  8
GLAS_MED_FOGNING
100
AcDbLine
 10
7.0
 20
37.0
 30
0.0
 11
3.0
 21
37.0
 31
0.0
  0
LINE
  5
3FE
100
AcDbEntity
  8
GLAS_MED_FOGNING
100
AcDbLine
 10
7.0
 20
38.0
 30
0.0
 11
3.0
 21
38.0
 31
0.0
  0
LINE
  5
3FF
100
AcDbEntity
  8
GLAS_MED_FOGNING
100
AcDbLine
 10
7.0
 20
36.0
 30
0.0
 11
3.0
 21
36.0
 31
0.0
  0
LINE
  5
400
100
AcDbEntity
  8
GLAS_MED_FOGNING
100
AcDbLine
 10
7.0
 20
35.0
 30
0.0
 11
3.0
 21
35.0
 31
0.0
  0
LINE
  5
401
100
AcDbEntity
  8
GLAS_MED_FOGNING
100
AcDbLine
 10
7.0
 20
33.0
 30
0.0
 11
3.0
 21
33.0
 31
0.0
  0
LINE
  5
402
100
AcDbEntity
  8
GLAS_MED_FOGNING
100
AcDbLine
 10
7.0
 20
34.0
 30
0.0
 11
3.0
 21
34.0
 31
0.0
  0
LINE
  5
403
100
AcDbEntity
  8
GLAS_MED_FOGNING
100
AcDbLine
 10
7.0
 20
32.0
 30
0.0
 11
3.0
 21
32.0
 31
0.0
  0
LINE
  5
404
100
AcDbEntity
  8
GLAS_MED_FOGNING
100
AcDbLine
 10
7.0
 20
31.0
 30
0.0
 11
3.0
 21
31.0
 31
0.0
  0
ARC
  5
405
100
AcDbEntity
  8
GLAS_MED_FOGNING
100
AcDbCircle
 10
3.0
 20
47.0
 30
0.0
 40
4.0
100
AcDbArc
 50
270.0
 51
0.0
  0
INSERT
  5
406
100
AcDbEntity
  8
GLAS_MED_FOGNING
100
AcDbBlockReference
  2
*X65
 10
50.0
 20
0.0
 30
0.0
1001
ACAD
1000
HATCH
1002
{
1070
    16
1000
AR-SAND
1040
2.0
1040
0.0
1002
}
  0
LINE
  5
456
100
AcDbEntity
  8
GLAS_MED_FOGNING
100
AcDbLine
 10
37.0
 20
30.0
 30
0.0
 11
7.0
 21
30.0
 31
0.0
  0
LINE
  5
457
100
AcDbEntity
  8
GLAS_MED_FOGNING
100
AcDbLine
 10
7.0
 20
49.0
 30
0.0
 11
7.0
 21
30.0
 31
0.0
  0
INSERT
  5
458
100
AcDbEntity
  8
GLAS_MED_FOGNING
100
AcDbBlockReference
  2
*X59
 10
65.0
 20
0.0
 30
0.0
1001
ACAD
1000
HATCH
1002
{
1070
    16
1000
AR-SAND
1040
2.0
1040
0.0
1002
}
  0
LINE
  5
459
100
AcDbEntity
  8
GLAS_MED_FOGNING
100
AcDbLine
 10
37.0
 20
49.0
 30
0.0
 11
37.0
 21
30.0
 31
0.0
  0
LINE
  5
45A
100
AcDbEntity
  8
GLAS_MED_FOGNING
100
AcDbLine
 10
40.0
 20
39.0
 30
0.0
 11
37.0
 21
39.0
 31
0.0
  0
LINE
  5
45B
100
AcDbEntity
  8
GLAS_MED_FOGNING
100
AcDbLine
 10
40.0
 20
38.0
 30
0.0
 11
37.0
 21
38.0
 31
0.0
  0
LINE
  5
45C
100
AcDbEntity
  8
GLAS_MED_FOGNING
100
AcDbLine
 10
40.0
 20
37.0
 30
0.0
 11
37.0
 21
37.0
 31
0.0
  0
LINE
  5
45D
100
AcDbEntity
  8
GLAS_MED_FOGNING
100
AcDbLine
 10
40.0
 20
36.0
 30
0.0
 11
37.0
 21
36.0
 31
0.0
  0
LINE
  5
45E
100
AcDbEntity
  8
GLAS_MED_FOGNING
100
AcDbLine
 10
40.0
 20
35.0
 30
0.0
 11
37.0
 21
35.0
 31
0.0
  0
LINE
  5
45F
100
AcDbEntity
  8
GLAS_MED_FOGNING
100
AcDbLine
 10
40.0
 20
34.0
 30
0.0
 11
37.0
 21
34.0
 31
0.0
  0
LINE
  5
460
100
AcDbEntity
  8
GLAS_MED_FOGNING
100
AcDbLine
 10
40.0
 20
33.0
 30
0.0
 11
37.0
 21
33.0
 31
0.0
  0
LINE
  5
461
100
AcDbEntity
  8
GLAS_MED_FOGNING
100
AcDbLine
 10
40.0
 20
32.0
 30
0.0
 11
37.0
 21
32.0
 31
0.0
  0
LINE
  5
462
100
AcDbEntity
  8
GLAS_MED_FOGNING
100
AcDbLine
 10
40.0
 20
31.0
 30
0.0
 11
37.0
 21
31.0
 31
0.0
  0
LINE
  5
463
100
AcDbEntity
  8
GLAS_MED_FOGNING
100
AcDbLine
 10
40.0
 20
41.0
 30
0.0
 11
37.0
 21
41.0
 31
0.0
  0
LINE
  5
464
100
AcDbEntity
  8
GLAS_MED_FOGNING
100
AcDbLine
 10
40.0
 20
40.0
 30
0.0
 11
37.0
 21
40.0
 31
0.0
  0
ARC
  5
465
100
AcDbEntity
  8
GLAS_MED_FOGNING
100
AcDbCircle
 10
40.0
 20
46.0
 30
0.0
 40
3.0
100
AcDbArc
 50
180.0
 51
270.0
  0
INSERT
  5
466
100
AcDbEntity
  8
GLAS_MED_FOGNING
100
AcDbBlockReference
  2
*X60
 10
55.0
 20
0.0
 30
0.0
1001
ACAD
1000
HATCH
1002
{
1070
    16
1000
AR-SAND
1040
2.0
1040
0.0
1002
}
  0
ENDBLK
  5
468
100
AcDbEntity
  8
0
100
AcDbBlockEnd
  0
BLOCK
  5
25E
100
AcDbEntity
  8
0
100
AcDbBlockBegin
  2
50_30SP41020DK
 70
     0
 10
0.0
 20
0.0
 30
0.0
  3
50_30SP41020DK
  1

  0
INSERT
  5
206
100
AcDbEntity
  8
0
100
AcDbBlockReference
  2
GLAS30-4X3DK
 10
-50.0
 20
0.0
 30
0.0
  0
LWPOLYLINE
  5
24F
100
AcDbEntity
  8
CENTRUM
100
AcDbPolyline
 90
        4
 70
     0
 43
0.0
 10
0.0
 20
57.5
 10
-13.0
 20
57.5
 10
-43.0
 20
57.5
 10
-50.0
 20
57.5
  0
INSERT
  5
250
100
AcDbEntity
  8
0
100
AcDbBlockReference
  2
SP41020
 10
0.0
 20
0.0
 30
0.0
  0
LINE
  5
25C
100
AcDbEntity
  8
GLAS_MED_FOGNING
100
AcDbLine
 10
-43.0
 20
57.5
 30
0.0
 11
-43.0
 21
49.0
 31
0.0
  0
LINE
  5
25D
100
AcDbEntity
  8
GLAS_MED_FOGNING
100
AcDbLine
 10
-13.0
 20
57.5
 30
0.0
 11
-13.0
 21
49.0
 31
0.0
  0
ENDBLK
  5
25F
100
AcDbEntity
  8
0
100
AcDbBlockEnd
  0
BLOCK
  5
46D
100
AcDbEntity
  8
0
100
AcDbBlockBegin
  2
50_30SP41020
 70
     0
 10
0.0
 20
0.0
 30
0.0
  3
50_30SP41020
  1

  0
INSERT
  5
3F8
100
AcDbEntity
  8
0
100
AcDbBlockReference
  2
GLAS30-4X3
 10
-50.0
 20
0.0
 30
0.0
  0
LWPOLYLINE
  5
469
100
AcDbEntity
  8
CENTRUM
100
AcDbPolyline
 90
        4
 70
     0
 43
0.0
 10
0.0
 20
57.5
 10
-13.0
 20
57.5
 10
-43.0
 20
57.5
 10
-50.0
 20
57.5
  0
INSERT
  5
46A
100
AcDbEntity
  8
0
100
AcDbBlockReference
  2
SP41020
 10
0.0
 20
0.0
 30
0.0
  0
LINE
  5
46B
100
AcDbEntity
  8
GLAS_MED_FOGNING
100
AcDbLine
 10
-13.0
 20
57.5
 30
0.0
 11
-13.0
 21
49.0
 31
0.0
  0
LINE
  5
46C
100
AcDbEntity
  8
GLAS_MED_FOGNING
100
AcDbLine
 10
-43.0
 20
57.5
 30
0.0
 11
-43.0
 21
49.0
 31
0.0
  0
ENDBLK
  5
46E
100
AcDbEntity
  8
0
100
AcDbBlockEnd
  0
BLOCK
  5
62C
100
AcDbEntity
  8
0
100
AcDbBlockBegin
  2
*X69
 70
     1
 10
0.0
 20
0.0
 30
0.0
  3
*X69
  1

  0
LINE
  5
61F
100
AcDbEntity
  8
0
 62
     0
100
AcDbLine
 10
-46.107517
 20
39.676548
 30
0.0
 11
-46.107517
 21
39.676548
 31
0.0
  0
LINE
  5
620
100
AcDbEntity
  8
0
 62
     0
100
AcDbLine
 10
-45.729557
 20
28.115606
 30
0.0
 11
-45.729557
 21
28.115606
 31
0.0
  0
LINE
  5
621
100
AcDbEntity
  8
0
 62
     0
100
AcDbLine
 10
-46.250236
 20
30.159149
 30
0.0
 11
-46.250236
 21
30.159149
 31
0.0
  0
LINE
  5
622
100
AcDbEntity
  8
0
 62
     0
100
AcDbLine
 10
-45.209219
 20
30.296201
 30
0.0
 11
-45.209219
 21
30.296201
 31
0.0
  0
LINE
  5
623
100
AcDbEntity
  8
0
 62
     0
100
AcDbLine
 10
-44.554675
 20
40.738976
 30
0.0
 11
-44.554675
 21
40.738976
 31
0.0
  0
LINE
  5
624
100
AcDbEntity
  8
0
 62
     0
100
AcDbLine
 10
-44.406244
 20
25.223614
 30
0.0
 11
-44.406244
 21
25.223614
 31
0.0
  0
LINE
  5
625
100
AcDbEntity
  8
0
 62
     0
100
AcDbLine
 10
-43.365227
 20
25.360666
 30
0.0
 11
-43.365227
 21
25.360666
 31
0.0
  0
LINE
  5
626
100
AcDbEntity
  8
0
 62
     0
100
AcDbLine
 10
-46.523472
 20
40.009045
 30
0.0
 11
-46.523472
 21
40.009045
 31
0.0
  0
LINE
  5
627
100
AcDbEntity
  8
0
 62
     0
100
AcDbLine
 10
-45.680081
 20
39.471746
 30
0.0
 11
-45.680081
 21
39.471746
 31
0.0
  0
LINE
  5
628
100
AcDbEntity
  8
0
 62
     0
100
AcDbLine
 10
-44.259128
 20
42.545671
 30
0.0
 11
-44.259128
 21
42.545671
 31
0.0
  0
LINE
  5
629
100
AcDbEntity
  8
0
 62
     0
100
AcDbLine
 10
-45.641642
 20
27.50974
 30
0.0
 11
-45.641642
 21
27.50974
 31
0.0
  0
LINE
  5
62A
100
AcDbEntity
  8
0
 62
     0
100
AcDbLine
 10
-45.443269
 20
39.386909
 30
0.0
 11
-45.443269
 21
39.386909
 31
0.0
  0
LINE
  5
62B
100
AcDbEntity
  8
0
 62
     0
100
AcDbLine
 10
-46.909964
 20
26.201755
 30
0.0
 11
-46.909964
 21
26.201755
 31
0.0
  0
ENDBLK
  5
62D
100
AcDbEntity
  8
0
100
AcDbBlockEnd
  0
BLOCK
  5
639
100
AcDbEntity
  8
0
100
AcDbBlockBegin
  2
FYLLNV
 70
     0
 10
0.0
 20
0.0
 30
0.0
  3
FYLLNV
  1

  0
LWPOLYLINE
  5
61B
100
AcDbEntity
  8
SPKONTUR
100
AcDbPolyline
 90
        2
 70
     0
 43
0.0
 10
6.0
 20
29.0
 10
6.0
 20
46.001
  0
LWPOLYLINE
  5
61C
100
AcDbEntity
  8
STALPROFIL
100
AcDbPolyline
 90
        2
 70
     0
 43
2.0
 10
7.0
 20
29.0
 10
7.0
 20
46.001
  0
INSERT
  5
61D
100
AcDbEntity
  8
GLAS_MED_FOGNING
100
AcDbBlockReference
  2
*X69
 10
50.0
 20
0.0
 30
0.0
1001
ACAD
1000
HATCH
1002
{
1070
    16
1000
AR-SAND
1040
2.0
1040
0.0
1002
}
  0
ARC
  5
62E
100
AcDbEntity
  8
GLAS_MED_FOGNING
100
AcDbCircle
 10
12.0
 20
29.0
 30
0.0
 40
6.0
100
AcDbArc
 50
180.0
 51
221.810315
  0
LINE
  5
62F
100
AcDbEntity
  8
GLAS_MED_FOGNING
100
AcDbLine
 10
3.0
 20
35.0
 30
0.0
 11
6.0
 21
35.0
 31
0.0
  0
LINE
  5
630
100
AcDbEntity
  8
GLAS_MED_FOGNING
100
AcDbLine
 10
3.0
 20
38.0
 30
0.0
 11
6.0
 21
38.0
 31
0.0
  0
LINE
  5
631
100
AcDbEntity
  8
GLAS_MED_FOGNING
100
AcDbLine
 10
3.0
 20
37.0
 30
0.0
 11
6.0
 21
37.0
 31
0.0
  0
LINE
  5
632
100
AcDbEntity
  8
GLAS_MED_FOGNING
100
AcDbLine
 10
3.0
 20
36.0
 30
0.0
 11
6.0
 21
36.0
 31
0.0
  0
LINE
  5
633
100
AcDbEntity
  8
GLAS_MED_FOGNING
100
AcDbLine
 10
3.0
 20
39.0
 30
0.0
 11
6.0
 21
39.0
 31
0.0
  0
LINE
  5
634
100
AcDbEntity
  8
GLAS_MED_FOGNING
100
AcDbLine
 10
3.0
 20
34.0
 30
0.0
 11
6.0
 21
34.0
 31
0.0
  0
LINE
  5
635
100
AcDbEntity
  8
GLAS_MED_FOGNING
100
AcDbLine
 10
3.0
 20
31.0
 30
0.0
 11
6.0
 21
31.0
 31
0.0
  0
LINE
  5
636
100
AcDbEntity
  8
GLAS_MED_FOGNING
100
AcDbLine
 10
3.0
 20
33.0
 30
0.0
 11
6.0
 21
33.0
 31
0.0
  0
LINE
  5
637
100
AcDbEntity
  8
GLAS_MED_FOGNING
100
AcDbLine
 10
3.0
 20
32.0
 30
0.0
 11
6.0
 21
32.0
 31
0.0
  0
ARC
  5
638
100
AcDbEntity
  8
GLAS_MED_FOGNING
100
AcDbCircle
 10
3.0
 20
46.001
 30
0.0
 40
3.0
100
AcDbArc
 50
270.0
 51
0.0
  0
ENDBLK
  5
63A
100
AcDbEntity
  8
0
100
AcDbBlockEnd
  0
BLOCK
  5
658
100
AcDbEntity
  8
0
100
AcDbBlockBegin
  2
FYLLNH
 70
     0
 10
0.0
 20
0.0
 30
0.0
  3
FYLLNH
  1

  0
LWPOLYLINE
  5
63D
100
AcDbEntity
  8
SPKONTUR
100
AcDbPolyline
 90
        2
 70
     0
 43
0.0
 10
-4.25
 20
29.0
 10
-4.25
 20
46.001
  0
LWPOLYLINE
  5
63E
100
AcDbEntity
  8
STALPROFIL
100
AcDbPolyline
 90
        2
 70
     0
 43
2.0
 10
-5.25
 20
29.0
 10
-5.25
 20
46.001
  0
INSERT
  5
63F
100
AcDbEntity
  8
GLAS_MED_FOGNING
100
AcDbBlockReference
  2
*X19
 10
0.0
 20
0.0
 30
0.0
1001
ACAD
1000
HATCH
1002
{
1070
    16
1000
AR-SAND
1040
2.0
1040
0.0
1002
}
  0
ARC
  5
64D
100
AcDbEntity
  8
GLAS_MED_FOGNING
100
AcDbCircle
 10
-10.25
 20
29.0
 30
0.0
 40
6.0
100
AcDbArc
 50
332.720387
 51
0.0
  0
LINE
  5
64E
100
AcDbEntity
  8
GLAS_MED_FOGNING
100
AcDbLine
 10
-1.25
 20
31.0
 30
0.0
 11
-4.25
 21
31.0
 31
0.0
  0
LINE
  5
64F
100
AcDbEntity
  8
GLAS_MED_FOGNING
100
AcDbLine
 10
-1.25
 20
33.0
 30
0.0
 11
-4.25
 21
33.0
 31
0.0
  0
LINE
  5
650
100
AcDbEntity
  8
GLAS_MED_FOGNING
100
AcDbLine
 10
-1.25
 20
32.0
 30
0.0
 11
-4.25
 21
32.0
 31
0.0
  0
LINE
  5
651
100
AcDbEntity
  8
GLAS_MED_FOGNING
100
AcDbLine
 10
-1.25
 20
34.0
 30
0.0
 11
-4.25
 21
34.0
 31
0.0
  0
LINE
  5
652
100
AcDbEntity
  8
GLAS_MED_FOGNING
100
AcDbLine
 10
-1.25
 20
39.0
 30
0.0
 11
-4.25
 21
39.0
 31
0.0
  0
LINE
  5
653
100
AcDbEntity
  8
GLAS_MED_FOGNING
100
AcDbLine
 10
-1.25
 20
38.0
 30
0.0
 11
-4.25
 21
38.0
 31
0.0
  0
LINE
  5
654
100
AcDbEntity
  8
GLAS_MED_FOGNING
100
AcDbLine
 10
-1.25
 20
37.0
 30
0.0
 11
-4.25
 21
37.0
 31
0.0
  0
LINE
  5
655
100
AcDbEntity
  8
GLAS_MED_FOGNING
100
AcDbLine
 10
-1.25
 20
36.0
 30
0.0
 11
-4.25
 21
36.0
 31
0.0
  0
LINE
  5
656
100
AcDbEntity
  8
GLAS_MED_FOGNING
100
AcDbLine
 10
-1.25
 20
35.0
 30
0.0
 11
-4.25
 21
35.0
 31
0.0
  0
ARC
  5
657
100
AcDbEntity
  8
GLAS_MED_FOGNING
100
AcDbCircle
 10
-2.5
 20
45.5001
 30
0.0
 40
1.75
100
AcDbArc
 50
180.0
 51
270.0
  0
ENDBLK
  5
659
100
AcDbEntity
  8
0
100
AcDbBlockEnd
  0
BLOCK
  5
355
100
AcDbEntity
  8
0
100
AcDbBlockBegin
  2
*X72
 70
     1
 10
0.0
 20
0.0
 30
0.0
  3
*X72
  1

  0
LINE
  5
26D
100
AcDbEntity
  8
0
 62
     0
100
AcDbLine
 10
2887.115336
 20
1327.944884
 30
0.0
 11
2888.531201
 21
1329.360749
 31
0.0
  0
LINE
  5
26E
100
AcDbEntity
  8
0
 62
     0
100
AcDbLine
 10
2888.973143
 20
1329.80269
 30
0.0
 11
2888.973143
 21
1329.80269
 31
0.0
  0
LINE
  5
26F
100
AcDbEntity
  8
0
 62
     0
100
AcDbLine
 10
2889.415085
 20
1330.244632
 30
0.0
 11
2890.166455
 21
1330.996002
 31
0.0
  0
LINE
  5
270
100
AcDbEntity
  8
0
 62
     0
100
AcDbLine
 10
2910.036664
 20
1350.866212
 30
0.0
 11
2910.186346
 21
1351.015894
 31
0.0
  0
LINE
  5
271
100
AcDbEntity
  8
0
 62
     0
100
AcDbLine
 10
2910.628288
 20
1351.457836
 30
0.0
 11
2910.628288
 21
1351.457836
 31
0.0
  0
LINE
  5
272
100
AcDbEntity
  8
0
 62
     0
100
AcDbLine
 10
2885.347569
 20
1327.944884
 30
0.0
 11
2886.100522
 21
1328.697836
 31
0.0
  0
LINE
  5
273
100
AcDbEntity
  8
0
 62
     0
100
AcDbLine
 10
2886.542463
 20
1329.139778
 30
0.0
 11
2886.542463
 21
1329.139778
 31
0.0
  0
LINE
  5
274
100
AcDbEntity
  8
0
 62
     0
100
AcDbLine
 10
2886.984405
 20
1329.581719
 30
0.0
 11
2889.194114
 21
1331.791428
 31
0.0
  0
LINE
  5
275
100
AcDbEntity
  8
0
 62
     0
100
AcDbLine
 10
2889.636055
 20
1332.23337
 30
0.0
 11
2889.636055
 21
1332.23337
 31
0.0
  0
LINE
  5
276
100
AcDbEntity
  8
0
 62
     0
100
AcDbLine
 10
2890.077997
 20
1332.675312
 30
0.0
 11
2890.1
 21
1332.697314
 31
0.0
  0
LINE
  5
277
100
AcDbEntity
  8
0
 62
     0
100
AcDbLine
 10
2908.961407
 20
1351.558721
 30
0.0
 11
2909.669528
 21
1352.266842
 31
0.0
  0
LINE
  5
278
100
AcDbEntity
  8
0
 62
     0
100
AcDbLine
 10
2883.579802
 20
1327.944884
 30
0.0
 11
2883.669842
 21
1328.034923
 31
0.0
  0
LINE
  5
279
100
AcDbEntity
  8
0
 62
     0
100
AcDbLine
 10
2884.111784
 20
1328.476865
 30
0.0
 11
2884.111784
 21
1328.476865
 31
0.0
  0
LINE
  5
27A
100
AcDbEntity
  8
0
 62
     0
100
AcDbLine
 10
2884.553726
 20
1328.918807
 30
0.0
 11
2886.763434
 21
1331.128516
 31
0.0
  0
LINE
  5
27B
100
AcDbEntity
  8
0
 62
     0
100
AcDbLine
 10
2887.205376
 20
1331.570457
 30
0.0
 11
2887.205376
 21
1331.570457
 31
0.0
  0
LINE
  5
27C
100
AcDbEntity
  8
0
 62
     0
100
AcDbLine
 10
2887.647318
 20
1332.012399
 30
0.0
 11
2889.857026
 21
1334.222108
 31
0.0
  0
LINE
  5
27D
100
AcDbEntity
  8
0
 62
     0
100
AcDbLine
 10
2907.886149
 20
1352.25123
 30
0.0
 11
2908.418579
 21
1352.783661
 31
0.0
  0
LINE
  5
27E
100
AcDbEntity
  8
0
 62
     0
100
AcDbLine
 10
2882.123046
 20
1328.255894
 30
0.0
 11
2884.332755
 21
1330.465603
 31
0.0
  0
LINE
  5
27F
100
AcDbEntity
  8
0
 62
     0
100
AcDbLine
 10
2884.774696
 20
1330.907545
 30
0.0
 11
2884.774696
 21
1330.907545
 31
0.0
  0
LINE
  5
280
100
AcDbEntity
  8
0
 62
     0
100
AcDbLine
 10
2885.216638
 20
1331.349486
 30
0.0
 11
2887.426347
 21
1333.559195
 31
0.0
  0
LINE
  5
281
100
AcDbEntity
  8
0
 62
     0
100
AcDbLine
 10
2887.868289
 20
1334.001137
 30
0.0
 11
2887.868289
 21
1334.001137
 31
0.0
  0
LINE
  5
282
100
AcDbEntity
  8
0
 62
     0
100
AcDbLine
 10
2888.31023
 20
1334.443079
 30
0.0
 11
2890.519939
 21
1336.652787
 31
0.0
  0
LINE
  5
283
100
AcDbEntity
  8
0
 62
     0
100
AcDbLine
 10
2890.961881
 20
1337.094729
 30
0.0
 11
2890.961881
 21
1337.094729
 31
0.0
  0
LINE
  5
284
100
AcDbEntity
  8
0
 62
     0
100
AcDbLine
 10
2891.403822
 20
1337.536671
 30
0.0
 11
2893.577301
 21
1339.71015
 31
0.0
  0
LINE
  5
285
100
AcDbEntity
  8
0
 62
     0
100
AcDbLine
 10
2906.871783
 20
1353.004632
 30
0.0
 11
2907.428462
 21
1353.56131
 31
0.0
  0
LINE
  5
286
100
AcDbEntity
  8
0
 62
     0
100
AcDbLine
 10
2880.044268
 20
1327.944884
 30
0.0
 11
2881.902075
 21
1329.80269
 31
0.0
  0
LINE
  5
287
100
AcDbEntity
  8
0
 62
     0
100
AcDbLine
 10
2882.344017
 20
1330.244632
 30
0.0
 11
2882.344017
 21
1330.244632
 31
0.0
  0
LINE
  5
288
100
AcDbEntity
  8
0
 62
     0
100
AcDbLine
 10
2882.785959
 20
1330.686574
 30
0.0
 11
2884.995667
 21
1332.896283
 31
0.0
  0
LINE
  5
289
100
AcDbEntity
  8
0
 62
     0
100
AcDbLine
 10
2890.641803
 20
1338.542418
 30
0.0
 11
2891.182852
 21
1339.083467
 31
0.0
  0
LINE
  5
28A
100
AcDbEntity
  8
0
 62
     0
100
AcDbLine
 10
2891.624793
 20
1339.525409
 30
0.0
 11
2891.624793
 21
1339.525409
 31
0.0
  0
LINE
  5
28B
100
AcDbEntity
  8
0
 62
     0
100
AcDbLine
 10
2892.066735
 20
1339.96735
 30
0.0
 11
2894.073492
 21
1341.974107
 31
0.0
  0
LINE
  5
28C
100
AcDbEntity
  8
0
 62
     0
100
AcDbLine
 10
2887.475452
 20
1335.376067
 30
0.0
 11
2888.089259
 21
1335.989875
 31
0.0
  0
LINE
  5
28D
100
AcDbEntity
  8
0
 62
     0
100
AcDbLine
 10
2888.531201
 20
1336.431816
 30
0.0
 11
2888.531201
 21
1336.431816
 31
0.0
  0
LINE
  5
28E
100
AcDbEntity
  8
0
 62
     0
100
AcDbLine
 10
2888.973143
 20
1336.873758
 30
0.0
 11
2889.702466
 21
1337.603081
 31
0.0
  0
LINE
  5
28F
100
AcDbEntity
  8
0
 62
     0
100
AcDbLine
 10
2877.868289
 20
1327.536671
 30
0.0
 11
2879.471396
 21
1329.139778
 31
0.0
  0
LINE
  5
290
100
AcDbEntity
  8
0
 62
     0
100
AcDbLine
 10
2879.913337
 20
1329.581719
 30
0.0
 11
2879.913337
 21
1329.581719
 31
0.0
  0
LINE
  5
291
100
AcDbEntity
  8
0
 62
     0
100
AcDbLine
 10
2880.355279
 20
1330.023661
 30
0.0
 11
2882.564988
 21
1332.23337
 31
0.0
  0
LINE
  5
292
100
AcDbEntity
  8
0
 62
     0
100
AcDbLine
 10
2883.006929
 20
1332.675312
 30
0.0
 11
2883.006929
 21
1332.675312
 31
0.0
  0
LINE
  5
293
100
AcDbEntity
  8
0
 62
     0
100
AcDbLine
 10
2892.287706
 20
1341.956088
 30
0.0
 11
2892.287706
 21
1341.956088
 31
0.0
  0
LINE
  5
294
100
AcDbEntity
  8
0
 62
     0
100
AcDbLine
 10
2892.729648
 20
1342.39803
 30
0.0
 11
2894.033965
 21
1343.702348
 31
0.0
  0
LINE
  5
295
100
AcDbEntity
  8
0
 62
     0
100
AcDbLine
 10
2875.552366
 20
1326.988516
 30
0.0
 11
2877.040716
 21
1328.476865
 31
0.0
  0
LINE
  5
296
100
AcDbEntity
  8
0
 62
     0
100
AcDbLine
 10
2877.482658
 20
1328.918807
 30
0.0
 11
2877.482658
 21
1328.918807
 31
0.0
  0
LINE
  5
297
100
AcDbEntity
  8
0
 62
     0
100
AcDbLine
 10
2877.924599
 20
1329.360749
 30
0.0
 11
2880.134308
 21
1331.570457
 31
0.0
  0
LINE
  5
298
100
AcDbEntity
  8
0
 62
     0
100
AcDbLine
 10
2880.57625
 20
1332.012399
 30
0.0
 11
2880.57625
 21
1332.012399
 31
0.0
  0
LINE
  5
299
100
AcDbEntity
  8
0
 62
     0
100
AcDbLine
 10
2881.018192
 20
1332.454341
 30
0.0
 11
2881.508735
 21
1332.944884
 31
0.0
  0
LINE
  5
29A
100
AcDbEntity
  8
0
 62
     0
100
AcDbLine
 10
2892.045868
 20
1343.482017
 30
0.0
 11
2892.508677
 21
1343.944826
 31
0.0
  0
LINE
  5
29B
100
AcDbEntity
  8
0
 62
     0
100
AcDbLine
 10
2892.950619
 20
1344.386768
 30
0.0
 11
2892.950619
 21
1344.386768
 31
0.0
  0
LINE
  5
29C
100
AcDbEntity
  8
0
 62
     0
100
AcDbLine
 10
2893.39256
 20
1344.828709
 30
0.0
 11
2893.72043
 21
1345.156579
 31
0.0
  0
LINE
  5
29D
100
AcDbEntity
  8
0
 62
     0
100
AcDbLine
 10
2875.49392
 20
1328.697836
 30
0.0
 11
2877.703629
 21
1330.907545
 31
0.0
  0
LINE
  5
29E
100
AcDbEntity
  8
0
 62
     0
100
AcDbLine
 10
2878.14557
 20
1331.349486
 30
0.0
 11
2878.14557
 21
1331.349486
 31
0.0
  0
LINE
  5
29F
100
AcDbEntity
  8
0
 62
     0
100
AcDbLine
 10
2878.587512
 20
1331.791428
 30
0.0
 11
2879.740968
 21
1332.944884
 31
0.0
  0
LINE
  5
2A0
100
AcDbEntity
  8
0
 62
     0
100
AcDbLine
 10
2891.696216
 20
1344.900132
 30
0.0
 11
2893.171589
 21
1346.375506
 31
0.0
  0
LINE
  5
2A1
100
AcDbEntity
  8
0
 62
     0
100
AcDbLine
 10
2875.1
 20
1330.071683
 30
0.0
 11
2875.272949
 21
1330.244632
 31
0.0
  0
LINE
  5
2A2
100
AcDbEntity
  8
0
 62
     0
100
AcDbLine
 10
2875.714891
 20
1330.686574
 30
0.0
 11
2875.714891
 21
1330.686574
 31
0.0
  0
LINE
  5
2A3
100
AcDbEntity
  8
0
 62
     0
100
AcDbLine
 10
2876.156832
 20
1331.128516
 30
0.0
 11
2877.973201
 21
1332.944884
 31
0.0
  0
LINE
  5
2A4
100
AcDbEntity
  8
0
 62
     0
100
AcDbLine
 10
2891.182852
 20
1346.154535
 30
0.0
 11
2891.182852
 21
1346.154535
 31
0.0
  0
LINE
  5
2A5
100
AcDbEntity
  8
0
 62
     0
100
AcDbLine
 10
2891.624793
 20
1346.596476
 30
0.0
 11
2892.556943
 21
1347.528626
 31
0.0
  0
LINE
  5
2A6
100
AcDbEntity
  8
0
 62
     0
100
AcDbLine
 10
2875.1
 20
1331.83945
 30
0.0
 11
2875.935862
 21
1332.675312
 31
0.0
  0
LINE
  5
2A7
100
AcDbEntity
  8
0
 62
     0
100
AcDbLine
 10
2876.377803
 20
1333.117253
 30
0.0
 11
2876.377803
 21
1333.117253
 31
0.0
  0
LINE
  5
2A8
100
AcDbEntity
  8
0
 62
     0
100
AcDbLine
 10
2876.819745
 20
1333.559195
 30
0.0
 11
2877.336751
 21
1334.076202
 31
0.0
  0
LINE
  5
2A9
100
AcDbEntity
  8
0
 62
     0
100
AcDbLine
 10
2890.346373
 20
1347.085823
 30
0.0
 11
2891.403822
 21
1348.143273
 31
0.0
  0
LINE
  5
2AA
100
AcDbEntity
  8
0
 62
     0
100
AcDbLine
 10
2875.1
 20
1333.607217
 30
0.0
 11
2876.598774
 21
1335.105991
 31
0.0
  0
LINE
  5
2AB
100
AcDbEntity
  8
0
 62
     0
100
AcDbLine
 10
2889.415085
 20
1347.922302
 30
0.0
 11
2889.415085
 21
1347.922302
 31
0.0
  0
LINE
  5
2AC
100
AcDbEntity
  8
0
 62
     0
100
AcDbLine
 10
2889.857026
 20
1348.364243
 30
0.0
 11
2890.834602
 21
1349.341819
 31
0.0
  0
LINE
  5
2AD
100
AcDbEntity
  8
0
 62
     0
100
AcDbLine
 10
2875.051978
 20
1335.326962
 30
0.0
 11
2876.740916
 21
1337.0159
 31
0.0
  0
LINE
  5
2AE
100
AcDbEntity
  8
0
 62
     0
100
AcDbLine
 10
2891.365415
 20
1351.640399
 30
0.0
 11
2892.729648
 21
1353.004632
 31
0.0
  0
LINE
  5
2AF
100
AcDbEntity
  8
0
 62
     0
100
AcDbLine
 10
2893.171589
 20
1353.446573
 30
0.0
 11
2893.171589
 21
1353.446573
 31
0.0
  0
LINE
  5
2B0
100
AcDbEntity
  8
0
 62
     0
100
AcDbLine
 10
2893.613531
 20
1353.888515
 30
0.0
 11
2893.89685
 21
1354.171834
 31
0.0
  0
LINE
  5
2B1
100
AcDbEntity
  8
0
 62
     0
100
AcDbLine
 10
2888.302399
 20
1348.577382
 30
0.0
 11
2889.636055
 21
1349.911039
 31
0.0
  0
LINE
  5
2B2
100
AcDbEntity
  8
0
 62
     0
100
AcDbLine
 10
2874.595853
 20
1336.638604
 30
0.0
 11
2874.831007
 21
1336.873758
 31
0.0
  0
LINE
  5
2B3
100
AcDbEntity
  8
0
 62
     0
100
AcDbLine
 10
2875.272949
 20
1337.3157
 30
0.0
 11
2875.272949
 21
1337.3157
 31
0.0
  0
LINE
  5
2B4
100
AcDbEntity
  8
0
 62
     0
100
AcDbLine
 10
2875.714891
 20
1337.757642
 30
0.0
 11
2876.442998
 21
1338.485749
 31
0.0
  0
LINE
  5
2B5
100
AcDbEntity
  8
0
 62
     0
100
AcDbLine
 10
2887.13251
 20
1349.175261
 30
0.0
 11
2887.205376
 21
1349.248127
 31
0.0
  0
LINE
  5
2B6
100
AcDbEntity
  8
0
 62
     0
100
AcDbLine
 10
2887.647318
 20
1349.690069
 30
0.0
 11
2887.647318
 21
1349.690069
 31
0.0
  0
LINE
  5
2B7
100
AcDbEntity
  8
0
 62
     0
100
AcDbLine
 10
2888.089259
 20
1350.13201
 30
0.0
 11
2889.805117
 21
1351.847868
 31
0.0
  0
LINE
  5
2B8
100
AcDbEntity
  8
0
 62
     0
100
AcDbLine
 10
2874.372768
 20
1338.183286
 30
0.0
 11
2875.49392
 21
1339.304438
 31
0.0
  0
LINE
  5
2B9
100
AcDbEntity
  8
0
 62
     0
100
AcDbLine
 10
2875.935862
 20
1339.746379
 30
0.0
 11
2875.935862
 21
1339.746379
 31
0.0
  0
LINE
  5
2BA
100
AcDbEntity
  8
0
 62
     0
100
AcDbLine
 10
2885.65858
 20
1349.469098
 30
0.0
 11
2887.185236
 21
1350.995754
 31
0.0
  0
LINE
  5
2BB
100
AcDbEntity
  8
0
 62
     0
100
AcDbLine
 10
2874.211457
 20
1339.789742
 30
0.0
 11
2875.847163
 21
1341.425447
 31
0.0
  0
LINE
  5
2BC
100
AcDbEntity
  8
0
 62
     0
100
AcDbLine
 10
2883.766599
 20
1349.344884
 30
0.0
 11
2885.437609
 21
1351.015894
 31
0.0
  0
LINE
  5
2BD
100
AcDbEntity
  8
0
 62
     0
100
AcDbLine
 10
2874.168095
 20
1341.514146
 30
0.0
 11
2874.168095
 21
1341.514146
 31
0.0
  0
LINE
  5
2BE
100
AcDbEntity
  8
0
 62
     0
100
AcDbLine
 10
2874.610036
 20
1341.956088
 30
0.0
 11
2875.67656
 21
1343.022612
 31
0.0
  0
LINE
  5
2BF
100
AcDbEntity
  8
0
 62
     0
100
AcDbLine
 10
2884.08647
 20
1351.432522
 30
0.0
 11
2884.827581
 21
1352.173632
 31
0.0
  0
LINE
  5
2C0
100
AcDbEntity
  8
0
 62
     0
100
AcDbLine
 10
2881.998832
 20
1349.344884
 30
0.0
 11
2883.006929
 21
1350.352981
 31
0.0
  0
LINE
  5
2C1
100
AcDbEntity
  8
0
 62
     0
100
AcDbLine
 10
2883.448871
 20
1350.794923
 30
0.0
 11
2883.448871
 21
1350.794923
 31
0.0
  0
LINE
  5
2C2
100
AcDbEntity
  8
0
 62
     0
100
AcDbLine
 10
2874.104489
 20
1343.218308
 30
0.0
 11
2874.389066
 21
1343.502884
 31
0.0
  0
LINE
  5
2C3
100
AcDbEntity
  8
0
 62
     0
100
AcDbLine
 10
2874.831007
 20
1343.944826
 30
0.0
 11
2874.831007
 21
1343.944826
 31
0.0
  0
LINE
  5
2C4
100
AcDbEntity
  8
0
 62
     0
100
AcDbLine
 10
2875.272949
 20
1344.386768
 30
0.0
 11
2876.125946
 21
1345.239765
 31
0.0
  0
LINE
  5
2C5
100
AcDbEntity
  8
0
 62
     0
100
AcDbLine
 10
2883.181103
 20
1352.294922
 30
0.0
 11
2883.669842
 21
1352.783661
 31
0.0
  0
LINE
  5
2C6
100
AcDbEntity
  8
0
 62
     0
100
AcDbLine
 10
2880.231065
 20
1349.344884
 30
0.0
 11
2880.57625
 21
1349.690069
 31
0.0
  0
LINE
  5
2C7
100
AcDbEntity
  8
0
 62
     0
100
AcDbLine
 10
2881.018192
 20
1350.13201
 30
0.0
 11
2881.018192
 21
1350.13201
 31
0.0
  0
LINE
  5
2C8
100
AcDbEntity
  8
0
 62
     0
100
AcDbLine
 10
2881.460133
 20
1350.573952
 30
0.0
 11
2882.140499
 21
1351.254317
 31
0.0
  0
LINE
  5
2C9
100
AcDbEntity
  8
0
 62
     0
100
AcDbLine
 10
2874.179807
 20
1345.061393
 30
0.0
 11
2875.051978
 21
1345.933564
 31
0.0
  0
LINE
  5
2CA
100
AcDbEntity
  8
0
 62
     0
100
AcDbLine
 10
2875.49392
 20
1346.375506
 30
0.0
 11
2875.49392
 21
1346.375506
 31
0.0
  0
LINE
  5
2CB
100
AcDbEntity
  8
0
 62
     0
100
AcDbLine
 10
2875.935862
 20
1346.817447
 30
0.0
 11
2876.575332
 21
1347.456917
 31
0.0
  0
LINE
  5
2CC
100
AcDbEntity
  8
0
 62
     0
100
AcDbLine
 10
2878.587512
 20
1349.469098
 30
0.0
 11
2878.587512
 21
1349.469098
 31
0.0
  0
LINE
  5
2CD
100
AcDbEntity
  8
0
 62
     0
100
AcDbLine
 10
2879.029454
 20
1349.911039
 30
0.0
 11
2881.100763
 21
1351.982348
 31
0.0
  0
LINE
  5
2CE
100
AcDbEntity
  8
0
 62
     0
100
AcDbLine
 10
2874.361112
 20
1347.010465
 30
0.0
 11
2875.714891
 21
1348.364243
 31
0.0
  0
LINE
  5
2CF
100
AcDbEntity
  8
0
 62
     0
100
AcDbLine
 10
2876.156832
 20
1348.806185
 30
0.0
 11
2876.156832
 21
1348.806185
 31
0.0
  0
LINE
  5
2D0
100
AcDbEntity
  8
0
 62
     0
100
AcDbLine
 10
2876.598774
 20
1349.248127
 30
0.0
 11
2878.495531
 21
1351.144884
 31
0.0
  0
LINE
  5
2D1
100
AcDbEntity
  8
0
 62
     0
100
AcDbLine
 10
2879.692366
 20
1352.341719
 30
0.0
 11
2880.061027
 21
1352.710379
 31
0.0
  0
LINE
  5
2D2
100
AcDbEntity
  8
0
 62
     0
100
AcDbLine
 10
2874.671263
 20
1349.088383
 30
0.0
 11
2876.377803
 21
1350.794923
 31
0.0
  0
LINE
  5
2D3
100
AcDbEntity
  8
0
 62
     0
100
AcDbLine
 10
2876.819745
 20
1351.236865
 30
0.0
 11
2876.819745
 21
1351.236865
 31
0.0
  0
LINE
  5
2D4
100
AcDbEntity
  8
0
 62
     0
100
AcDbLine
 10
2877.261687
 20
1351.678806
 30
0.0
 11
2877.362692
 21
1351.779812
 31
0.0
  0
LINE
  5
2D5
100
AcDbEntity
  8
0
 62
     0
100
AcDbLine
 10
2875.633413
 20
1351.818299
 30
0.0
 11
2876.322956
 21
1352.507843
 31
0.0
  0
LINE
  5
2D6
100
AcDbEntity
  8
0
 62
     0
100
AcDbLine
 10
2888.883103
 20
1327.944884
 30
0.0
 11
2890.961881
 21
1330.023661
 31
0.0
  0
LINE
  5
2D7
100
AcDbEntity
  8
0
 62
     0
100
AcDbLine
 10
2891.403822
 20
1330.465603
 30
0.0
 11
2891.403822
 21
1330.465603
 31
0.0
  0
LINE
  5
2D8
100
AcDbEntity
  8
0
 62
     0
100
AcDbLine
 10
2891.845764
 20
1330.907545
 30
0.0
 11
2891.883103
 21
1330.944884
 31
0.0
  0
LINE
  5
2D9
100
AcDbEntity
  8
0
 62
     0
100
AcDbLine
 10
2906.871783
 20
1345.933564
 30
0.0
 11
2906.871783
 21
1345.933564
 31
0.0
  0
LINE
  5
2DA
100
AcDbEntity
  8
0
 62
     0
100
AcDbLine
 10
2907.313725
 20
1346.375506
 30
0.0
 11
2909.523434
 21
1348.585214
 31
0.0
  0
LINE
  5
2DB
100
AcDbEntity
  8
0
 62
     0
100
AcDbLine
 10
2909.965375
 20
1349.027156
 30
0.0
 11
2909.965375
 21
1349.027156
 31
0.0
  0
LINE
  5
2DC
100
AcDbEntity
  8
0
 62
     0
100
AcDbLine
 10
2910.407317
 20
1349.469098
 30
0.0
 11
2911.910594
 21
1350.972374
 31
0.0
  0
LINE
  5
2DD
100
AcDbEntity
  8
0
 62
     0
100
AcDbLine
 10
2890.74091
 20
1328.034923
 30
0.0
 11
2890.74091
 21
1328.034923
 31
0.0
  0
LINE
  5
2DE
100
AcDbEntity
  8
0
 62
     0
100
AcDbLine
 10
2891.182852
 20
1328.476865
 30
0.0
 11
2893.39256
 21
1330.686574
 31
0.0
  0
LINE
  5
2DF
100
AcDbEntity
  8
0
 62
     0
100
AcDbLine
 10
2906.208871
 20
1343.502884
 30
0.0
 11
2906.208871
 21
1343.502884
 31
0.0
  0
LINE
  5
2E0
100
AcDbEntity
  8
0
 62
     0
100
AcDbLine
 10
2906.650812
 20
1343.944826
 30
0.0
 11
2908.860521
 21
1346.154535
 31
0.0
  0
LINE
  5
2E1
100
AcDbEntity
  8
0
 62
     0
100
AcDbLine
 10
2909.302463
 20
1346.596476
 30
0.0
 11
2909.302463
 21
1346.596476
 31
0.0
  0
LINE
  5
2E2
100
AcDbEntity
  8
0
 62
     0
100
AcDbLine
 10
2909.744405
 20
1347.038418
 30
0.0
 11
2911.954113
 21
1349.248127
 31
0.0
  0
LINE
  5
2E3
100
AcDbEntity
  8
0
 62
     0
100
AcDbLine
 10
2912.396055
 20
1349.690069
 30
0.0
 11
2912.396055
 21
1349.690069
 31
0.0
  0
LINE
  5
2E4
100
AcDbEntity
  8
0
 62
     0
100
AcDbLine
 10
2912.837997
 20
1350.13201
 30
0.0
 11
2913.814814
 21
1351.108828
 31
0.0
  0
LINE
  5
2E5
100
AcDbEntity
  8
0
 62
     0
100
AcDbLine
 10
2892.418637
 20
1327.944884
 30
0.0
 11
2892.729648
 21
1328.255894
 31
0.0
  0
LINE
  5
2E6
100
AcDbEntity
  8
0
 62
     0
100
AcDbLine
 10
2893.171589
 20
1328.697836
 30
0.0
 11
2893.171589
 21
1328.697836
 31
0.0
  0
LINE
  5
2E7
100
AcDbEntity
  8
0
 62
     0
100
AcDbLine
 10
2893.613531
 20
1329.139778
 30
0.0
 11
2895.418637
 21
1330.944884
 31
0.0
  0
LINE
  5
2E8
100
AcDbEntity
  8
0
 62
     0
100
AcDbLine
 10
2913.807857
 20
1349.334103
 30
0.0
 11
2914.384793
 21
1349.911039
 31
0.0
  0
LINE
  5
2E9
100
AcDbEntity
  8
0
 62
     0
100
AcDbLine
 10
2914.826735
 20
1350.352981
 30
0.0
 11
2914.826735
 21
1350.352981
 31
0.0
  0
LINE
  5
2EA
100
AcDbEntity
  8
0
 62
     0
100
AcDbLine
 10
2915.268676
 20
1350.794923
 30
0.0
 11
2917.057003
 21
1352.58325
 31
0.0
  0
LINE
  5
2EB
100
AcDbEntity
  8
0
 62
     0
100
AcDbLine
 10
2906.15482
 20
1341.681067
 30
0.0
 11
2908.188681
 21
1343.714928
 31
0.0
  0
LINE
  5
2EC
100
AcDbEntity
  8
0
 62
     0
100
AcDbLine
 10
2894.186404
 20
1327.944884
 30
0.0
 11
2895.160327
 21
1328.918807
 31
0.0
  0
LINE
  5
2ED
100
AcDbEntity
  8
0
 62
     0
100
AcDbLine
 10
2895.602269
 20
1329.360749
 30
0.0
 11
2895.602269
 21
1329.360749
 31
0.0
  0
LINE
  5
2EE
100
AcDbEntity
  8
0
 62
     0
100
AcDbLine
 10
2896.044211
 20
1329.80269
 30
0.0
 11
2897.186404
 21
1330.944884
 31
0.0
  0
LINE
  5
2EF
100
AcDbEntity
  8
0
 62
     0
100
AcDbLine
 10
2915.586404
 20
1349.344884
 30
0.0
 11
2916.815472
 21
1350.573952
 31
0.0
  0
LINE
  5
2F0
100
AcDbEntity
  8
0
 62
     0
100
AcDbLine
 10
2917.257414
 20
1351.015894
 30
0.0
 11
2917.257414
 21
1351.015894
 31
0.0
  0
LINE
  5
2F1
100
AcDbEntity
  8
0
 62
     0
100
AcDbLine
 10
2906.45513
 20
1340.21361
 30
0.0
 11
2907.534696
 21
1341.293176
 31
0.0
  0
LINE
  5
2F2
100
AcDbEntity
  8
0
 62
     0
100
AcDbLine
 10
2907.976638
 20
1341.735117
 30
0.0
 11
2907.976638
 21
1341.735117
 31
0.0
  0
LINE
  5
2F3
100
AcDbEntity
  8
0
 62
     0
100
AcDbLine
 10
2895.954171
 20
1327.944884
 30
0.0
 11
2897.591007
 21
1329.581719
 31
0.0
  0
LINE
  5
2F4
100
AcDbEntity
  8
0
 62
     0
100
AcDbLine
 10
2898.032949
 20
1330.023661
 30
0.0
 11
2898.032949
 21
1330.023661
 31
0.0
  0
LINE
  5
2F5
100
AcDbEntity
  8
0
 62
     0
100
AcDbLine
 10
2898.47489
 20
1330.465603
 30
0.0
 11
2898.954171
 21
1330.944884
 31
0.0
  0
LINE
  5
2F6
100
AcDbEntity
  8
0
 62
     0
100
AcDbLine
 10
2917.354171
 20
1349.344884
 30
0.0
 11
2919.246152
 21
1351.236865
 31
0.0
  0
LINE
  5
2F7
100
AcDbEntity
  8
0
 62
     0
100
AcDbLine
 10
2919.688094
 20
1351.678806
 30
0.0
 11
2919.688094
 21
1351.678806
 31
0.0
  0
LINE
  5
2F8
100
AcDbEntity
  8
0
 62
     0
100
AcDbLine
 10
2920.130035
 20
1352.120748
 30
0.0
 11
2920.873236
 21
1352.863948
 31
0.0
  0
LINE
  5
2F9
100
AcDbEntity
  8
0
 62
     0
100
AcDbLine
 10
2907.313725
 20
1339.304438
 30
0.0
 11
2907.313725
 21
1339.304438
 31
0.0
  0
LINE
  5
2FA
100
AcDbEntity
  8
0
 62
     0
100
AcDbLine
 10
2907.755667
 20
1339.746379
 30
0.0
 11
2908.475868
 21
1340.466581
 31
0.0
  0
LINE
  5
2FB
100
AcDbEntity
  8
0
 62
     0
100
AcDbLine
 10
2897.811978
 20
1328.034923
 30
0.0
 11
2900.021686
 21
1330.244632
 31
0.0
  0
LINE
  5
2FC
100
AcDbEntity
  8
0
 62
     0
100
AcDbLine
 10
2900.463628
 20
1330.686574
 30
0.0
 11
2900.463628
 21
1330.686574
 31
0.0
  0
LINE
  5
2FD
100
AcDbEntity
  8
0
 62
     0
100
AcDbLine
 10
2919.467123
 20
1349.690069
 30
0.0
 11
2920.921938
 21
1351.144884
 31
0.0
  0
LINE
  5
2FE
100
AcDbEntity
  8
0
 62
     0
100
AcDbLine
 10
2907.600046
 20
1337.822992
 30
0.0
 11
2909.045657
 21
1339.268603
 31
0.0
  0
LINE
  5
2FF
100
AcDbEntity
  8
0
 62
     0
100
AcDbLine
 10
2899.800715
 20
1328.255894
 30
0.0
 11
2899.800715
 21
1328.255894
 31
0.0
  0
LINE
  5
300
100
AcDbEntity
  8
0
 62
     0
100
AcDbLine
 10
2900.242657
 20
1328.697836
 30
0.0
 11
2902.452366
 21
1330.907545
 31
0.0
  0
LINE
  5
301
100
AcDbEntity
  8
0
 62
     0
100
AcDbLine
 10
2920.889705
 20
1349.344884
 30
0.0
 11
2921.013919
 21
1349.469098
 31
0.0
  0
LINE
  5
302
100
AcDbEntity
  8
0
 62
     0
100
AcDbLine
 10
2921.455861
 20
1349.911039
 30
0.0
 11
2921.455861
 21
1349.911039
 31
0.0
  0
LINE
  5
303
100
AcDbEntity
  8
0
 62
     0
100
AcDbLine
 10
2921.897802
 20
1350.352981
 30
0.0
 11
2924.107511
 21
1352.56269
 31
0.0
  0
LINE
  5
304
100
AcDbEntity
  8
0
 62
     0
100
AcDbLine
 10
2908.387947
 20
1336.843126
 30
0.0
 11
2908.63955
 21
1337.094729
 31
0.0
  0
LINE
  5
305
100
AcDbEntity
  8
0
 62
     0
100
AcDbLine
 10
2909.081492
 20
1337.536671
 30
0.0
 11
2909.081492
 21
1337.536671
 31
0.0
  0
LINE
  5
306
100
AcDbEntity
  8
0
 62
     0
100
AcDbLine
 10
2909.523434
 20
1337.978613
 30
0.0
 11
2909.803239
 21
1338.258418
 31
0.0
  0
LINE
  5
307
100
AcDbEntity
  8
0
 62
     0
100
AcDbLine
 10
2901.257472
 20
1327.944884
 30
0.0
 11
2901.789453
 21
1328.476865
 31
0.0
  0
LINE
  5
308
100
AcDbEntity
  8
0
 62
     0
100
AcDbLine
 10
2902.231395
 20
1328.918807
 30
0.0
 11
2902.231395
 21
1328.918807
 31
0.0
  0
LINE
  5
309
100
AcDbEntity
  8
0
 62
     0
100
AcDbLine
 10
2902.673337
 20
1329.360749
 30
0.0
 11
2904.257472
 21
1330.944884
 31
0.0
  0
LINE
  5
30A
100
AcDbEntity
  8
0
 62
     0
100
AcDbLine
 10
2922.657472
 20
1349.344884
 30
0.0
 11
2923.444598
 21
1350.13201
 31
0.0
  0
LINE
  5
30B
100
AcDbEntity
  8
0
 62
     0
100
AcDbLine
 10
2923.88654
 20
1350.573952
 30
0.0
 11
2923.88654
 21
1350.573952
 31
0.0
  0
LINE
  5
30C
100
AcDbEntity
  8
0
 62
     0
100
AcDbLine
 10
2924.328482
 20
1351.015894
 30
0.0
 11
2924.457472
 21
1351.144884
 31
0.0
  0
LINE
  5
30D
100
AcDbEntity
  8
0
 62
     0
100
AcDbLine
 10
2909.306775
 20
1335.994187
 30
0.0
 11
2910.732934
 21
1337.420346
 31
0.0
  0
LINE
  5
30E
100
AcDbEntity
  8
0
 62
     0
100
AcDbLine
 10
2903.025239
 20
1327.944884
 30
0.0
 11
2904.220133
 21
1329.139778
 31
0.0
  0
LINE
  5
30F
100
AcDbEntity
  8
0
 62
     0
100
AcDbLine
 10
2904.662075
 20
1329.581719
 30
0.0
 11
2904.662075
 21
1329.581719
 31
0.0
  0
LINE
  5
310
100
AcDbEntity
  8
0
 62
     0
100
AcDbLine
 10
2905.104016
 20
1330.023661
 30
0.0
 11
2906.025239
 21
1330.944884
 31
0.0
  0
LINE
  5
311
100
AcDbEntity
  8
0
 62
     0
100
AcDbLine
 10
2923.665569
 20
1348.585214
 30
0.0
 11
2925.306716
 21
1350.22636
 31
0.0
  0
LINE
  5
312
100
AcDbEntity
  8
0
 62
     0
100
AcDbLine
 10
2910.1
 20
1335.019645
 30
0.0
 11
2910.407317
 21
1335.326962
 31
0.0
  0
LINE
  5
313
100
AcDbEntity
  8
0
 62
     0
100
AcDbLine
 10
2910.849259
 20
1335.768904
 30
0.0
 11
2910.849259
 21
1335.768904
 31
0.0
  0
LINE
  5
314
100
AcDbEntity
  8
0
 62
     0
100
AcDbLine
 10
2911.291201
 20
1336.210846
 30
0.0
 11
2911.793599
 21
1336.713244
 31
0.0
  0
LINE
  5
315
100
AcDbEntity
  8
0
 62
     0
100
AcDbLine
 10
2904.793006
 20
1327.944884
 30
0.0
 11
2906.650812
 21
1329.80269
 31
0.0
  0
LINE
  5
316
100
AcDbEntity
  8
0
 62
     0
100
AcDbLine
 10
2907.092754
 20
1330.244632
 30
0.0
 11
2907.092754
 21
1330.244632
 31
0.0
  0
LINE
  5
317
100
AcDbEntity
  8
0
 62
     0
100
AcDbLine
 10
2907.534696
 20
1330.686574
 30
0.0
 11
2907.793006
 21
1330.944884
 31
0.0
  0
LINE
  5
318
100
AcDbEntity
  8
0
 62
     0
100
AcDbLine
 10
2923.73933
 20
1346.891208
 30
0.0
 11
2925.212365
 21
1348.364243
 31
0.0
  0
LINE
  5
319
100
AcDbEntity
  8
0
 62
     0
100
AcDbLine
 10
2910.186346
 20
1333.338224
 30
0.0
 11
2910.186346
 21
1333.338224
 31
0.0
  0
LINE
  5
31A
100
AcDbEntity
  8
0
 62
     0
100
AcDbLine
 10
2910.628288
 20
1333.780166
 30
0.0
 11
2912.57676
 21
1335.728638
 31
0.0
  0
LINE
  5
31B
100
AcDbEntity
  8
0
 62
     0
100
AcDbLine
 10
2906.871783
 20
1328.255894
 30
0.0
 11
2909.081492
 21
1330.465603
 31
0.0
  0
LINE
  5
31C
100
AcDbEntity
  8
0
 62
     0
100
AcDbLine
 10
2909.523434
 20
1330.907545
 30
0.0
 11
2909.523434
 21
1330.907545
 31
0.0
  0
LINE
  5
31D
100
AcDbEntity
  8
0
 62
     0
100
AcDbLine
 10
2924.037248
 20
1345.421359
 30
0.0
 11
2924.549453
 21
1345.933564
 31
0.0
  0
LINE
  5
31E
100
AcDbEntity
  8
0
 62
     0
100
AcDbLine
 10
2924.991395
 20
1346.375506
 30
0.0
 11
2924.991395
 21
1346.375506
 31
0.0
  0
LINE
  5
31F
100
AcDbEntity
  8
0
 62
     0
100
AcDbLine
 10
2925.433336
 20
1346.817447
 30
0.0
 11
2925.815661
 21
1347.199772
 31
0.0
  0
LINE
  5
320
100
AcDbEntity
  8
0
 62
     0
100
AcDbLine
 10
2910.1
 20
1331.484111
 30
0.0
 11
2912.175084
 21
1333.559195
 31
0.0
  0
LINE
  5
321
100
AcDbEntity
  8
0
 62
     0
100
AcDbLine
 10
2912.617026
 20
1334.001137
 30
0.0
 11
2912.617026
 21
1334.001137
 31
0.0
  0
LINE
  5
322
100
AcDbEntity
  8
0
 62
     0
100
AcDbLine
 10
2908.32854
 20
1327.944884
 30
0.0
 11
2908.418579
 21
1328.034923
 31
0.0
  0
LINE
  5
323
100
AcDbEntity
  8
0
 62
     0
100
AcDbLine
 10
2908.860521
 20
1328.476865
 30
0.0
 11
2908.860521
 21
1328.476865
 31
0.0
  0
LINE
  5
324
100
AcDbEntity
  8
0
 62
     0
100
AcDbLine
 10
2909.302463
 20
1328.918807
 30
0.0
 11
2911.512172
 21
1331.128516
 31
0.0
  0
LINE
  5
325
100
AcDbEntity
  8
0
 62
     0
100
AcDbLine
 10
2911.954113
 20
1331.570457
 30
0.0
 11
2911.954113
 21
1331.570457
 31
0.0
  0
LINE
  5
326
100
AcDbEntity
  8
0
 62
     0
100
AcDbLine
 10
2912.396055
 20
1332.012399
 30
0.0
 11
2913.699254
 21
1333.315598
 31
0.0
  0
LINE
  5
327
100
AcDbEntity
  8
0
 62
     0
100
AcDbLine
 10
2924.770424
 20
1344.386768
 30
0.0
 11
2925.980817
 21
1345.597161
 31
0.0
  0
LINE
  5
328
100
AcDbEntity
  8
0
 62
     0
100
AcDbLine
 10
2910.096307
 20
1327.944884
 30
0.0
 11
2910.849259
 21
1328.697836
 31
0.0
  0
LINE
  5
329
100
AcDbEntity
  8
0
 62
     0
100
AcDbLine
 10
2911.291201
 20
1329.139778
 30
0.0
 11
2911.291201
 21
1329.139778
 31
0.0
  0
LINE
  5
32A
100
AcDbEntity
  8
0
 62
     0
100
AcDbLine
 10
2911.733142
 20
1329.581719
 30
0.0
 11
2913.942851
 21
1331.791428
 31
0.0
  0
LINE
  5
32B
100
AcDbEntity
  8
0
 62
     0
100
AcDbLine
 10
2914.384793
 20
1332.23337
 30
0.0
 11
2914.384793
 21
1332.23337
 31
0.0
  0
LINE
  5
32C
100
AcDbEntity
  8
0
 62
     0
100
AcDbLine
 10
2914.826735
 20
1332.675312
 30
0.0
 11
2915.096307
 21
1332.944884
 31
0.0
  0
LINE
  5
32D
100
AcDbEntity
  8
0
 62
     0
100
AcDbLine
 10
2924.550097
 20
1342.398674
 30
0.0
 11
2926.077581
 21
1343.926158
 31
0.0
  0
LINE
  5
32E
100
AcDbEntity
  8
0
 62
     0
100
AcDbLine
 10
2911.864074
 20
1327.944884
 30
0.0
 11
2913.279938
 21
1329.360749
 31
0.0
  0
LINE
  5
32F
100
AcDbEntity
  8
0
 62
     0
100
AcDbLine
 10
2913.72188
 20
1329.80269
 30
0.0
 11
2913.72188
 21
1329.80269
 31
0.0
  0
LINE
  5
330
100
AcDbEntity
  8
0
 62
     0
100
AcDbLine
 10
2914.163822
 20
1330.244632
 30
0.0
 11
2916.373531
 21
1332.454341
 31
0.0
  0
LINE
  5
331
100
AcDbEntity
  8
0
 62
     0
100
AcDbLine
 10
2916.815472
 20
1332.896283
 30
0.0
 11
2916.815472
 21
1332.896283
 31
0.0
  0
LINE
  5
332
100
AcDbEntity
  8
0
 62
     0
100
AcDbLine
 10
2924.100711
 20
1340.181521
 30
0.0
 11
2925.654307
 21
1341.735117
 31
0.0
  0
LINE
  5
333
100
AcDbEntity
  8
0
 62
     0
100
AcDbLine
 10
2926.096249
 20
1342.177059
 30
0.0
 11
2926.096249
 21
1342.177059
 31
0.0
  0
LINE
  5
334
100
AcDbEntity
  8
0
 62
     0
100
AcDbLine
 10
2913.631841
 20
1327.944884
 30
0.0
 11
2915.710618
 21
1330.023661
 31
0.0
  0
LINE
  5
335
100
AcDbEntity
  8
0
 62
     0
100
AcDbLine
 10
2916.15256
 20
1330.465603
 30
0.0
 11
2916.15256
 21
1330.465603
 31
0.0
  0
LINE
  5
336
100
AcDbEntity
  8
0
 62
     0
100
AcDbLine
 10
2916.594502
 20
1330.907545
 30
0.0
 11
2918.631841
 21
1332.944884
 31
0.0
  0
LINE
  5
337
100
AcDbEntity
  8
0
 62
     0
100
AcDbLine
 10
2923.651325
 20
1337.964369
 30
0.0
 11
2924.991395
 21
1339.304438
 31
0.0
  0
LINE
  5
338
100
AcDbEntity
  8
0
 62
     0
100
AcDbLine
 10
2925.433336
 20
1339.746379
 30
0.0
 11
2925.433336
 21
1339.746379
 31
0.0
  0
LINE
  5
339
100
AcDbEntity
  8
0
 62
     0
100
AcDbLine
 10
2925.875278
 20
1340.188321
 30
0.0
 11
2926.027433
 21
1340.340476
 31
0.0
  0
LINE
  5
33A
100
AcDbEntity
  8
0
 62
     0
100
AcDbLine
 10
2915.489647
 20
1328.034923
 30
0.0
 11
2915.489647
 21
1328.034923
 31
0.0
  0
LINE
  5
33B
100
AcDbEntity
  8
0
 62
     0
100
AcDbLine
 10
2915.931589
 20
1328.476865
 30
0.0
 11
2918.141298
 21
1330.686574
 31
0.0
  0
LINE
  5
33C
100
AcDbEntity
  8
0
 62
     0
100
AcDbLine
 10
2918.583239
 20
1331.128516
 30
0.0
 11
2918.583239
 21
1331.128516
 31
0.0
  0
LINE
  5
33D
100
AcDbEntity
  8
0
 62
     0
100
AcDbLine
 10
2919.025181
 20
1331.570457
 30
0.0
 11
2920.399608
 21
1332.944884
 31
0.0
  0
LINE
  5
33E
100
AcDbEntity
  8
0
 62
     0
100
AcDbLine
 10
2923.20194
 20
1335.747216
 30
0.0
 11
2924.328482
 21
1336.873758
 31
0.0
  0
LINE
  5
33F
100
AcDbEntity
  8
0
 62
     0
100
AcDbLine
 10
2924.770424
 20
1337.3157
 30
0.0
 11
2924.770424
 21
1337.3157
 31
0.0
  0
LINE
  5
340
100
AcDbEntity
  8
0
 62
     0
100
AcDbLine
 10
2925.212365
 20
1337.757642
 30
0.0
 11
2925.85297
 21
1338.398246
 31
0.0
  0
LINE
  5
341
100
AcDbEntity
  8
0
 62
     0
100
AcDbLine
 10
2917.167374
 20
1327.944884
 30
0.0
 11
2917.478385
 21
1328.255894
 31
0.0
  0
LINE
  5
342
100
AcDbEntity
  8
0
 62
     0
100
AcDbLine
 10
2917.920327
 20
1328.697836
 30
0.0
 11
2917.920327
 21
1328.697836
 31
0.0
  0
LINE
  5
343
100
AcDbEntity
  8
0
 62
     0
100
AcDbLine
 10
2918.362268
 20
1329.139778
 30
0.0
 11
2920.571977
 21
1331.349486
 31
0.0
  0
LINE
  5
344
100
AcDbEntity
  8
0
 62
     0
100
AcDbLine
 10
2921.013919
 20
1331.791428
 30
0.0
 11
2921.013919
 21
1331.791428
 31
0.0
  0
LINE
  5
345
100
AcDbEntity
  8
0
 62
     0
100
AcDbLine
 10
2921.455861
 20
1332.23337
 30
0.0
 11
2922.167374
 21
1332.944884
 31
0.0
  0
LINE
  5
346
100
AcDbEntity
  8
0
 62
     0
100
AcDbLine
 10
2922.752554
 20
1333.530063
 30
0.0
 11
2923.665569
 21
1334.443079
 31
0.0
  0
LINE
  5
347
100
AcDbEntity
  8
0
 62
     0
100
AcDbLine
 10
2924.107511
 20
1334.88502
 30
0.0
 11
2924.107511
 21
1334.88502
 31
0.0
  0
LINE
  5
348
100
AcDbEntity
  8
0
 62
     0
100
AcDbLine
 10
2924.549453
 20
1335.326962
 30
0.0
 11
2925.551273
 21
1336.328783
 31
0.0
  0
LINE
  5
349
100
AcDbEntity
  8
0
 62
     0
100
AcDbLine
 10
2918.935141
 20
1327.944884
 30
0.0
 11
2919.909065
 21
1328.918807
 31
0.0
  0
LINE
  5
34A
100
AcDbEntity
  8
0
 62
     0
100
AcDbLine
 10
2920.351006
 20
1329.360749
 30
0.0
 11
2920.351006
 21
1329.360749
 31
0.0
  0
LINE
  5
34B
100
AcDbEntity
  8
0
 62
     0
100
AcDbLine
 10
2920.792948
 20
1329.80269
 30
0.0
 11
2923.002657
 21
1332.012399
 31
0.0
  0
LINE
  5
34C
100
AcDbEntity
  8
0
 62
     0
100
AcDbLine
 10
2923.444598
 20
1332.454341
 30
0.0
 11
2923.444598
 21
1332.454341
 31
0.0
  0
LINE
  5
34D
100
AcDbEntity
  8
0
 62
     0
100
AcDbLine
 10
2923.88654
 20
1332.896283
 30
0.0
 11
2925.1
 21
1334.109742
 31
0.0
  0
LINE
  5
34E
100
AcDbEntity
  8
0
 62
     0
100
AcDbLine
 10
2920.702908
 20
1327.944884
 30
0.0
 11
2922.339744
 21
1329.581719
 31
0.0
  0
LINE
  5
34F
100
AcDbEntity
  8
0
 62
     0
100
AcDbLine
 10
2922.781686
 20
1330.023661
 30
0.0
 11
2922.781686
 21
1330.023661
 31
0.0
  0
LINE
  5
350
100
AcDbEntity
  8
0
 62
     0
100
AcDbLine
 10
2923.223628
 20
1330.465603
 30
0.0
 11
2925.1
 21
1332.341975
 31
0.0
  0
LINE
  5
351
100
AcDbEntity
  8
0
 62
     0
100
AcDbLine
 10
2922.560715
 20
1328.034923
 30
0.0
 11
2924.770424
 21
1330.244632
 31
0.0
  0
LINE
  5
352
100
AcDbEntity
  8
0
 62
     0
100
AcDbLine
 10
2923.493349
 20
1327.19979
 30
0.0
 11
2924.107511
 21
1327.813953
 31
0.0
  0
LINE
  5
353
100
AcDbEntity
  8
0
 62
     0
100
AcDbLine
 10
2924.549453
 20
1328.255894
 30
0.0
 11
2924.549453
 21
1328.255894
 31
0.0
  0
LINE
  5
354
100
AcDbEntity
  8
0
 62
     0
100
AcDbLine
 10
2924.991395
 20
1328.697836
 30
0.0
 11
2925.1
 21
1328.806441
 31
0.0
  0
ENDBLK
  5
356
100
AcDbEntity
  8
0
100
AcDbBlockEnd
  0
BLOCK
  5
3BB
100
AcDbEntity
  8
0
100
AcDbBlockBegin
  2
KFRIBAKKANT
 70
     0
 10
0.0
 20
0.0
 30
0.0
  3
KFRIBAKKANT
  1

  0
LINE
  5
265
100
AcDbEntity
  8
FOGNINGR
100
AcDbLine
 10
-8.742344
 20
24.918618
 30
0.0
 11
-11.199688
 21
23.197968
 31
0.0
  0
LINE
  5
267
100
AcDbEntity
  8
FOGNINGR
100
AcDbLine
 10
-2.629583
 20
5.0
 30
0.0
 11
-10.24082
 21
5.0
 31
0.0
  0
LINE
  5
268
100
AcDbEntity
  8
FOGNINGR
100
AcDbLine
 10
-11.038043
 20
21.4
 30
0.0
 11
-2.021525
 21
21.4
 31
0.0
  0
LINE
  5
269
100
AcDbEntity
  8
FOGNINGR
100
AcDbLine
 10
-9.044618
 20
23.2
 30
0.0
 11
-7.196786
 21
23.2
 31
0.0
  0
LINE
  5
26A
100
AcDbEntity
  8
FOGNINGR
100
AcDbLine
 10
-8.182071
 20
24.216538
 30
0.0
 11
-9.111766
 21
23.374103
 31
0.0
  0
INSERT
  5
26B
100
AcDbEntity
  8
GLAS_MED_FOGNING
100
AcDbBlockReference
  2
*X72
 10
-2925.1
 20
-1327.944884
 30
0.0
1001
ACAD
1000
HATCH
1002
{
1070
    16
1000
ANSI36
1040
10.0
1040
0.0
1002
}
  0
ARC
  5
357
100
AcDbEntity
  8
FOGNINGR
100
AcDbCircle
 10
-39.75918
 20
7.0
 30
0.0
 40
2.0
100
AcDbArc
 50
270.0
 51
353.68551
  0
ARC
  5
358
100
AcDbEntity
  8
FOGNINGR
100
AcDbCircle
 10
-34.789514
 20
6.450072
 30
0.0
 40
3.0
100
AcDbArc
 50
119.7252
 51
173.68551
  0
ARC
  5
359
100
AcDbEntity
  8
FOGNINGR
100
AcDbCircle
 10
-39.5
 20
14.7
 30
0.0
 40
8.5
100
AcDbArc
 50
73.649183
 51
84.6287
  0
ARC
  5
35A
100
AcDbEntity
  8
FOGNINGR
100
AcDbCircle
 10
-38.961957
 20
18.4
 30
0.0
 40
3.0
100
AcDbArc
 50
61.132841
 51
90.0
  0
LINE
  5
35B
100
AcDbEntity
  8
FOGNINGR
100
AcDbLine
 10
-47.370417
 20
5.0
 30
0.0
 11
-39.75918
 21
5.0
 31
0.0
  0
ARC
  5
35C
100
AcDbEntity
  8
FOGNINGR
100
AcDbCircle
 10
-47.370417
 20
5.2
 30
0.0
 40
0.2
100
AcDbArc
 50
191.45783
 51
270.0
  0
LINE
  5
35D
100
AcDbEntity
  8
FOGNINGR
100
AcDbLine
 10
-50.0
 20
6.2
 30
0.0
 11
-50.0
 21
0.087095
 31
0.0
  0
LINE
  5
35E
100
AcDbEntity
  8
FOGNINGR
100
AcDbLine
 10
-38.961957
 20
21.4
 30
0.0
 11
-47.978475
 21
21.4
 31
0.0
  0
LINE
  5
35F
100
AcDbEntity
  8
FOGNINGR
100
AcDbLine
 10
-49.284977
 20
24.918618
 30
0.0
 11
-46.830536
 21
23.2
 31
0.0
  0
LINE
  5
360
100
AcDbEntity
  8
FOGNINGR
100
AcDbLine
 10
-49.479869
 20
14.600677
 30
0.0
 11
-47.566431
 21
5.160271
 31
0.0
  0
LINE
  5
361
100
AcDbEntity
  8
FOGNINGR
100
AcDbLine
 10
-41.257656
 20
24.918618
 30
0.0
 11
-38.800312
 21
23.197968
 31
0.0
  0
ARC
  5
362
100
AcDbEntity
  8
FOGNINGR
100
AcDbCircle
 10
-38.685596
 20
23.361798
 30
0.0
 40
0.2
100
AcDbArc
 50
235.0
 51
264.6287
  0
LINE
  5
363
100
AcDbEntity
  8
FOGNINGR
100
AcDbLine
 10
-45.257656
 20
24.918618
 30
0.0
 11
-42.803214
 21
23.2
 31
0.0
  0
ARC
  5
364
100
AcDbEntity
  8
FOGNINGR
100
AcDbCircle
 10
-40.955382
 20
23.3
 30
0.0
 40
0.1
100
AcDbArc
 50
270.0
 51
47.818963
  0
LINE
  5
365
100
AcDbEntity
  8
FOGNINGR
100
AcDbLine
 10
-41.817929
 20
24.216538
 30
0.0
 11
-40.888234
 21
23.374103
 31
0.0
  0
LINE
  5
366
100
AcDbEntity
  8
FOGNINGR
100
AcDbLine
 10
-40.955382
 20
23.2
 30
0.0
 11
-42.803214
 21
23.2
 31
0.0
  0
ARC
  5
367
100
AcDbEntity
  8
FOGNINGR
100
AcDbCircle
 10
-41.515765
 20
24.55
 30
0.0
 40
0.45
100
AcDbArc
 50
55.0
 51
227.818963
  0
ARC
  5
368
100
AcDbEntity
  8
FOGNINGR
100
AcDbCircle
 10
-45.515765
 20
24.55
 30
0.0
 40
0.45
100
AcDbArc
 50
55.0
 51
227.818963
  0
ARC
  5
369
100
AcDbEntity
  8
FOGNINGR
100
AcDbCircle
 10
-44.955382
 20
23.3
 30
0.0
 40
0.1
100
AcDbArc
 50
270.0
 51
47.818963
  0
LINE
  5
36A
100
AcDbEntity
  8
FOGNINGR
100
AcDbLine
 10
-45.817929
 20
24.216538
 30
0.0
 11
-44.888234
 21
23.374103
 31
0.0
  0
LINE
  5
36B
100
AcDbEntity
  8
FOGNINGR
100
AcDbLine
 10
-46.830536
 20
23.2
 30
0.0
 11
-44.955382
 21
23.2
 31
0.0
  0
ARC
  5
36C
100
AcDbEntity
  8
FOGNINGR
100
AcDbCircle
 10
-14.375
 20
14.7
 30
0.0
 40
36.625
100
AcDbArc
 50
167.205594
 51
193.419674
  0
LINE
  5
36D
100
AcDbEntity
  8
FOGNINGR
100
AcDbLine
 10
-49.479869
 20
14.799323
 30
0.0
 11
-48.174489
 21
21.239729
 31
0.0
  0
ARC
  5
36E
100
AcDbEntity
  8
FOGNINGR
100
AcDbCircle
 10
-49.543087
 20
24.55
 30
0.0
 40
0.45
100
AcDbArc
 50
55.0
 51
227.818963
  0
ARC
  5
36F
100
AcDbEntity
  8
FOGNINGR
100
AcDbCircle
 10
-48.982704
 20
23.3
 30
0.0
 40
0.1
100
AcDbArc
 50
270.0
 51
47.818963
  0
LINE
  5
370
100
AcDbEntity
  8
FOGNINGR
100
AcDbLine
 10
-48.982704
 20
23.2
 30
0.0
 11
-49.603052
 21
23.2
 31
0.0
  0
ARC
  5
371
100
AcDbEntity
  8
FOGNINGR
100
AcDbCircle
 10
-49.603052
 20
22.7
 30
0.0
 40
0.5
100
AcDbArc
 50
90.0
 51
167.205594
  0
LINE
  5
372
100
AcDbEntity
  8
FOGNINGR
100
AcDbLine
 10
-49.845251
 20
24.216538
 30
0.0
 11
-48.915556
 21
23.374103
 31
0.0
  0
ARC
  5
373
100
AcDbEntity
  8
FOGNINGR
100
AcDbCircle
 10
-47.978475
 20
21.2
 30
0.0
 40
0.2
100
AcDbArc
 50
90.0
 51
168.54217
  0
ARC
  5
374
100
AcDbEntity
  8
FOGNINGR
100
AcDbCircle
 10
-10.5
 20
14.7
 30
0.0
 40
8.5
100
AcDbArc
 50
115.718611
 51
237.300711
  0
ARC
  5
375
100
AcDbEntity
  8
FOGNINGR
100
AcDbCircle
 10
-10.5
 20
14.7
 30
0.0
 40
6.5
100
AcDbArc
 50
118.867159
 51
240.2748
  0
LINE
  5
376
100
AcDbEntity
  8
FOGNINGR
100
AcDbLine
 10
-15.0
 20
3.2
 30
0.0
 11
-15.0
 21
7.378798
 31
0.0
  0
ARC
  5
377
100
AcDbEntity
  8
FOGNINGR
100
AcDbCircle
 10
-10.24082
 20
7.0
 30
0.0
 40
2.0
100
AcDbArc
 50
186.31449
 51
270.0
  0
ARC
  5
378
100
AcDbEntity
  8
FOGNINGR
100
AcDbCircle
 10
-15.210486
 20
6.450072
 30
0.0
 40
3.0
100
AcDbArc
 50
6.31449
 51
60.2748
  0
ARC
  5
379
100
AcDbEntity
  8
FOGNINGR
100
AcDbCircle
 10
-15.2
 20
7.378798
 30
0.0
 40
0.2
100
AcDbArc
 50
0.0
 51
57.300711
  0
LINE
  5
37A
100
AcDbEntity
  8
FOGNINGR
100
AcDbLine
 10
-12.892902
 20
22.856226
 30
0.0
 11
-18.639659
 21
26.175626
 31
0.0
  0
LINE
  5
37B
100
AcDbEntity
  8
FOGNINGR
100
AcDbLine
 10
-14.18859
 20
22.357957
 30
0.0
 11
-19.056312
 21
25.492965
 31
0.0
  0
ARC
  5
37C
100
AcDbEntity
  8
FOGNINGR
100
AcDbCircle
 10
-18.839728
 20
25.829255
 30
0.0
 40
0.4
100
AcDbArc
 50
59.988726
 51
237.216845
  0
ARC
  5
37D
100
AcDbEntity
  8
FOGNINGR
100
AcDbCircle
 10
-11.038043
 20
18.4
 30
0.0
 40
3.0
100
AcDbArc
 50
90.0
 51
118.867159
  0
LINE
  5
37E
100
AcDbEntity
  8
FOGNINGR
100
AcDbLine
 10
-13.638073
 20
20.392319
 30
0.0
 11
-12.486385
 21
21.027224
 31
0.0
  0
ARC
  5
37F
100
AcDbEntity
  8
FOGNINGR
100
AcDbCircle
 10
-10.5
 20
14.7
 30
0.0
 40
8.5
100
AcDbArc
 50
95.3713
 51
106.350817
  0
ARC
  5
380
100
AcDbEntity
  8
FOGNINGR
100
AcDbCircle
 10
-14.956003
 20
24.62768
 30
0.0
 40
0.2
100
AcDbArc
 50
35.920301
 51
69.988726
  0
ARC
  5
381
100
AcDbEntity
  8
FOGNINGR
100
AcDbCircle
 10
-11.314404
 20
23.361798
 30
0.0
 40
0.2
100
AcDbArc
 50
275.3713
 51
305.0
  0
ARC
  5
382
100
AcDbEntity
  8
FOGNINGR
100
AcDbCircle
 10
-9.044618
 20
23.3
 30
0.0
 40
0.1
100
AcDbArc
 50
132.181037
 51
270.0
  0
ARC
  5
383
100
AcDbEntity
  8
FOGNINGR
100
AcDbCircle
 10
-39.5
 20
14.7
 30
0.0
 40
8.5
100
AcDbArc
 50
302.699289
 51
64.281389
  0
LINE
  5
384
100
AcDbEntity
  8
FOGNINGR
100
AcDbLine
 10
-35.81141
 20
22.357957
 30
0.0
 11
-30.943688
 21
25.492965
 31
0.0
  0
ARC
  5
385
100
AcDbEntity
  8
FOGNINGR
100
AcDbCircle
 10
-34.8
 20
7.378798
 30
0.0
 40
0.2
100
AcDbArc
 50
122.699289
 51
180.0
  0
LINE
  5
386
100
AcDbEntity
  8
FOGNINGR
100
AcDbLine
 10
-35.0
 20
3.2
 30
0.0
 11
-35.0
 21
7.378798
 31
0.0
  0
ARC
  5
387
100
AcDbEntity
  8
FOGNINGR
100
AcDbCircle
 10
-31.160272
 20
25.829255
 30
0.0
 40
0.4
100
AcDbArc
 50
302.783155
 51
120.011274
  0
ARC
  5
388
100
AcDbEntity
  8
DIM
100
AcDbCircle
 10
-15.522604
 20
5.646113
 30
0.0
 40
0.5
100
AcDbArc
 50
0.0
 51
90.0
  0
LINE
  5
389
100
AcDbEntity
  8
DIM
100
AcDbLine
 10
-15.209873
 20
6.03624
 30
0.0
 11
-18.1
 21
3.146113
 31
0.0
  0
LINE
  5
38A
100
AcDbEntity
  8
DIM
100
AcDbLine
 10
-15.022604
 20
3.646113
 30
0.0
 11
-15.022604
 21
5.646113
 31
0.0
  0
LINE
  5
38B
100
AcDbEntity
  8
DIM
100
AcDbLine
 10
-30.1
 20
6.146113
 30
0.0
 11
-33.1
 21
3.146113
 31
0.0
  0
LINE
  5
38C
100
AcDbEntity
  8
DIM
100
AcDbLine
 10
-27.6
 20
6.146113
 30
0.0
 11
-30.6
 21
3.146113
 31
0.0
  0
LINE
  5
38D
100
AcDbEntity
  8
DIM
100
AcDbLine
 10
-20.1
 20
6.146113
 30
0.0
 11
-23.1
 21
3.146113
 31
0.0
  0
LINE
  5
38E
100
AcDbEntity
  8
DIM
100
AcDbLine
 10
-22.6
 20
6.146113
 30
0.0
 11
-25.6
 21
3.146113
 31
0.0
  0
LINE
  5
38F
100
AcDbEntity
  8
DIM
100
AcDbLine
 10
-25.1
 20
6.146113
 30
0.0
 11
-28.1
 21
3.146113
 31
0.0
  0
LINE
  5
390
100
AcDbEntity
  8
DIM
100
AcDbLine
 10
-17.6
 20
6.146113
 30
0.0
 11
-20.6
 21
3.146113
 31
0.0
  0
LINE
  5
391
100
AcDbEntity
  8
DIM
100
AcDbLine
 10
-15.522604
 20
6.146113
 30
0.0
 11
-24.997425
 21
6.146113
 31
0.0
  0
ARC
  5
392
100
AcDbEntity
  8
DIM
100
AcDbCircle
 10
-34.472247
 20
5.646113
 30
0.0
 40
0.5
100
AcDbArc
 50
90.0
 51
180.0
  0
LINE
  5
393
100
AcDbEntity
  8
DIM
100
AcDbLine
 10
-34.972247
 20
3.646113
 30
0.0
 11
-34.972247
 21
5.646113
 31
0.0
  0
LINE
  5
394
100
AcDbEntity
  8
DIM
100
AcDbLine
 10
-34.472247
 20
6.146113
 30
0.0
 11
-24.997425
 21
6.146113
 31
0.0
  0
LINE
  5
395
100
AcDbEntity
  8
DIM
100
AcDbLine
 10
-32.6
 20
6.146113
 30
0.0
 11
-34.968776
 21
3.777336
 31
0.0
  0
LINE
  5
396
100
AcDbEntity
  8
FOGNINGR
100
AcDbLine
 10
-36.361927
 20
20.392319
 30
0.0
 11
-37.513615
 21
21.027224
 31
0.0
  0
ARC
  5
397
100
AcDbEntity
  8
FOGNINGR
100
AcDbCircle
 10
-39.5
 20
14.7
 30
0.0
 40
6.5
100
AcDbArc
 50
299.7252
 51
61.132841
  0
LINE
  5
398
100
AcDbEntity
  8
FOGNINGR
100
AcDbLine
 10
-37.107098
 20
22.856226
 30
0.0
 11
-31.360341
 21
26.175626
 31
0.0
  0
LINE
  5
399
100
AcDbEntity
  8
FOGNINGR
100
AcDbLine
 10
0.0
 20
6.2
 30
0.0
 11
0.0
 21
0.087095
 31
0.0
  0
ARC
  5
39A
100
AcDbEntity
  8
FOGNINGR
100
AcDbCircle
 10
-2.629583
 20
5.2
 30
0.0
 40
0.2
100
AcDbArc
 50
270.0
 51
348.54217
  0
LINE
  5
39B
100
AcDbEntity
  8
FOGNINGR
100
AcDbLine
 10
-4.742344
 20
24.918618
 30
0.0
 11
-7.196786
 21
23.2
 31
0.0
  0
LINE
  5
39C
100
AcDbEntity
  8
FOGNINGR
100
AcDbLine
 10
-0.520131
 20
14.600677
 30
0.0
 11
-2.433569
 21
5.160271
 31
0.0
  0
ARC
  5
39D
100
AcDbEntity
  8
FOGNINGR
100
AcDbCircle
 10
-35.625
 20
14.7
 30
0.0
 40
36.625
100
AcDbArc
 50
346.580326
 51
12.794406
  0
LINE
  5
39E
100
AcDbEntity
  8
FOGNINGR
100
AcDbLine
 10
-4.182071
 20
24.216538
 30
0.0
 11
-5.111766
 21
23.374103
 31
0.0
  0
ARC
  5
39F
100
AcDbEntity
  8
FOGNINGR
100
AcDbCircle
 10
-5.044618
 20
23.3
 30
0.0
 40
0.1
100
AcDbArc
 50
132.181037
 51
270.0
  0
LINE
  5
3A0
100
AcDbEntity
  8
FOGNINGR
100
AcDbLine
 10
-0.520131
 20
14.799323
 30
0.0
 11
-1.825511
 21
21.239729
 31
0.0
  0
ARC
  5
3A1
100
AcDbEntity
  8
FOGNINGR
100
AcDbCircle
 10
-2.021525
 20
21.2
 30
0.0
 40
0.2
100
AcDbArc
 50
11.45783
 51
90.0
  0
LINE
  5
3A2
100
AcDbEntity
  8
FOGNINGR
100
AcDbLine
 10
-0.715023
 20
24.918618
 30
0.0
 11
-3.169464
 21
23.2
 31
0.0
  0
ARC
  5
3A3
100
AcDbEntity
  8
FOGNINGR
100
AcDbCircle
 10
-4.484235
 20
24.55
 30
0.0
 40
0.45
100
AcDbArc
 50
312.181037
 51
125.0
  0
LINE
  5
3A4
100
AcDbEntity
  8
FOGNINGR
100
AcDbLine
 10
-3.169464
 20
23.2
 30
0.0
 11
-5.044618
 21
23.2
 31
0.0
  0
ARC
  5
3A5
100
AcDbEntity
  8
FOGNINGR
100
AcDbCircle
 10
-0.456913
 20
24.55
 30
0.0
 40
0.45
100
AcDbArc
 50
312.181037
 51
125.0
  0
ARC
  5
3A6
100
AcDbEntity
  8
FOGNINGR
100
AcDbCircle
 10
-0.396948
 20
22.7
 30
0.0
 40
0.5
100
AcDbArc
 50
12.794406
 51
90.0
  0
LINE
  5
3A7
100
AcDbEntity
  8
FOGNINGR
100
AcDbLine
 10
-0.154749
 20
24.216538
 30
0.0
 11
-1.084444
 21
23.374103
 31
0.0
  0
ARC
  5
3A8
100
AcDbEntity
  8
FOGNINGR
100
AcDbCircle
 10
-1.017296
 20
23.3
 30
0.0
 40
0.1
100
AcDbArc
 50
132.181037
 51
270.0
  0
LINE
  5
3A9
100
AcDbEntity
  8
FOGNINGR
100
AcDbLine
 10
-1.017296
 20
23.2
 30
0.0
 11
-0.396948
 21
23.2
 31
0.0
  0
ARC
  5
3AA
100
AcDbEntity
  8
FOGNINGR
100
AcDbCircle
 10
-8.484235
 20
24.55
 30
0.0
 40
0.45
100
AcDbArc
 50
312.181037
 51
125.0
  0
LINE
  5
3AB
100
AcDbEntity
  8
FOGNINGR
100
AcDbLine
 10
-4.175893
 20
0.0
 30
0.0
 11
-25.0
 21
0.0
 31
0.0
  0
LINE
  5
3AC
100
AcDbEntity
  8
FOGNINGR
100
AcDbLine
 10
-45.824107
 20
0.0
 30
0.0
 11
-25.0
 21
0.0
 31
0.0
  0
LINE
  5
3AD
100
AcDbEntity
  8
FOGNINGR
100
AcDbLine
 10
-45.824107
 20
0.0
 30
0.0
 11
-49.204095
 21
-0.980214
 31
0.0
  0
ARC
  5
3AE
100
AcDbEntity
  8
FOGNINGR
100
AcDbCircle
 10
-49.343359
 20
-0.5
 30
0.0
 40
0.5
100
AcDbArc
 50
202.157418
 51
286.172433
  0
LINE
  5
3AF
100
AcDbEntity
  8
FOGNINGR
100
AcDbLine
 10
-50.0
 20
0.087095
 30
0.0
 11
-49.811631
 21
-0.690692
 31
0.0
  0
LINE
  5
3B0
100
AcDbEntity
  8
FOGNINGR
100
AcDbLine
 10
-34.8
 20
3.0
 30
0.0
 11
-25.0
 21
3.0
 31
0.0
  0
ARC
  5
3B1
100
AcDbEntity
  8
FOGNINGR
100
AcDbCircle
 10
-34.8
 20
3.2
 30
0.0
 40
0.2
100
AcDbArc
 50
180.0
 51
270.0
  0
LINE
  5
3B2
100
AcDbEntity
  8
FOGNINGR
100
AcDbLine
 10
-15.2
 20
3.0
 30
0.0
 11
-25.0
 21
3.0
 31
0.0
  0
ARC
  5
3B3
100
AcDbEntity
  8
FOGNINGR
100
AcDbCircle
 10
-15.2
 20
3.2
 30
0.0
 40
0.2
100
AcDbArc
 50
270.0
 51
0.0
  0
ARC
  5
3B4
100
AcDbEntity
  8
DIM
100
AcDbCircle
 10
-15.522604
 20
3.646113
 30
0.0
 40
0.5
100
AcDbArc
 50
270.0
 51
0.0
  0
LINE
  5
3B5
100
AcDbEntity
  8
DIM
100
AcDbLine
 10
-24.997425
 20
3.146113
 30
0.0
 11
-15.522604
 21
3.146113
 31
0.0
  0
ARC
  5
3B6
100
AcDbEntity
  8
DIM
100
AcDbCircle
 10
-34.472247
 20
3.646113
 30
0.0
 40
0.5
100
AcDbArc
 50
180.0
 51
270.0
  0
LINE
  5
3B7
100
AcDbEntity
  8
DIM
100
AcDbLine
 10
-24.997425
 20
3.146113
 30
0.0
 11
-34.472247
 21
3.146113
 31
0.0
  0
ARC
  5
3B8
100
AcDbEntity
  8
FOGNINGR
100
AcDbCircle
 10
-0.656641
 20
-0.5
 30
0.0
 40
0.5
100
AcDbArc
 50
253.827567
 51
337.842582
  0
LINE
  5
3B9
100
AcDbEntity
  8
FOGNINGR
100
AcDbLine
 10
-4.175893
 20
0.0
 30
0.0
 11
-0.795905
 21
-0.980214
 31
0.0
  0
LINE
  5
3BA
100
AcDbEntity
  8
FOGNINGR
100
AcDbLine
 10
0.0
 20
0.087095
 30
0.0
 11
-0.188369
 21
-0.690692
 31
0.0
  0
ENDBLK
  5
3BC
100
AcDbEntity
  8
0
100
AcDbBlockEnd
  0
BLOCK
  5
1F8
100
AcDbEntity
  8
0
100
AcDbBlockBegin
  2
*X74
 70
     1
 10
0.0
 20
0.0
 30
0.0
  3
*X74
  1

  0
LINE
  5
1E7
100
AcDbEntity
  8
0
 62
     0
100
AcDbLine
 10
339.266108
 20
141.27621
 30
0.0
 11
343.389229
 21
145.39933
 31
0.0
  0
LINE
  5
1E8
100
AcDbEntity
  8
0
 62
     0
100
AcDbLine
 10
339.266554
 20
142.160539
 30
0.0
 11
342.093669
 21
144.987654
 31
0.0
  0
LINE
  5
1E9
100
AcDbEntity
  8
0
 62
     0
100
AcDbLine
 10
344.938515
 20
147.8325
 30
0.0
 11
346.052994
 21
148.946979
 31
0.0
  0
LINE
  5
1EA
100
AcDbEntity
  8
0
 62
     0
100
AcDbLine
 10
339.267
 20
143.044868
 30
0.0
 11
341.302244
 21
145.080112
 31
0.0
  0
LINE
  5
1EB
100
AcDbEntity
  8
0
 62
     0
100
AcDbLine
 10
343.271285
 20
147.049153
 30
0.0
 11
345.047152
 21
148.82502
 31
0.0
  0
LINE
  5
1EC
100
AcDbEntity
  8
0
 62
     0
100
AcDbLine
 10
339.2079
 20
143.869651
 30
0.0
 11
343.838723
 21
148.500474
 31
0.0
  0
LINE
  5
1ED
100
AcDbEntity
  8
0
 62
     0
100
AcDbLine
 10
338.926871
 20
144.472506
 30
0.0
 11
342.06423
 21
147.609865
 31
0.0
  0
LINE
  5
1EE
100
AcDbEntity
  8
0
 62
     0
100
AcDbLine
 10
338.483549
 20
144.913068
 30
0.0
 11
339.860631
 21
146.29015
 31
0.0
  0
LINE
  5
1EF
100
AcDbEntity
  8
0
 62
     0
100
AcDbLine
 10
337.945231
 20
145.258633
 30
0.0
 11
338.74243
 21
146.055833
 31
0.0
  0
LINE
  5
1F0
100
AcDbEntity
  8
0
 62
     0
100
AcDbLine
 10
339.265663
 20
140.39188
 30
0.0
 11
342.297095
 21
143.423313
 31
0.0
  0
LINE
  5
1F1
100
AcDbEntity
  8
0
 62
     0
100
AcDbLine
 10
343.225756
 20
144.351974
 30
0.0
 11
344.439662
 21
145.56588
 31
0.0
  0
LINE
  5
1F2
100
AcDbEntity
  8
0
 62
     0
100
AcDbLine
 10
339.265217
 20
139.507551
 30
0.0
 11
341.748725
 21
141.991059
 31
0.0
  0
LINE
  5
1F3
100
AcDbEntity
  8
0
 62
     0
100
AcDbLine
 10
338.645575
 20
138.004026
 30
0.0
 11
341.724742
 21
141.083193
 31
0.0
  0
LINE
  5
1F4
100
AcDbEntity
  8
0
 62
     0
100
AcDbLine
 10
339.342933
 20
137.8175
 30
0.0
 11
341.742274
 21
140.216841
 31
0.0
  0
LINE
  5
1F5
100
AcDbEntity
  8
0
 62
     0
100
AcDbLine
 10
340.167521
 20
137.758205
 30
0.0
 11
341.760028
 21
139.350712
 31
0.0
  0
LINE
  5
1F6
100
AcDbEntity
  8
0
 62
     0
100
AcDbLine
 10
341.125106
 20
137.831906
 30
0.0
 11
342.176064
 21
138.882865
 31
0.0
  0
LINE
  5
1F7
100
AcDbEntity
  8
0
 62
     0
100
AcDbLine
 10
342.109863
 20
137.93278
 30
0.0
 11
343.099058
 21
138.921975
 31
0.0
  0
ENDBLK
  5
1F9
100
AcDbEntity
  8
0
100
AcDbBlockEnd
  0
BLOCK
  5
6CC
100
AcDbEntity
  8
0
100
AcDbBlockBegin
  2
50_SP40052
 70
     0
 10
0.0
 20
0.0
 30
0.0
  3
50_SP40052
  1

  0
INSERT
  5
6CB
100
AcDbEntity
  8
ISOLERING
100
AcDbBlockReference
  2
KFRIBAKKANT
 10
25.0
 20
-50.0
 30
0.0
 50
270.0
  0
ENDBLK
  5
6CD
100
AcDbEntity
  8
0
100
AcDbBlockEnd
  0
BLOCK
  5
70D
100
AcDbEntity
  8
0
100
AcDbBlockBegin
  2
*X76
 70
     1
 10
0.0
 20
0.0
 30
0.0
  3
*X76
  1

  0
LINE
  5
6D7
100
AcDbEntity
  8
0
 62
     0
100
AcDbLine
 10
111.177615
 20
263.205573
 30
0.0
 11
112.253202
 21
264.281159
 31
0.0
  0
LINE
  5
6D8
100
AcDbEntity
  8
0
 62
     0
100
AcDbLine
 10
112.474172
 20
264.50213
 30
0.0
 11
112.474172
 21
264.50213
 31
0.0
  0
LINE
  5
6D9
100
AcDbEntity
  8
0
 62
     0
100
AcDbLine
 10
112.695143
 20
264.723101
 30
0.0
 11
113.677615
 21
265.705573
 31
0.0
  0
LINE
  5
6DA
100
AcDbEntity
  8
0
 62
     0
100
AcDbLine
 10
111.258833
 20
264.170674
 30
0.0
 11
111.258833
 21
264.170674
 31
0.0
  0
LINE
  5
6DB
100
AcDbEntity
  8
0
 62
     0
100
AcDbLine
 10
111.479803
 20
264.391645
 30
0.0
 11
112.584658
 21
265.496499
 31
0.0
  0
LINE
  5
6DC
100
AcDbEntity
  8
0
 62
     0
100
AcDbLine
 10
112.805629
 20
265.71747
 30
0.0
 11
112.805629
 21
265.71747
 31
0.0
  0
LINE
  5
6DD
100
AcDbEntity
  8
0
 62
     0
100
AcDbLine
 10
113.0266
 20
265.938441
 30
0.0
 11
113.677615
 21
266.589456
 31
0.0
  0
LINE
  5
6DE
100
AcDbEntity
  8
0
 62
     0
100
AcDbLine
 10
111.177615
 20
264.97334
 30
0.0
 11
111.369318
 21
265.165043
 31
0.0
  0
LINE
  5
6DF
100
AcDbEntity
  8
0
 62
     0
100
AcDbLine
 10
111.590289
 20
265.386014
 30
0.0
 11
111.590289
 21
265.386014
 31
0.0
  0
LINE
  5
6E0
100
AcDbEntity
  8
0
 62
     0
100
AcDbLine
 10
111.81126
 20
265.606985
 30
0.0
 11
112.916114
 21
266.711839
 31
0.0
  0
LINE
  5
6E1
100
AcDbEntity
  8
0
 62
     0
100
AcDbLine
 10
113.137085
 20
266.93281
 30
0.0
 11
113.137085
 21
266.93281
 31
0.0
  0
LINE
  5
6E2
100
AcDbEntity
  8
0
 62
     0
100
AcDbLine
 10
113.358056
 20
267.153781
 30
0.0
 11
113.677615
 21
267.47334
 31
0.0
  0
LINE
  5
6E3
100
AcDbEntity
  8
0
 62
     0
100
AcDbLine
 10
111.177615
 20
265.857223
 30
0.0
 11
111.700774
 21
266.380383
 31
0.0
  0
LINE
  5
6E4
100
AcDbEntity
  8
0
 62
     0
100
AcDbLine
 10
111.921745
 20
266.601354
 30
0.0
 11
111.921745
 21
266.601354
 31
0.0
  0
LINE
  5
6E5
100
AcDbEntity
  8
0
 62
     0
100
AcDbLine
 10
112.142716
 20
266.822324
 30
0.0
 11
113.24757
 21
267.927179
 31
0.0
  0
LINE
  5
6E6
100
AcDbEntity
  8
0
 62
     0
100
AcDbLine
 10
113.468541
 20
268.14815
 30
0.0
 11
113.468541
 21
268.14815
 31
0.0
  0
LINE
  5
6E7
100
AcDbEntity
  8
0
 62
     0
100
AcDbLine
 10
111.177615
 20
266.741106
 30
0.0
 11
112.032231
 21
267.595723
 31
0.0
  0
LINE
  5
6E8
100
AcDbEntity
  8
0
 62
     0
100
AcDbLine
 10
112.253202
 20
267.816693
 30
0.0
 11
112.253202
 21
267.816693
 31
0.0
  0
LINE
  5
6E9
100
AcDbEntity
  8
0
 62
     0
100
AcDbLine
 10
112.474172
 20
268.037664
 30
0.0
 11
113.579027
 21
269.142519
 31
0.0
  0
LINE
  5
6EA
100
AcDbEntity
  8
0
 62
     0
100
AcDbLine
 10
111.258833
 20
267.706208
 30
0.0
 11
112.363687
 21
268.811062
 31
0.0
  0
LINE
  5
6EB
100
AcDbEntity
  8
0
 62
     0
100
AcDbLine
 10
112.584658
 20
269.032033
 30
0.0
 11
112.584658
 21
269.032033
 31
0.0
  0
LINE
  5
6EC
100
AcDbEntity
  8
0
 62
     0
100
AcDbLine
 10
112.805629
 20
269.253004
 30
0.0
 11
113.677615
 21
270.12499
 31
0.0
  0
LINE
  5
6ED
100
AcDbEntity
  8
0
 62
     0
100
AcDbLine
 10
111.369318
 20
268.700577
 30
0.0
 11
111.369318
 21
268.700577
 31
0.0
  0
LINE
  5
6EE
100
AcDbEntity
  8
0
 62
     0
100
AcDbLine
 10
111.590289
 20
268.921548
 30
0.0
 11
112.695143
 21
270.026402
 31
0.0
  0
LINE
  5
6EF
100
AcDbEntity
  8
0
 62
     0
100
AcDbLine
 10
112.916114
 20
270.247373
 30
0.0
 11
112.916114
 21
270.247373
 31
0.0
  0
LINE
  5
6F0
100
AcDbEntity
  8
0
 62
     0
100
AcDbLine
 10
113.137085
 20
270.468344
 30
0.0
 11
113.677615
 21
271.008873
 31
0.0
  0
LINE
  5
6F1
100
AcDbEntity
  8
0
 62
     0
100
AcDbLine
 10
111.177615
 20
269.392757
 30
0.0
 11
111.479803
 21
269.694946
 31
0.0
  0
LINE
  5
6F2
100
AcDbEntity
  8
0
 62
     0
100
AcDbLine
 10
111.700774
 20
269.915917
 30
0.0
 11
111.700774
 21
269.915917
 31
0.0
  0
LINE
  5
6F3
100
AcDbEntity
  8
0
 62
     0
100
AcDbLine
 10
111.921745
 20
270.136888
 30
0.0
 11
112.949375
 21
271.164517
 31
0.0
  0
LINE
  5
6F4
100
AcDbEntity
  8
0
 62
     0
100
AcDbLine
 10
111.177615
 20
270.27664
 30
0.0
 11
111.81126
 21
270.910286
 31
0.0
  0
LINE
  5
6F5
100
AcDbEntity
  8
0
 62
     0
100
AcDbLine
 10
112.032231
 20
271.131256
 30
0.0
 11
112.032231
 21
271.131256
 31
0.0
  0
LINE
  5
6F6
100
AcDbEntity
  8
0
 62
     0
100
AcDbLine
 10
111.177615
 20
271.160524
 30
0.0
 11
111.181608
 21
271.164517
 31
0.0
  0
LINE
  5
6F7
100
AcDbEntity
  8
0
 62
     0
100
AcDbLine
 10
111.177615
 20
262.321689
 30
0.0
 11
111.921745
 21
263.06582
 31
0.0
  0
LINE
  5
6F8
100
AcDbEntity
  8
0
 62
     0
100
AcDbLine
 10
112.142716
 20
263.286791
 30
0.0
 11
112.142716
 21
263.286791
 31
0.0
  0
LINE
  5
6F9
100
AcDbEntity
  8
0
 62
     0
100
AcDbLine
 10
112.363687
 20
263.507761
 30
0.0
 11
113.468541
 21
264.612616
 31
0.0
  0
LINE
  5
6FA
100
AcDbEntity
  8
0
 62
     0
100
AcDbLine
 10
111.177615
 20
261.437806
 30
0.0
 11
111.590289
 21
261.85048
 31
0.0
  0
LINE
  5
6FB
100
AcDbEntity
  8
0
 62
     0
100
AcDbLine
 10
111.81126
 20
262.071451
 30
0.0
 11
111.81126
 21
262.071451
 31
0.0
  0
LINE
  5
6FC
100
AcDbEntity
  8
0
 62
     0
100
AcDbLine
 10
112.032231
 20
262.292422
 30
0.0
 11
113.137085
 21
263.397276
 31
0.0
  0
LINE
  5
6FD
100
AcDbEntity
  8
0
 62
     0
100
AcDbLine
 10
113.358056
 20
263.618247
 30
0.0
 11
113.358056
 21
263.618247
 31
0.0
  0
LINE
  5
6FE
100
AcDbEntity
  8
0
 62
     0
100
AcDbLine
 10
113.579027
 20
263.839218
 30
0.0
 11
113.677615
 21
263.937806
 31
0.0
  0
LINE
  5
6FF
100
AcDbEntity
  8
0
 62
     0
100
AcDbLine
 10
111.177615
 20
260.553922
 30
0.0
 11
111.258833
 21
260.63514
 31
0.0
  0
LINE
  5
700
100
AcDbEntity
  8
0
 62
     0
100
AcDbLine
 10
111.479803
 20
260.856111
 30
0.0
 11
111.479803
 21
260.856111
 31
0.0
  0
LINE
  5
701
100
AcDbEntity
  8
0
 62
     0
100
AcDbLine
 10
111.700774
 20
261.077082
 30
0.0
 11
112.805629
 21
262.181936
 31
0.0
  0
LINE
  5
702
100
AcDbEntity
  8
0
 62
     0
100
AcDbLine
 10
113.0266
 20
262.402907
 30
0.0
 11
113.0266
 21
262.402907
 31
0.0
  0
LINE
  5
703
100
AcDbEntity
  8
0
 62
     0
100
AcDbLine
 10
113.24757
 20
262.623878
 30
0.0
 11
113.677615
 21
263.053922
 31
0.0
  0
LINE
  5
704
100
AcDbEntity
  8
0
 62
     0
100
AcDbLine
 10
111.369318
 20
259.861742
 30
0.0
 11
112.474172
 21
260.966596
 31
0.0
  0
LINE
  5
705
100
AcDbEntity
  8
0
 62
     0
100
AcDbLine
 10
112.695143
 20
261.187567
 30
0.0
 11
112.695143
 21
261.187567
 31
0.0
  0
LINE
  5
706
100
AcDbEntity
  8
0
 62
     0
100
AcDbLine
 10
112.916114
 20
261.408538
 30
0.0
 11
113.677615
 21
262.170039
 31
0.0
  0
LINE
  5
707
100
AcDbEntity
  8
0
 62
     0
100
AcDbLine
 10
111.555977
 20
259.164517
 30
0.0
 11
112.142716
 21
259.751257
 31
0.0
  0
LINE
  5
708
100
AcDbEntity
  8
0
 62
     0
100
AcDbLine
 10
112.363687
 20
259.972228
 30
0.0
 11
112.363687
 21
259.972228
 31
0.0
  0
LINE
  5
709
100
AcDbEntity
  8
0
 62
     0
100
AcDbLine
 10
112.584658
 20
260.193198
 30
0.0
 11
113.677615
 21
261.286155
 31
0.0
  0
LINE
  5
70A
100
AcDbEntity
  8
0
 62
     0
100
AcDbLine
 10
112.43986
 20
259.164517
 30
0.0
 11
113.358056
 21
260.082713
 31
0.0
  0
LINE
  5
70B
100
AcDbEntity
  8
0
 62
     0
100
AcDbLine
 10
113.579027
 20
260.303684
 30
0.0
 11
113.579027
 21
260.303684
 31
0.0
  0
LINE
  5
70C
100
AcDbEntity
  8
0
 62
     0
100
AcDbLine
 10
113.468541
 20
259.309315
 30
0.0
 11
113.677615
 21
259.518388
 31
0.0
  0
ENDBLK
  5
70E
100
AcDbEntity
  8
0
100
AcDbBlockEnd
  0
BLOCK
  5
711
100
AcDbEntity
  8
0
100
AcDbBlockBegin
  2
50_SP40052-INTUMEX
 70
     0
 10
0.0
 20
0.0
 30
0.0
  3
50_SP40052-INTUMEX
  1

  0
INSERT
  5
6D5
100
AcDbEntity
  8
GLAS_MED_FOGNING
100
AcDbBlockReference
  2
*X76
 10
-80.0
 20
-290.0
 30
0.0
1001
ACAD
1000
HATCH
1002
{
1070
    16
1000
ANSI36
1040
5.0
1040
0.0
1002
}
  0
LWPOLYLINE
  5
70F
100
AcDbEntity
  8
GLAS_MED_FOGNING
100
AcDbPolyline
 90
        4
 70
     1
 43
0.0
 10
31.177615
 20
-30.835483
 10
31.177615
 20
-18.835483
 10
33.677615
 20
-18.835483
 10
33.677615
 20
-30.835483
  0
INSERT
  5
710
100
AcDbEntity
  8
0
100
AcDbBlockReference
  2
50_SP40052
 10
0.0
 20
0.0
 30
0.0
  0
ENDBLK
  5
712
100
AcDbEntity
  8
0
100
AcDbBlockEnd
  0
BLOCK
  5
DF
100
AcDbEntity
  8
0
100
AcDbBlockBegin
  2
SP35012-85
 70
     0
 10
0.0
 20
0.0
 30
0.0
  3
SP35012-85
  1

  0
LWPOLYLINE
  5
DC
100
AcDbEntity
  8
STALPROFIL
100
AcDbPolyline
 90
       31
 70
     1
 43
1.5
 10
-8.0
 20
18.25
 42
-0.414214
 10
-5.75
 20
16.0
 10
-5.75
 20
13.5
 42
0.414214
 10
-3.5
 20
11.25
 10
-3.0
 20
11.25
 42
-0.414214
 10
-0.75
 20
9.0
 10
-0.75
 20
-57.5
 42
-0.414214
 10
-2.5
 20
-59.25
 10
-45.5
 20
-59.25
 42
0.414214
 10
-47.75
 20
-61.5
 10
-47.75
 20
-78.5
 42
-0.414214
 10
-48.5
 20
-79.25
 10
-48.501
 20
-79.25
 42
-0.414214
 10
-49.25
 20
-78.501
 10
-49.25
 20
43.501
 42
-0.414214
 10
-48.501
 20
44.25
 10
-48.5
 20
44.25
 42
-0.414214
 10
-47.75
 20
43.5
 10
-47.75
 20
26.5
 42
0.414214
 10
-45.5
 20
24.25
 10
-7.499
 20
24.25
 42
-0.414214
 10
-6.75
 20
23.501
 10
-6.75
 20
23.5
 42
-0.414214
 10
-7.5
 20
22.75
 10
-12.0
 20
22.75
 42
0.414214
 10
-14.25
 20
20.5
 10
-14.25
 20
18.5
 42
0.414214
 10
-12.0
 20
16.25
 42
0.198912
 10
-10.40901
 20
16.90901
 10
-9.727029
 20
17.59099
 42
-0.198912
 10
-8.136039
 20
18.25
  0
LWPOLYLINE
  5
DD
100
AcDbEntity
  8
SPKONTUR
100
AcDbPolyline
 90
       37
 70
     0
 43
0.0
 10
-7.99
 20
19.0
 10
-8.0
 20
19.0
 42
-0.414214
 10
-5.0
 20
16.0
 10
-5.0
 20
13.5
 42
0.414214
 10
-3.5
 20
12.0
 10
-3.0
 20
12.0
 42
-0.414214
 10
0.0
 20
9.0
 10
0.0
 20
-57.5
 42
-0.414214
 10
-2.5
 20
-60.0
 10
-25.0
 20
-60.0
 10
-45.5
 20
-60.0
 42
0.414214
 10
-47.0
 20
-61.5
 10
-47.0
 20
-78.5
 42
-0.414214
 10
-48.5
 20
-80.0
 10
-48.501
 20
-80.0
 42
-0.414214
 10
-50.0
 20
-78.501
 10
-50.0
 20
0.0
 10
-50.0
 20
43.501
 42
-0.414214
 10
-48.501
 20
45.0
 10
-48.5
 20
45.0
 42
-0.414214
 10
-47.0
 20
43.5
 10
-47.0
 20
26.5
 42
0.414214
 10
-45.5
 20
25.0
 10
-25.0
 20
25.0
 10
-13.5
 20
25.0
 10
-7.499
 20
25.0
 42
-0.414214
 10
-6.0
 20
23.501
 10
-6.0
 20
23.5
 42
-0.414214
 10
-7.5
 20
22.0
 10
-12.0
 20
22.0
 42
0.414214
 10
-13.5
 20
20.5
 10
-13.5
 20
18.5
 42
0.414214
 10
-12.0
 20
17.0
 42
0.198912
 10
-10.93934
 20
17.43934
 10
-10.257359
 20
18.12132
 42
-0.198912
 10
-8.136039
 20
19.0
 10
-8.0
 20
19.0
  0
INSERT
  5
DE
100
AcDbEntity
  8
GLAS_MED_FOGNING
100
AcDbBlockReference
  2
SP40035
 10
0.0
 20
0.0
 30
0.0
  0
ENDBLK
  5
E0
100
AcDbEntity
  8
0
100
AcDbBlockEnd
  0
BLOCK
  5
FC
100
AcDbEntity
  8
0
100
AcDbBlockBegin
  2
SP35013-85
 70
     0
 10
0.0
 20
0.0
 30
0.0
  3
SP35013-85
  1

  0
LWPOLYLINE
  5
F9
100
AcDbEntity
  8
STALPROFIL
100
AcDbPolyline
 90
       28
 70
     1
 43
1.5
 10
-7.499
 20
24.25
 42
-0.414214
 10
-6.75
 20
23.5
 42
-0.414214
 10
-7.5
 20
22.75
 10
-12.0
 20
22.75
 42
0.414214
 10
-14.25
 20
20.5
 10
-14.25
 20
18.5
 42
0.414214
 10
-12.0
 20
16.25
 42
0.198912
 10
-10.40901
 20
16.90901
 10
-9.727029
 20
17.59099
 42
-0.198912
 10
-8.136039
 20
18.25
 10
-8.0
 20
18.25
 42
-0.414214
 10
-5.75
 20
16.0
 10
-5.75
 20
13.5
 42
0.414214
 10
-3.5
 20
11.25
 10
-3.0
 20
11.25
 42
-0.414214
 10
-0.75
 20
9.0
 10
-0.75
 20
-78.501
 42
-0.414214
 10
-1.5
 20
-79.25
 42
-0.414214
 10
-2.25
 20
-78.5
 10
-2.25
 20
-61.5
 42
0.414214
 10
-4.5
 20
-59.25
 10
-47.5
 20
-59.25
 42
-0.414214
 10
-49.25
 20
-57.5
 10
-49.25
 20
43.501
 42
-0.414214
 10
-48.5
 20
44.25
 42
-0.414214
 10
-47.75
 20
43.5
 10
-47.75
 20
26.5
 42
0.414214
 10
-45.5
 20
24.25
  0
LWPOLYLINE
  5
FA
100
AcDbEntity
  8
SPKONTUR
100
AcDbPolyline
 90
       34
 70
     1
 43
0.0
 10
-7.499
 20
25.0
 42
-0.414214
 10
-6.0
 20
23.501
 10
-6.0
 20
23.5
 42
-0.414214
 10
-7.5
 20
22.0
 10
-12.0
 20
22.0
 42
0.414214
 10
-13.5
 20
20.5
 10
-13.5
 20
18.5
 42
0.414214
 10
-12.0
 20
17.0
 42
0.198912
 10
-10.93934
 20
17.43934
 10
-10.257359
 20
18.12132
 42
-0.198912
 10
-8.136039
 20
19.0
 10
-8.0
 20
19.0
 42
-0.414214
 10
-5.0
 20
16.0
 10
-5.0
 20
13.5
 42
0.414214
 10
-3.5
 20
12.0
 10
-3.0
 20
12.0
 42
-0.414214
 10
0.0
 20
9.0
 10
0.0
 20
0.0
 10
0.0
 20
-78.501
 42
-0.414214
 10
-1.499
 20
-80.0
 10
-1.5
 20
-80.0
 42
-0.414214
 10
-3.0
 20
-78.5
 10
-3.0
 20
-61.5
 42
0.414214
 10
-4.5
 20
-60.0
 10
-47.5
 20
-60.0
 42
-0.414214
 10
-50.0
 20
-57.5
 10
-50.0
 20
43.501
 42
-0.414214
 10
-48.501
 20
45.0
 10
-48.5
 20
45.0
 42
-0.414214
 10
-47.0
 20
43.5
 10
-47.0
 20
26.5
 42
0.414214
 10
-45.5
 20
25.0
 10
-25.0
 20
25.0
 10
-13.5
 20
25.0
  0
INSERT
  5
FB
100
AcDbEntity
  8
GLAS_MED_FOGNING
100
AcDbBlockReference
  2
SP40035
 10
0.0
 20
0.0
 30
0.0
  0
ENDBLK
  5
FD
100
AcDbEntity
  8
0
100
AcDbBlockEnd
  0
BLOCK
  5
11A
100
AcDbEntity
  8
0
100
AcDbBlockBegin
  2
*D80
 70
     1
 10
0.0
 20
0.0
 30
0.0
  3
*D80
  1

  0
LINE
  5
110
100
AcDbEntity
  8
0
  6
BYBLOCK
 62
     0
100
AcDbLine
 10
-557.388625
 20
255.898687
 30
0.0
 11
-545.743995
 21
255.898687
 31
0.0
  0
LINE
  5
111
100
AcDbEntity
  8
0
  6
BYBLOCK
 62
     0
100
AcDbLine
 10
-557.388625
 20
279.120888
 30
0.0
 11
-545.743995
 21
279.120888
 31
0.0
  0
LINE
  5
112
100
AcDbEntity
  8
0
  6
BYBLOCK
 62
     0
100
AcDbLine
 10
-547.743995
 20
255.898687
 30
0.0
 11
-547.743995
 21
279.120888
 31
0.0
  0
LINE
  5
113
100
AcDbEntity
  8
0
  6
BYBLOCK
 62
     0
100
AcDbLine
 10
-546.743995
 20
278.120888
 30
0.0
 11
-548.743995
 21
280.120888
 31
0.0
  0
LINE
  5
114
100
AcDbEntity
  8
0
  6
BYBLOCK
 62
     0
100
AcDbLine
 10
-546.743995
 20
254.898687
 30
0.0
 11
-548.743995
 21
256.898687
 31
0.0
  0
MTEXT
  5
115
100
AcDbEntity
  8
0
  6
BYBLOCK
 62
     6
100
AcDbMText
 10
-550.993995
 20
267.509788
 30
0.0
 40
3.5
 41
0.0
 71
     5
 72
     5
  1
\A1;46.5
 11
0.0
 21
1.0
 31
0.0
  0
POINT
  5
116
100
AcDbEntity
  8
DEFPOINTS
  6
BYBLOCK
 62
     0
100
AcDbPoint
 10
-558.388625
 20
255.898687
 30
0.0
  0
POINT
  5
118
100
AcDbEntity
  8
DEFPOINTS
  6
BYBLOCK
 62
     0
100
AcDbPoint
 10
-558.388625
 20
279.120888
 30
0.0
  0
POINT
  5
119
100
AcDbEntity
  8
DEFPOINTS
  6
BYBLOCK
 62
     0
100
AcDbPoint
 10
-547.743995
 20
279.120888
 30
0.0
  0
ENDBLK
  5
11B
100
AcDbEntity
  8
0
100
AcDbBlockEnd
  0
BLOCK
  5
1BA
100
AcDbEntity
  8
0
100
AcDbBlockBegin
  2
*D81
 70
     1
 10
0.0
 20
0.0
 30
0.0
  3
*D81
  1

  0
LINE
  5
1B1
100
AcDbEntity
  8
0
  6
BYBLOCK
 62
     0
100
AcDbLine
 10
-599.632476
 20
254.417792
 30
0.0
 11
-599.632476
 21
242.940865
 31
0.0
  0
LINE
  5
1B2
100
AcDbEntity
  8
0
  6
BYBLOCK
 62
     0
100
AcDbLine
 10
-558.989168
 20
254.417792
 30
0.0
 11
-558.989168
 21
242.940865
 31
0.0
  0
LINE
  5
1B3
100
AcDbEntity
  8
0
  6
BYBLOCK
 62
     0
100
AcDbLine
 10
-599.632476
 20
244.940865
 30
0.0
 11
-558.989168
 21
244.940865
 31
0.0
  0
LINE
  5
1B4
100
AcDbEntity
  8
0
  6
BYBLOCK
 62
     0
100
AcDbLine
 10
-559.989168
 20
243.940865
 30
0.0
 11
-557.989168
 21
245.940865
 31
0.0
  0
LINE
  5
1B5
100
AcDbEntity
  8
0
  6
BYBLOCK
 62
     0
100
AcDbLine
 10
-600.632476
 20
243.940865
 30
0.0
 11
-598.632476
 21
245.940865
 31
0.0
  0
MTEXT
  5
1B6
100
AcDbEntity
  8
0
  6
BYBLOCK
 62
     6
100
AcDbMText
 10
-579.310822
 20
248.190865
 30
0.0
 40
3.5
 41
0.0
 71
     5
 72
     5
  1
\A1;81.3
  0
POINT
  5
1B7
100
AcDbEntity
  8
DEFPOINTS
  6
BYBLOCK
 62
     0
100
AcDbPoint
 10
-599.632476
 20
255.417792
 30
0.0
  0
POINT
  5
1B8
100
AcDbEntity
  8
DEFPOINTS
  6
BYBLOCK
 62
     0
100
AcDbPoint
 10
-558.989168
 20
255.417792
 30
0.0
  0
POINT
  5
1B9
100
AcDbEntity
  8
DEFPOINTS
  6
BYBLOCK
 62
     0
100
AcDbPoint
 10
-558.989168
 20
244.940865
 30
0.0
  0
ENDBLK
  5
1BB
100
AcDbEntity
  8
0
100
AcDbBlockEnd
  0
BLOCK
  5
1CB
100
AcDbEntity
  8
0
100
AcDbBlockBegin
  2
*D82
 70
     1
 10
0.0
 20
0.0
 30
0.0
  3
*D82
  1

  0
LINE
  5
1C2
100
AcDbEntity
  8
0
  6
BYBLOCK
 62
     0
100
AcDbLine
 10
-601.016362
 20
272.397033
 30
0.0
 11
-616.696431
 21
272.397033
 31
0.0
  0
LINE
  5
1C3
100
AcDbEntity
  8
0
  6
BYBLOCK
 62
     0
100
AcDbLine
 10
-601.341357
 20
255.898687
 30
0.0
 11
-616.696431
 21
255.898687
 31
0.0
  0
LINE
  5
1C4
100
AcDbEntity
  8
0
  6
BYBLOCK
 62
     0
100
AcDbLine
 10
-614.696431
 20
272.397033
 30
0.0
 11
-614.696431
 21
255.898687
 31
0.0
  0
LINE
  5
1C5
100
AcDbEntity
  8
0
  6
BYBLOCK
 62
     0
100
AcDbLine
 10
-613.696431
 20
254.898687
 30
0.0
 11
-615.696431
 21
256.898687
 31
0.0
  0
LINE
  5
1C6
100
AcDbEntity
  8
0
  6
BYBLOCK
 62
     0
100
AcDbLine
 10
-613.696431
 20
271.397033
 30
0.0
 11
-615.696431
 21
273.397033
 31
0.0
  0
MTEXT
  5
1C7
100
AcDbEntity
  8
0
  6
BYBLOCK
 62
     6
100
AcDbMText
 10
-617.946431
 20
263.772481
 30
0.0
 40
3.5
 41
0.0
 71
     5
 72
     5
  1
\A1;{16.5}
 11
0.0
 21
1.0
 31
0.0
  0
POINT
  5
1C8
100
AcDbEntity
  8
DEFPOINTS
  6
BYBLOCK
 62
     0
100
AcDbPoint
 10
-600.016362
 20
272.397033
 30
0.0
  0
POINT
  5
1C9
100
AcDbEntity
  8
DEFPOINTS
  6
BYBLOCK
 62
     0
100
AcDbPoint
 10
-600.341357
 20
255.898687
 30
0.0
  0
POINT
  5
1CA
100
AcDbEntity
  8
DEFPOINTS
  6
BYBLOCK
 62
     0
100
AcDbPoint
 10
-614.696431
 20
255.898687
 30
0.0
  0
ENDBLK
  5
1CC
100
AcDbEntity
  8
0
100
AcDbBlockEnd
  0
BLOCK
  5
1DB
100
AcDbEntity
  8
0
100
AcDbBlockBegin
  2
*D83
 70
     1
 10
0.0
 20
0.0
 30
0.0
  3
*D83
  1

  0
LINE
  5
1D0
100
AcDbEntity
  8
0
  6
BYBLOCK
 62
     0
100
AcDbLine
 10
-599.632476
 20
273.397033
 30
0.0
 11
-599.632476
 21
279.444849
 31
0.0
  0
LINE
  5
1D1
100
AcDbEntity
  8
0
  6
BYBLOCK
 62
     0
100
AcDbLine
 10
-597.132476
 20
273.397033
 30
0.0
 11
-597.132476
 21
279.444849
 31
0.0
  0
LINE
  5
1D2
100
AcDbEntity
  8
0
  6
BYBLOCK
 62
     0
100
AcDbLine
 10
-599.632476
 20
277.444849
 30
0.0
 11
-601.632476
 21
277.444849
 31
0.0
  0
LINE
  5
1D3
100
AcDbEntity
  8
0
  6
BYBLOCK
 62
     0
100
AcDbLine
 10
-597.132476
 20
277.444849
 30
0.0
 11
-587.132476
 21
277.444849
 31
0.0
  0
LINE
  5
1D4
100
AcDbEntity
  8
0
  6
BYBLOCK
 62
     0
100
AcDbLine
 10
-599.632476
 20
277.444849
 30
0.0
 11
-597.132476
 21
277.444849
 31
0.0
  0
LINE
  5
1D5
100
AcDbEntity
  8
0
  6
BYBLOCK
 62
     0
100
AcDbLine
 10
-598.132476
 20
276.444849
 30
0.0
 11
-596.132476
 21
278.444849
 31
0.0
  0
LINE
  5
1D6
100
AcDbEntity
  8
0
  6
BYBLOCK
 62
     0
100
AcDbLine
 10
-600.632476
 20
276.444849
 30
0.0
 11
-598.632476
 21
278.444849
 31
0.0
  0
MTEXT
  5
1D7
100
AcDbEntity
  8
0
  6
BYBLOCK
 62
     6
100
AcDbMText
 10
-592.132476
 20
280.694849
 30
0.0
 40
3.5
 41
0.0
 71
     5
 72
     5
  1
\A1;2.5
  0
POINT
  5
1D8
100
AcDbEntity
  8
DEFPOINTS
  6
BYBLOCK
 62
     0
100
AcDbPoint
 10
-599.632476
 20
272.397033
 30
0.0
  0
POINT
  5
1D9
100
AcDbEntity
  8
DEFPOINTS
  6
BYBLOCK
 62
     0
100
AcDbPoint
 10
-597.132476
 20
272.397033
 30
0.0
  0
POINT
  5
1DA
100
AcDbEntity
  8
DEFPOINTS
  6
BYBLOCK
 62
     0
100
AcDbPoint
 10
-597.132476
 20
277.444849
 30
0.0
  0
ENDBLK
  5
1DC
100
AcDbEntity
  8
0
100
AcDbBlockEnd
  0
BLOCK
  5
722
100
AcDbEntity
  8
0
100
AcDbBlockBegin
  2
*D84
 70
     1
 10
0.0
 20
0.0
 30
0.0
  3
*D84
  1

  0
LINE
  5
719
100
AcDbEntity
  8
0
  6
BYBLOCK
 62
     0
100
AcDbLine
 10
353.5
 20
370.0
 30
0.0
 11
372.0
 21
370.0
 31
0.0
  0
LINE
  5
71A
100
AcDbEntity
  8
0
  6
BYBLOCK
 62
     0
100
AcDbLine
 10
356.0
 20
345.0
 30
0.0
 11
372.0
 21
345.0
 31
0.0
  0
LINE
  5
71B
100
AcDbEntity
  8
0
  6
BYBLOCK
 62
     0
100
AcDbLine
 10
370.0
 20
370.0
 30
0.0
 11
370.0
 21
345.0
 31
0.0
  0
LINE
  5
71C
100
AcDbEntity
  8
0
  6
BYBLOCK
 62
     0
100
AcDbLine
 10
371.0
 20
344.0
 30
0.0
 11
369.0
 21
346.0
 31
0.0
  0
LINE
  5
71D
100
AcDbEntity
  8
0
  6
BYBLOCK
 62
     0
100
AcDbLine
 10
371.0
 20
369.0
 30
0.0
 11
369.0
 21
371.0
 31
0.0
  0
MTEXT
  5
71E
100
AcDbEntity
  8
0
  6
BYBLOCK
 62
     6
100
AcDbMText
 10
366.75
 20
357.5
 30
0.0
 40
3.5
 41
0.0
 71
     5
 72
     5
  1
\A1;25
 11
0.0
 21
1.0
 31
0.0
  0
POINT
  5
71F
100
AcDbEntity
  8
DEFPOINTS
  6
BYBLOCK
 62
     0
100
AcDbPoint
 10
352.5
 20
370.0
 30
0.0
  0
POINT
  5
720
100
AcDbEntity
  8
DEFPOINTS
  6
BYBLOCK
 62
     0
100
AcDbPoint
 10
355.0
 20
345.0
 30
0.0
  0
POINT
  5
721
100
AcDbEntity
  8
DEFPOINTS
  6
BYBLOCK
 62
     0
100
AcDbPoint
 10
370.0
 20
345.0
 30
0.0
  0
ENDBLK
  5
723
100
AcDbEntity
  8
0
100
AcDbBlockEnd
  0
BLOCK
  5
735
100
AcDbEntity
  8
0
100
AcDbBlockBegin
  2
*D85
 70
     1
 10
0.0
 20
0.0
 30
0.0
  3
*D85
  1

  0
LINE
  5
72C
100
AcDbEntity
  8
0
  6
BYBLOCK
 62
     0
100
AcDbLine
 10
356.0
 20
405.0
 30
0.0
 11
372.0
 21
405.0
 31
0.0
  0
LINE
  5
72D
100
AcDbEntity
  8
0
  6
BYBLOCK
 62
     0
100
AcDbLine
 10
356.0
 20
380.0
 30
0.0
 11
372.0
 21
380.0
 31
0.0
  0
LINE
  5
72E
100
AcDbEntity
  8
0
  6
BYBLOCK
 62
     0
100
AcDbLine
 10
370.0
 20
405.0
 30
0.0
 11
370.0
 21
380.0
 31
0.0
  0
LINE
  5
72F
100
AcDbEntity
  8
0
  6
BYBLOCK
 62
     0
100
AcDbLine
 10
371.0
 20
379.0
 30
0.0
 11
369.0
 21
381.0
 31
0.0
  0
LINE
  5
730
100
AcDbEntity
  8
0
  6
BYBLOCK
 62
     0
100
AcDbLine
 10
371.0
 20
404.0
 30
0.0
 11
369.0
 21
406.0
 31
0.0
  0
MTEXT
  5
731
100
AcDbEntity
  8
0
  6
BYBLOCK
 62
     6
100
AcDbMText
 10
366.75
 20
392.5
 30
0.0
 40
3.5
 41
0.0
 71
     5
 72
     5
  1
\A1;25
 11
0.0
 21
1.0
 31
0.0
  0
POINT
  5
732
100
AcDbEntity
  8
DEFPOINTS
  6
BYBLOCK
 62
     0
100
AcDbPoint
 10
355.0
 20
405.0
 30
0.0
  0
POINT
  5
733
100
AcDbEntity
  8
DEFPOINTS
  6
BYBLOCK
 62
     0
100
AcDbPoint
 10
355.0
 20
380.0
 30
0.0
  0
POINT
  5
734
100
AcDbEntity
  8
DEFPOINTS
  6
BYBLOCK
 62
     0
100
AcDbPoint
 10
370.0
 20
380.0
 30
0.0
  0
ENDBLK
  5
736
100
AcDbEntity
  8
0
100
AcDbBlockEnd
  0
ENDSEC
  0
SECTION
  2
ENTITIES
  0
TEXT
  5
1E
100
AcDbEntity
  8
TEXT
100
AcDbText
 10
855.714495
 20
537.249452
 30
0.0
 40
15.0
  1
Glass and beads in block form
 41
0.8
  7
ROMANS
 72
     1
 11
1003.42878
 21
537.249452
 31
0.0
100
AcDbText
  0
TEXT
  5
21
100
AcDbEntity
  8
TEXT
100
AcDbText
 10
30.239792
 20
607.781516
 30
0.0
 40
15.0
  1
At theh most sides are the details put together in blocks with insertpoints, at some sides as free parts.
 41
0.8
  7
ROMANS
 72
     1
 11
535.38265
 21
607.781516
 31
0.0
100
AcDbText
  0
TEXT
  5
22
100
AcDbEntity
  8
TEXT
100
AcDbText
 10
28.85349
 20
652.781516
 30
0.0
 40
15.0
  1
The most sides with profiles, glassbeads and accessories are following the page number of the catalouge 
 41
0.8
  7
ROMANS
 72
     1
 11
542.85349
 21
652.781516
 31
0.0
100
AcDbText
  0
TEXT
  5
23
100
AcDbEntity
  8
TEXT
100
AcDbText
 10
932.252381
 20
100.0
 30
0.0
 40
5.0
  1
%%UEXPLODE
 41
0.8
  7
ROMANS
 72
     1
 11
945.0
 21
100.0
 31
0.0
100
AcDbText
  0
INSERT
  5
24
100
AcDbEntity
  8
0
100
AcDbBlockReference
  2
SIDA
 10
1205.0
 20
-35.0
 30
0.0
  0
LINE
  5
37
100
AcDbEntity
  8
TEXT
100
AcDbLine
 10
873.524816
 20
291.414005
 30
0.0
 11
878.553766
 21
272.001193
 31
0.0
  0
INSERT
  5
38
100
AcDbEntity
  8
0
100
AcDbBlockReference
  2
50_SP42020DK
 10
910.0
 20
265.0
 30
0.0
  0
INSERT
  5
BA
100
AcDbEntity
  8
0
100
AcDbBlockReference
  2
SP35022
 10
205.0
 20
330.0
 30
0.0
  0
INSERT
  5
C0
100
AcDbEntity
  8
0
100
AcDbBlockReference
  2
SP35012
 10
85.0
 20
330.0
 30
0.0
  0
INSERT
  5
D9
100
AcDbEntity
  8
0
100
AcDbBlockReference
  2
SIDA
 10
380.0
 20
-35.0
 30
0.0
  0
INSERT
  5
DA
100
AcDbEntity
  8
0
100
AcDbBlockReference
  2
SP35012-85
 10
325.0
 20
345.0
 30
0.0
  0
LWPOLYLINE
  5
E1
100
AcDbEntity
  8
STALPROFIL
100
AcDbPolyline
 90
       12
 70
     0
 43
1.25
 10
727.97454
 20
289.838243
 10
727.127394
 20
286.676553
 42
0.395246
 10
728.25
 20
285.625
 42
0.414213
 10
729.375
 20
286.749998
 10
729.375
 20
303.0
 42
0.414214
 10
728.0
 20
304.375
 10
717.0
 20
304.375
 42
0.414214
 10
715.625
 20
303.0
 10
715.625
 20
286.749999
 42
0.414213
 10
716.750036
 20
285.625
 42
0.395246
 10
717.872606
 20
286.676553
 10
717.02546
 20
289.838243
  0
LWPOLYLINE
  5
E2
100
AcDbEntity
  8
SPKONTUR
100
AcDbPolyline
 90
       13
 70
     0
 43
0.0
 10
727.370835
 20
290.0
 10
726.5
 20
286.7499
 42
0.41423
 10
728.25
 20
285.0
 42
0.414213
 10
730.0
 20
286.749998
 10
730.0
 20
303.0
 42
0.414214
 10
728.0
 20
305.0
 10
722.5
 20
305.0
 10
717.0
 20
305.0
 42
0.414214
 10
715.0
 20
303.0
 10
715.0
 20
286.749998
 42
0.414213
 10
716.75
 20
285.0
 42
0.41423
 10
718.5
 20
286.7499
 10
717.629165
 20
290.0
  0
LWPOLYLINE
  5
E3
100
AcDbEntity
  8
SPKONTUR
100
AcDbPolyline
 90
       14
 70
     0
 43
0.0
 10
607.370835
 20
290.000002
 10
606.5
 20
286.749902
 42
0.41423
 10
608.25
 20
285.000002
 42
0.414213
 10
610.0
 20
286.75
 10
610.0
 20
303.000002
 42
0.414214
 10
608.0
 20
305.000002
 10
602.5
 20
305.000002
 10
592.0
 20
305.000002
 42
0.414214
 10
590.0
 20
303.000002
 10
590.0
 20
287.000002
 42
0.414214
 10
592.0
 20
285.000002
 10
596.5
 20
285.000002
 42
0.414214
 10
598.5
 20
287.000002
 10
597.696152
 20
290.000002
  0
LWPOLYLINE
  5
E4
100
AcDbEntity
  8
STALPROFIL
100
AcDbPolyline
 90
       13
 70
     0
 43
1.25
 10
607.97454
 20
289.838245
 10
607.127394
 20
286.676555
 42
0.395246
 10
608.25
 20
285.625002
 42
0.414213
 10
609.375
 20
286.75
 10
609.375
 20
303.000002
 42
0.414214
 10
608.0
 20
304.375002
 10
592.0
 20
304.375002
 42
0.414214
 10
590.625
 20
303.000002
 10
590.625
 20
287.000002
 42
0.414214
 10
592.0
 20
285.625002
 10
596.5
 20
285.625002
 42
0.398381
 10
597.872969
 20
286.925298
 10
597.092449
 20
289.83824
  0
LWPOLYLINE
  5
E5
100
AcDbEntity
  8
STALPROFIL
100
AcDbPolyline
 90
       13
 70
     0
 43
1.25
 10
492.97454
 20
289.838245
 10
492.127394
 20
286.676555
 42
0.395246
 10
493.25
 20
285.625002
 42
0.414213
 10
494.375
 20
286.75
 10
494.375
 20
303.000002
 42
0.414214
 10
493.0
 20
304.375002
 10
472.0
 20
304.375002
 42
0.414214
 10
470.625
 20
303.000002
 10
470.625
 20
287.000002
 42
0.414214
 10
472.0
 20
285.625002
 10
481.5
 20
285.625002
 42
0.398381
 10
482.872969
 20
286.925298
 10
482.092449
 20
289.83824
  0
LWPOLYLINE
  5
E6
100
AcDbEntity
  8
SPKONTUR
100
AcDbPolyline
 90
       14
 70
     0
 43
0.0
 10
492.370835
 20
290.000002
 10
491.5
 20
286.749902
 42
0.41423
 10
493.25
 20
285.000002
 42
0.414213
 10
495.0
 20
286.75
 10
495.0
 20
303.000002
 42
0.414214
 10
493.0
 20
305.000002
 10
487.5
 20
305.000002
 10
472.0
 20
305.000002
 42
0.414214
 10
470.0
 20
303.000002
 10
470.0
 20
287.000002
 42
0.414214
 10
472.0
 20
285.000002
 10
481.5
 20
285.000002
 42
0.414214
 10
483.5
 20
287.000002
 10
482.696152
 20
290.000002
  0
LWPOLYLINE
  5
E7
100
AcDbEntity
  8
RAM
 62
     5
100
AcDbPolyline
 90
        4
 70
     1
 43
0.0
 10
775.0
 20
0.0
 10
775.0
 20
525.0
 10
415.0
 20
525.0
 10
415.0
 20
0.0
  0
TEXT
  5
E8
100
AcDbEntity
  8
TEXT
100
AcDbText
 10
45.157143
 20
198.0
 30
0.0
 40
5.0
  1
%%USP 35013
 41
0.8
  7
ROMANS
 72
     1
 11
60.0
 21
198.0
 31
0.0
100
AcDbText
  0
INSERT
  5
E9
100
AcDbEntity
  8
0
100
AcDbBlockReference
  2
SP35013
 10
85.0
 20
200.0
 30
0.0
  0
TEXT
  5
F0
100
AcDbEntity
  8
TEXT
100
AcDbText
 10
39.442857
 20
68.0
 30
0.0
 40
5.0
  1
%%USP 01502020
 41
0.8
  7
ROMANS
 72
     1
 11
60.0
 21
68.0
 31
0.0
100
AcDbText
  0
INSERT
  5
F1
100
AcDbEntity
  8
0
100
AcDbBlockReference
  2
SP01502020
 10
85.0
 20
70.0
 30
0.0
  0
INSERT
  5
F7
100
AcDbEntity
  8
GLAS_MED_FOGNING
100
AcDbBlockReference
  2
SP35013-85
 10
325.0
 20
200.0
 30
0.0
  0
INSERT
  5
FE
100
AcDbEntity
  8
0
100
AcDbBlockReference
  2
SP35023
 10
205.0
 20
200.0
 30
0.0
  0
INSERT
  5
104
100
AcDbEntity
  8
0
100
AcDbBlockReference
  2
SP02502020
 10
205.0
 20
70.0
 30
0.0
  0
TEXT
  5
10A
100
AcDbEntity
  8
TEXT
100
AcDbText
 10
159.442857
 20
68.0
 30
0.0
 40
5.0
  1
%%USP 02502020
 41
0.8
  7
ROMANS
 72
     1
 11
180.0
 21
68.0
 31
0.0
100
AcDbText
  0
TEXT
  5
10B
100
AcDbEntity
  8
TEXT
100
AcDbText
 10
165.157143
 20
198.0
 30
0.0
 40
5.0
  1
%%USP 35023
 41
0.8
  7
ROMANS
 72
     1
 11
180.0
 21
198.0
 31
0.0
100
AcDbText
  0
TEXT
  5
10C
100
AcDbEntity
  8
TEXT
100
AcDbText
 10
279.252381
 20
183.0
 30
0.0
 40
5.0
  1
%%USP 35013/85
 41
0.8
  7
ROMANS
 72
     1
 11
300.0
 21
183.0
 31
0.0
100
AcDbText
  0
TEXT
  5
10D
100
AcDbEntity
  8
TEXT
100
AcDbText
 10
431.766702
 20
111.714734
 30
0.0
 40
5.0
  1
Burglary protected profile
 41
0.8
  7
ROMANS
 72
     1
 11
471.38575
 21
111.714734
 31
0.0
100
AcDbText
  0
DIMENSION
  5
10E
100
AcDbEntity
  8
GLAS_MED_FOGNING
100
AcDbDimension
  2
*D80
 10
502.256005
 20
154.120888
 30
0.0
 11
499.006005
 21
142.509788
 31
0.0
 12
1050.0
 22
-125.0
 32
0.0
  1
46.5
  3
STANDARD
100
AcDbAlignedDimension
 13
491.611375
 23
130.898687
 33
0.0
 14
491.611375
 24
154.120888
 34
0.0
 50
90.0
100
AcDbRotatedDimension
1001
ACAD
1000
DSTYLE
1002
{
1070
    78
1070
     8
1070
   140
1040
3.5
1070
   142
1040
1.0
1070
    74
1070
     0
1070
   172
1070
     1
1070
    73
1070
     0
1070
    77
1070
     1
1070
   147
1040
1.5
1070
    42
1040
1.0
1070
    44
1040
2.0
1070
    43
1040
10.0
1070
   178
1070
     6
1070
   141
1040
2.5
1070
    41
1040
0.0
1002
}
  0
TEXT
  5
11C
100
AcDbEntity
  8
TEXT
100
AcDbText
 10
436.176226
 20
98.0
 30
0.0
 40
5.0
  1
%%USP 30002, L=2300mm
 41
0.8
  7
ROMANS
 72
     1
 11
471.38575
 21
98.0
 31
0.0
100
AcDbText
  0
LINE
  5
11D
100
AcDbEntity
  8
16
100
AcDbLine
 10
476.902859
 20
61.29647
 30
0.0
 11
476.916954
 21
62.36141
 31
0.0
  0
LINE
  5
11F
100
AcDbEntity
  8
STALPROFIL
100
AcDbLine
 10
473.542689
 20
61.671786
 30
0.0
 11
473.542689
 21
60.928986
 31
0.0
  0
LINE
  5
120
100
AcDbEntity
  8
GLAS_MED_FOGNING
  6
DASHDOT
100
AcDbLine
 10
475.203476
 20
80.459695
 30
0.0
 11
475.203476
 21
53.222557
 31
0.0
  0
TEXT
  5
121
100
AcDbEntity
  8
TEXT
100
AcDbText
 10
454.571429
 20
36.101132
 30
0.0
 40
5.0
  1
SP 40020
 41
0.8
  7
ROMANS
 72
     1
 11
470.0
 21
36.101132
 31
0.0
100
AcDbText
  0
TEXT
  5
122
100
AcDbEntity
  8
TEXT
100
AcDbText
 10
446.095238
 20
43.0
 30
0.0
 40
5.0
  1
Screw for bead
 41
0.8
  7
ROMANS
 72
     1
 11
470.0
 21
43.0
 31
0.0
100
AcDbText
  0
LINE
  5
123
100
AcDbEntity
  8
STALPROFIL
100
AcDbLine
 10
477.702406
 20
60.918225
 30
0.0
 11
477.70109
 21
60.704058
 31
0.0
  0
LINE
  5
124
100
AcDbEntity
  8
STALPROFIL
100
AcDbLine
 10
476.998522
 20
60.454388
 30
0.0
 11
476.998522
 21
56.922625
 31
0.0
  0
ARC
  5
125
100
AcDbEntity
  8
STALPROFIL
100
AcDbCircle
 10
473.862405
 20
60.726263
 30
0.0
 40
0.378569
100
AcDbArc
 50
147.622388
 51
192.415695
  0
LINE
  5
126
100
AcDbEntity
  8
STALPROFIL
100
AcDbLine
 10
475.68511
 20
60.121802
 30
0.0
 11
475.498809
 21
60.986058
 31
0.0
  0
LINE
  5
127
100
AcDbEntity
  8
STALPROFIL
100
AcDbLine
 10
475.498809
 20
60.986058
 30
0.0
 11
475.781577
 21
60.647392
 31
0.0
  0
LINE
  5
128
100
AcDbEntity
  8
16
100
AcDbLine
 10
476.948522
 20
60.414464
 30
0.0
 11
475.70539
 21
60.159969
 31
0.0
  0
ARC
  5
129
100
AcDbEntity
  8
16
100
AcDbCircle
 10
479.316731
 20
49.266
 30
0.0
 40
8.219413
100
AcDbArc
 50
108.813919
 51
122.136879
  0
ARC
  5
12A
100
AcDbEntity
  8
16
100
AcDbCircle
 10
474.558137
 20
59.243624
 30
0.0
 40
1.173821
100
AcDbArc
 50
23.407914
 51
154.989214
  0
LINE
  5
12B
100
AcDbEntity
  8
STALPROFIL
100
AcDbLine
 10
475.742909
 20
60.436712
 30
0.0
 11
475.68511
 21
60.121802
 31
0.0
  0
LINE
  5
12C
100
AcDbEntity
  8
STALPROFIL
100
AcDbLine
 10
475.781577
 20
60.647392
 30
0.0
 11
475.742909
 21
60.436712
 31
0.0
  0
LINE
  5
12D
100
AcDbEntity
  8
STALPROFIL
100
AcDbLine
 10
473.492689
 20
60.64487
 30
0.0
 11
473.492689
 21
57.050699
 31
0.0
  0
LINE
  5
12E
100
AcDbEntity
  8
16
100
AcDbLine
 10
475.625929
 20
59.727039
 30
0.0
 11
474.944466
 21
56.226033
 31
0.0
  0
LINE
  5
12F
100
AcDbEntity
  8
16
100
AcDbLine
 10
476.902859
 20
61.29647
 30
0.0
 11
475.519088
 21
61.024224
 31
0.0
  0
LINE
  5
130
100
AcDbEntity
  8
16
100
AcDbLine
 10
473.492423
 20
57.050879
 30
0.0
 11
475.100269
 21
55.802429
 31
0.0
  0
LINE
  5
131
100
AcDbEntity
  8
16
100
AcDbLine
 10
477.672491
 20
60.703505
 30
0.0
 11
475.763188
 21
60.474878
 31
0.0
  0
LINE
  5
132
100
AcDbEntity
  8
16
100
AcDbLine
 10
477.676641
 20
60.917637
 30
0.0
 11
475.801857
 21
60.685558
 31
0.0
  0
LINE
  5
133
100
AcDbEntity
  8
16
100
AcDbLine
 10
477.672491
 20
60.703505
 30
0.0
 11
476.948522
 21
60.414464
 31
0.0
  0
LINE
  5
134
100
AcDbEntity
  8
16
100
AcDbLine
 10
476.902859
 20
61.29647
 30
0.0
 11
477.676641
 21
60.917637
 31
0.0
  0
ARC
  5
135
100
AcDbEntity
  8
16
100
AcDbCircle
 10
476.771787
 20
56.821788
 30
0.0
 40
0.248146
100
AcDbArc
 50
23.976475
 51
115.232056
  0
ARC
  5
136
100
AcDbEntity
  8
STALPROFIL
100
AcDbCircle
 10
471.904589
 20
63.386197
 30
0.0
 40
8.229575
100
AcDbArc
 50
292.849785
 51
308.241596
  0
ARC
  5
137
100
AcDbEntity
  8
STALPROFIL
100
AcDbCircle
 10
478.795012
 20
77.576196
 30
0.0
 40
1.0
100
AcDbArc
 50
344.999992
 51
60.716164
  0
LWPOLYLINE
  5
138
100
AcDbEntity
  8
STALPROFIL
100
AcDbPolyline
 90
        6
 70
     0
 43
0.0
 10
479.284148
 20
78.448404
 42
0.142254
 10
471.122804
 20
78.448404
 42
0.342943
 10
470.646015
 20
77.317377
 10
471.193891
 20
76.036043
 10
471.193891
 20
74.031962
 10
473.144961
 20
74.031962
  0
LINE
  5
139
100
AcDbEntity
  8
STALPROFIL
100
AcDbLine
 10
477.617562
 20
66.764981
 30
0.0
 11
477.613412
 21
66.55085
 31
0.0
  0
LINE
  5
13A
100
AcDbEntity
  8
STALPROFIL
100
AcDbLine
 10
479.205979
 20
76.036043
 30
0.0
 11
479.205979
 21
74.031962
 31
0.0
  0
POINT
  5
13B
100
AcDbEntity
  8
DEFPOINTS
  6
BYBLOCK
 62
     0
100
AcDbPoint
 10
479.205979
 20
74.031962
 30
0.0
  0
POINT
  5
13C
100
AcDbEntity
  8
DEFPOINTS
  6
BYBLOCK
 62
     0
100
AcDbPoint
 10
479.205979
 20
74.031962
 30
0.0
  0
POINT
  5
13D
100
AcDbEntity
  8
DEFPOINTS
  6
BYBLOCK
 62
     0
100
AcDbPoint
 10
479.205979
 20
74.031962
 30
0.0
  0
ARC
  5
13E
100
AcDbEntity
  8
DIMENSION
100
AcDbCircle
 10
477.405143
 20
74.2184
 30
0.0
 40
0.15
100
AcDbArc
 50
30.097599
 51
180.0
  0
LINE
  5
140
100
AcDbEntity
  8
STALPROFIL
100
AcDbLine
 10
477.534919
 20
74.293621
 30
0.0
 11
477.810054
 21
74.031804
 31
0.0
  0
POINT
  5
141
100
AcDbEntity
  8
DEFPOINTS
  6
BYBLOCK
 62
     0
100
AcDbPoint
 10
478.345355
 20
74.031962
 30
0.0
  0
LINE
  5
142
100
AcDbEntity
  8
STALPROFIL
100
AcDbLine
 10
477.255143
 20
74.2184
 30
0.0
 11
477.254596
 21
73.782032
 31
0.0
  0
POINT
  5
143
100
AcDbEntity
  8
DEFPOINTS
  6
BYBLOCK
 62
     0
100
AcDbPoint
 10
479.205979
 20
76.036043
 30
0.0
  0
POINT
  5
144
100
AcDbEntity
  8
DEFPOINTS
  6
BYBLOCK
 62
     0
100
AcDbPoint
 10
479.205979
 20
76.036043
 30
0.0
  0
LINE
  5
145
100
AcDbEntity
  8
STALPROFIL
100
AcDbLine
 10
479.760937
 20
77.317377
 30
0.0
 11
479.205979
 21
76.036043
 31
0.0
  0
LINE
  5
146
100
AcDbEntity
  8
STALPROFIL
100
AcDbLine
 10
477.608036
 20
72.633371
 30
0.0
 11
477.603886
 21
72.419239
 31
0.0
  0
LINE
  5
147
100
AcDbEntity
  8
STALPROFIL
100
AcDbLine
 10
477.625674
 20
70.671887
 30
0.0
 11
477.621524
 21
70.457755
 31
0.0
  0
LINE
  5
148
100
AcDbEntity
  8
STALPROFIL
100
AcDbLine
 10
477.621618
 20
68.718434
 30
0.0
 11
477.617468
 21
68.504303
 31
0.0
  0
POINT
  5
149
100
AcDbEntity
  8
DEFPOINTS
  6
BYBLOCK
 62
     0
100
AcDbPoint
 10
477.608036
 20
72.633371
 30
0.0
  0
LINE
  5
14A
100
AcDbEntity
  8
STALPROFIL
100
AcDbLine
 10
477.613506
 20
64.811528
 30
0.0
 11
477.609356
 21
64.597397
 31
0.0
  0
LINE
  5
14B
100
AcDbEntity
  8
STALPROFIL
100
AcDbLine
 10
477.645074
 20
62.864582
 30
0.0
 11
477.643758
 21
62.650415
 31
0.0
  0
LINE
  5
14C
100
AcDbEntity
  8
16
100
AcDbLine
 10
476.84378
 20
67.143814
 30
0.0
 11
474.762304
 21
66.734301
 31
0.0
  0
LINE
  5
14D
100
AcDbEntity
  8
STALPROFIL
100
AcDbLine
 10
473.505652
 20
67.530478
 30
0.0
 11
473.505652
 21
66.450117
 31
0.0
  0
LINE
  5
14E
100
AcDbEntity
  8
16
100
AcDbLine
 10
476.889443
 20
66.261808
 30
0.0
 11
474.803037
 21
65.834677
 31
0.0
  0
LINE
  5
14F
100
AcDbEntity
  8
16
100
AcDbLine
 10
472.765555
 20
66.090094
 30
0.0
 11
474.56952
 21
66.387365
 31
0.0
  0
LINE
  5
150
100
AcDbEntity
  8
16
100
AcDbLine
 10
472.765555
 20
66.090094
 30
0.0
 11
473.508875
 21
66.468104
 31
0.0
  0
LINE
  5
151
100
AcDbEntity
  8
16
100
AcDbLine
 10
472.761882
 20
65.840988
 30
0.0
 11
474.610326
 21
66.191572
 31
0.0
  0
LINE
  5
152
100
AcDbEntity
  8
STALPROFIL
100
AcDbLine
 10
472.765555
 20
66.090094
 30
0.0
 11
472.761882
 21
65.840988
 31
0.0
  0
LINE
  5
153
100
AcDbEntity
  8
16
100
AcDbLine
 10
473.508875
 20
66.468104
 30
0.0
 11
474.764029
 21
66.734647
 31
0.0
  0
LINE
  5
154
100
AcDbEntity
  8
16
100
AcDbLine
 10
473.505652
 20
73.65896
 30
0.0
 11
473.145274
 21
73.782032
 31
0.0
  0
LWPOLYLINE
  5
155
100
AcDbEntity
  8
STALPROFIL
100
AcDbPolyline
 90
        4
 70
     0
 43
0.0
 10
472.589816
 20
74.031804
 10
472.864951
 20
74.293621
 42
-0.766651
 10
473.144727
 20
74.2184
 10
473.145274
 20
73.782032
  0
LINE
  5
156
100
AcDbEntity
  8
16
100
AcDbLine
 10
473.499348
 20
72.336494
 30
0.0
 11
474.754503
 21
72.603036
 31
0.0
  0
LINE
  5
157
100
AcDbEntity
  8
16
100
AcDbLine
 10
476.879917
 20
72.130198
 30
0.0
 11
474.79351
 21
71.703067
 31
0.0
  0
LINE
  5
158
100
AcDbEntity
  8
16
100
AcDbLine
 10
476.851892
 20
71.05072
 30
0.0
 11
474.770416
 21
70.641207
 31
0.0
  0
LINE
  5
159
100
AcDbEntity
  8
16
100
AcDbLine
 10
476.897555
 20
70.168714
 30
0.0
 11
474.811148
 21
69.741583
 31
0.0
  0
LINE
  5
15A
100
AcDbEntity
  8
16
100
AcDbLine
 10
476.847836
 20
69.097267
 30
0.0
 11
474.76636
 21
68.687754
 31
0.0
  0
LINE
  5
15B
100
AcDbEntity
  8
16
100
AcDbLine
 10
476.893499
 20
68.215261
 30
0.0
 11
474.807093
 21
67.78813
 31
0.0
  0
LINE
  5
15C
100
AcDbEntity
  8
16
100
AcDbLine
 10
472.756028
 20
71.958484
 30
0.0
 11
474.559994
 21
72.255754
 31
0.0
  0
LINE
  5
15D
100
AcDbEntity
  8
16
100
AcDbLine
 10
472.756028
 20
71.958484
 30
0.0
 11
473.499348
 21
72.336494
 31
0.0
  0
LINE
  5
15E
100
AcDbEntity
  8
16
100
AcDbLine
 10
472.7513
 20
71.709392
 30
0.0
 11
474.6008
 21
72.059961
 31
0.0
  0
LINE
  5
15F
100
AcDbEntity
  8
16
100
AcDbLine
 10
472.773666
 20
69.997
 30
0.0
 11
474.577632
 21
70.29427
 31
0.0
  0
LINE
  5
160
100
AcDbEntity
  8
16
100
AcDbLine
 10
472.768938
 20
69.747908
 30
0.0
 11
474.618438
 21
70.098477
 31
0.0
  0
LINE
  5
161
100
AcDbEntity
  8
16
100
AcDbLine
 10
473.505652
 20
71.440574
 30
0.0
 11
472.7513
 21
71.709392
 31
0.0
  0
LINE
  5
162
100
AcDbEntity
  8
16
100
AcDbLine
 10
473.52329
 20
69.479091
 30
0.0
 11
472.768938
 21
69.747908
 31
0.0
  0
LINE
  5
163
100
AcDbEntity
  8
16
100
AcDbLine
 10
472.773666
 20
69.997
 30
0.0
 11
473.516986
 21
70.37501
 31
0.0
  0
LINE
  5
164
100
AcDbEntity
  8
STALPROFIL
100
AcDbLine
 10
472.756028
 20
71.958484
 30
0.0
 11
472.7513
 21
71.709392
 31
0.0
  0
LINE
  5
165
100
AcDbEntity
  8
STALPROFIL
100
AcDbLine
 10
472.773666
 20
69.997
 30
0.0
 11
472.768938
 21
69.747908
 31
0.0
  0
LINE
  5
166
100
AcDbEntity
  8
16
100
AcDbLine
 10
474.79351
 20
71.703067
 30
0.0
 11
473.505652
 21
71.440574
 31
0.0
  0
LINE
  5
167
100
AcDbEntity
  8
16
100
AcDbLine
 10
473.516986
 20
70.37501
 30
0.0
 11
474.772141
 21
70.641552
 31
0.0
  0
LINE
  5
168
100
AcDbEntity
  8
16
100
AcDbLine
 10
474.811148
 20
69.741583
 30
0.0
 11
473.52329
 21
69.479091
 31
0.0
  0
LINE
  5
169
100
AcDbEntity
  8
STALPROFIL
100
AcDbLine
 10
473.505652
 20
71.440574
 30
0.0
 11
473.505652
 21
70.369246
 31
0.0
  0
LINE
  5
16A
100
AcDbEntity
  8
16
100
AcDbLine
 10
472.764882
 20
67.794455
 30
0.0
 11
474.614382
 21
68.145025
 31
0.0
  0
LINE
  5
16B
100
AcDbEntity
  8
16
100
AcDbLine
 10
472.76961
 20
68.043547
 30
0.0
 11
474.573576
 21
68.340818
 31
0.0
  0
LINE
  5
16C
100
AcDbEntity
  8
16
100
AcDbLine
 10
472.76961
 20
68.043547
 30
0.0
 11
473.512931
 21
68.421557
 31
0.0
  0
LINE
  5
16D
100
AcDbEntity
  8
STALPROFIL
100
AcDbLine
 10
472.76961
 20
68.043547
 30
0.0
 11
472.764882
 21
67.794455
 31
0.0
  0
LINE
  5
16E
100
AcDbEntity
  8
16
100
AcDbLine
 10
473.512931
 20
68.421557
 30
0.0
 11
474.768085
 21
68.6881
 31
0.0
  0
LINE
  5
16F
100
AcDbEntity
  8
STALPROFIL
100
AcDbLine
 10
473.505652
 20
69.485376
 30
0.0
 11
473.505652
 21
68.417855
 31
0.0
  0
LINE
  5
170
100
AcDbEntity
  8
STALPROFIL
100
AcDbLine
 10
476.851892
 20
71.05072
 30
0.0
 11
476.851892
 21
72.125266
 31
0.0
  0
LINE
  5
171
100
AcDbEntity
  8
STALPROFIL
100
AcDbLine
 10
476.84378
 20
69.096469
 30
0.0
 11
476.84378
 21
70.157705
 31
0.0
  0
LINE
  5
172
100
AcDbEntity
  8
16
100
AcDbLine
 10
473.519234
 20
67.525638
 30
0.0
 11
472.764882
 21
67.794455
 31
0.0
  0
LINE
  5
173
100
AcDbEntity
  8
16
100
AcDbLine
 10
474.807093
 20
67.78813
 30
0.0
 11
473.519234
 21
67.525638
 31
0.0
  0
LINE
  5
174
100
AcDbEntity
  8
STALPROFIL
100
AcDbLine
 10
476.84378
 20
67.143814
 30
0.0
 11
476.84378
 21
68.205083
 31
0.0
  0
LINE
  5
175
100
AcDbEntity
  8
STALPROFIL
100
AcDbLine
 10
473.505652
 20
71.440574
 30
0.0
 11
473.505652
 21
73.65896
 31
0.0
  0
LINE
  5
176
100
AcDbEntity
  8
STALPROFIL
100
AcDbLine
 10
476.851892
 20
72.125266
 30
0.0
 11
476.851892
 21
73.644505
 31
0.0
  0
LINE
  5
177
100
AcDbEntity
  8
16
100
AcDbLine
 10
476.834254
 20
73.012203
 30
0.0
 11
474.752778
 21
72.602691
 31
0.0
  0
LINE
  5
178
100
AcDbEntity
  8
16
100
AcDbLine
 10
476.916954
 20
62.36141
 30
0.0
 11
474.830548
 21
61.934279
 31
0.0
  0
LINE
  5
179
100
AcDbEntity
  8
STALPROFIL
100
AcDbLine
 10
472.793066
 20
62.189696
 30
0.0
 11
472.789394
 21
61.940589
 31
0.0
  0
LINE
  5
17A
100
AcDbEntity
  8
16
100
AcDbLine
 10
472.789394
 20
61.940589
 30
0.0
 11
474.637838
 21
62.291173
 31
0.0
  0
LINE
  5
17B
100
AcDbEntity
  8
16
100
AcDbLine
 10
474.830548
 20
61.934279
 30
0.0
 11
473.542689
 21
61.671786
 31
0.0
  0
LINE
  5
17C
100
AcDbEntity
  8
16
100
AcDbLine
 10
473.542689
 20
61.671786
 30
0.0
 11
472.789394
 21
61.940589
 31
0.0
  0
LINE
  5
17D
100
AcDbEntity
  8
16
100
AcDbLine
 10
476.885387
 20
64.308355
 30
0.0
 11
474.798981
 21
63.881224
 31
0.0
  0
LINE
  5
17E
100
AcDbEntity
  8
16
100
AcDbLine
 10
476.839724
 20
65.190361
 30
0.0
 11
474.758248
 21
64.780848
 31
0.0
  0
LINE
  5
17F
100
AcDbEntity
  8
16
100
AcDbLine
 10
476.871291
 20
63.243415
 30
0.0
 11
474.789816
 21
62.833902
 31
0.0
  0
LINE
  5
180
100
AcDbEntity
  8
16
100
AcDbLine
 10
472.761499
 20
64.136641
 30
0.0
 11
474.565465
 21
64.433912
 31
0.0
  0
LINE
  5
181
100
AcDbEntity
  8
16
100
AcDbLine
 10
472.75677
 20
63.887549
 30
0.0
 11
474.60627
 21
64.238119
 31
0.0
  0
LINE
  5
182
100
AcDbEntity
  8
16
100
AcDbLine
 10
472.761499
 20
64.136641
 30
0.0
 11
473.504819
 21
64.514651
 31
0.0
  0
LINE
  5
183
100
AcDbEntity
  8
16
100
AcDbLine
 10
473.511122
 20
63.618732
 30
0.0
 11
472.75677
 21
63.887549
 31
0.0
  0
LINE
  5
184
100
AcDbEntity
  8
STALPROFIL
100
AcDbLine
 10
472.761499
 20
64.136641
 30
0.0
 11
472.75677
 21
63.887549
 31
0.0
  0
LINE
  5
185
100
AcDbEntity
  8
16
100
AcDbLine
 10
474.798981
 20
63.881224
 30
0.0
 11
473.511122
 21
63.618732
 31
0.0
  0
LINE
  5
186
100
AcDbEntity
  8
16
100
AcDbLine
 10
473.504819
 20
64.514651
 30
0.0
 11
474.759974
 21
64.781194
 31
0.0
  0
LINE
  5
187
100
AcDbEntity
  8
STALPROFIL
100
AcDbLine
 10
473.505652
 20
65.575584
 30
0.0
 11
473.505652
 21
64.514828
 31
0.0
  0
LINE
  5
188
100
AcDbEntity
  8
16
100
AcDbLine
 10
473.548669
 20
63.625701
 30
0.0
 11
473.536386
 21
62.567706
 31
0.0
  0
LINE
  5
189
100
AcDbEntity
  8
16
100
AcDbLine
 10
473.536386
 20
62.567706
 30
0.0
 11
474.791541
 21
62.834248
 31
0.0
  0
LINE
  5
18A
100
AcDbEntity
  8
16
100
AcDbLine
 10
472.793066
 20
62.189696
 30
0.0
 11
473.536386
 21
62.567706
 31
0.0
  0
LINE
  5
18B
100
AcDbEntity
  8
16
100
AcDbLine
 10
472.793066
 20
62.189696
 30
0.0
 11
474.597032
 21
62.486966
 31
0.0
  0
LINE
  5
18C
100
AcDbEntity
  8
16
100
AcDbLine
 10
476.871291
 20
63.243415
 30
0.0
 11
476.885387
 21
64.308355
 31
0.0
  0
LINE
  5
18D
100
AcDbEntity
  8
16
100
AcDbLine
 10
473.515178
 20
65.572185
 30
0.0
 11
472.761882
 21
65.840988
 31
0.0
  0
LINE
  5
18E
100
AcDbEntity
  8
16
100
AcDbLine
 10
474.803037
 20
65.834677
 30
0.0
 11
473.515178
 21
65.572185
 31
0.0
  0
LINE
  5
18F
100
AcDbEntity
  8
STALPROFIL
100
AcDbLine
 10
476.84378
 20
66.25246
 30
0.0
 11
476.84378
 21
65.188375
 31
0.0
  0
LINE
  5
190
100
AcDbEntity
  8
16
100
AcDbLine
 10
476.84378
 20
67.143814
 30
0.0
 11
477.617562
 21
66.764981
 31
0.0
  0
LINE
  5
191
100
AcDbEntity
  8
16
100
AcDbLine
 10
477.617562
 20
66.764981
 30
0.0
 11
474.574855
 21
66.388326
 31
0.0
  0
LINE
  5
192
100
AcDbEntity
  8
16
100
AcDbLine
 10
477.613412
 20
66.55085
 30
0.0
 11
474.604992
 21
66.19061
 31
0.0
  0
LINE
  5
193
100
AcDbEntity
  8
16
100
AcDbLine
 10
477.609356
 20
64.597397
 30
0.0
 11
474.600936
 21
64.237157
 31
0.0
  0
LINE
  5
194
100
AcDbEntity
  8
16
100
AcDbLine
 10
477.613506
 20
64.811528
 30
0.0
 11
474.570799
 21
64.434874
 31
0.0
  0
LINE
  5
195
100
AcDbEntity
  8
16
100
AcDbLine
 10
477.645074
 20
62.864582
 30
0.0
 11
474.602366
 21
62.487928
 31
0.0
  0
LINE
  5
196
100
AcDbEntity
  8
16
100
AcDbLine
 10
477.640923
 20
62.650451
 30
0.0
 11
474.632503
 21
62.290211
 31
0.0
  0
LINE
  5
197
100
AcDbEntity
  8
16
100
AcDbLine
 10
477.609356
 20
64.597397
 30
0.0
 11
476.885387
 21
64.308355
 31
0.0
  0
LINE
  5
198
100
AcDbEntity
  8
16
100
AcDbLine
 10
476.839724
 20
65.190361
 30
0.0
 11
477.613506
 21
64.811528
 31
0.0
  0
LINE
  5
199
100
AcDbEntity
  8
16
100
AcDbLine
 10
477.613412
 20
66.55085
 30
0.0
 11
476.889443
 21
66.261808
 31
0.0
  0
LINE
  5
19A
100
AcDbEntity
  8
16
100
AcDbLine
 10
477.640923
 20
62.650451
 30
0.0
 11
476.916954
 21
62.36141
 31
0.0
  0
LINE
  5
19B
100
AcDbEntity
  8
16
100
AcDbLine
 10
476.871291
 20
63.243415
 30
0.0
 11
477.645074
 21
62.864582
 31
0.0
  0
LINE
  5
19C
100
AcDbEntity
  8
16
100
AcDbLine
 10
476.851892
 20
73.644505
 30
0.0
 11
477.254596
 21
73.782032
 31
0.0
  0
LINE
  5
19D
100
AcDbEntity
  8
STALPROFIL
100
AcDbLine
 10
473.268462
 20
73.742819
 30
0.0
 11
477.139772
 21
73.742819
 31
0.0
  0
LINE
  5
19E
100
AcDbEntity
  8
STALPROFIL
100
AcDbLine
 10
473.146193
 20
73.834458
 30
0.0
 11
477.255516
 21
73.834458
 31
0.0
  0
LINE
  5
19F
100
AcDbEntity
  8
STALPROFIL
100
AcDbLine
 10
479.205979
 20
74.031962
 30
0.0
 11
475.203476
 21
74.031962
 31
0.0
  0
LINE
  5
1A0
100
AcDbEntity
  8
16
100
AcDbLine
 10
477.608036
 20
72.633371
 30
0.0
 11
474.565329
 21
72.256716
 31
0.0
  0
LINE
  5
1A1
100
AcDbEntity
  8
16
100
AcDbLine
 10
477.603886
 20
72.419239
 30
0.0
 11
474.595465
 21
72.059
 31
0.0
  0
LINE
  5
1A2
100
AcDbEntity
  8
16
100
AcDbLine
 10
477.625674
 20
70.671887
 30
0.0
 11
474.582967
 21
70.295232
 31
0.0
  0
LINE
  5
1A3
100
AcDbEntity
  8
16
100
AcDbLine
 10
477.621524
 20
70.457755
 30
0.0
 11
474.613103
 21
70.097516
 31
0.0
  0
LINE
  5
1A4
100
AcDbEntity
  8
16
100
AcDbLine
 10
477.621618
 20
68.718434
 30
0.0
 11
474.578911
 21
68.341779
 31
0.0
  0
LINE
  5
1A5
100
AcDbEntity
  8
16
100
AcDbLine
 10
477.617468
 20
68.504303
 30
0.0
 11
474.609048
 21
68.144063
 31
0.0
  0
LINE
  5
1A6
100
AcDbEntity
  8
16
100
AcDbLine
 10
476.851892
 20
71.05072
 30
0.0
 11
477.625674
 21
70.671887
 31
0.0
  0
LINE
  5
1A7
100
AcDbEntity
  8
16
100
AcDbLine
 10
477.621524
 20
70.457755
 30
0.0
 11
476.897555
 21
70.168714
 31
0.0
  0
LINE
  5
1A8
100
AcDbEntity
  8
16
100
AcDbLine
 10
477.603886
 20
72.419239
 30
0.0
 11
476.879917
 21
72.130198
 31
0.0
  0
LINE
  5
1A9
100
AcDbEntity
  8
16
100
AcDbLine
 10
476.847836
 20
69.097267
 30
0.0
 11
477.621618
 21
68.718434
 31
0.0
  0
LINE
  5
1AA
100
AcDbEntity
  8
16
100
AcDbLine
 10
477.617468
 20
68.504303
 30
0.0
 11
476.893499
 21
68.215261
 31
0.0
  0
LINE
  5
1AB
100
AcDbEntity
  8
16
100
AcDbLine
 10
476.834254
 20
73.012203
 30
0.0
 11
477.608036
 21
72.633371
 31
0.0
  0
LINE
  5
1AC
100
AcDbEntity
  8
STALPROFIL
100
AcDbLine
 10
479.205979
 20
76.036043
 30
0.0
 11
471.193891
 21
76.036043
 31
0.0
  0
POINT
  5
1AD
100
AcDbEntity
  8
DEFPOINTS
  6
BYBLOCK
 62
     0
100
AcDbPoint
 10
479.685275
 20
78.031642
 30
0.0
  0
LINE
  5
1AE
100
AcDbEntity
  8
STALPROFIL
100
AcDbLine
 10
479.685275
 20
78.031642
 30
0.0
 11
470.684888
 21
78.031642
 31
0.0
  0
DIMENSION
  5
1AF
100
AcDbEntity
  8
GLAS_MED_FOGNING
100
AcDbDimension
  2
*D81
 10
491.010832
 20
119.940865
 30
0.0
 11
470.689178
 21
123.190865
 31
0.0
 12
1050.0
 22
-125.0
 32
0.0
  1
81.3
  3
STANDARD
100
AcDbAlignedDimension
 13
450.367524
 23
130.417792
 33
0.0
 14
491.010832
 24
130.417792
 34
0.0
100
AcDbRotatedDimension
1001
ACAD
1000
DSTYLE
1002
{
1070
    78
1070
     8
1070
   140
1040
3.5
1070
   142
1040
1.0
1070
    74
1070
     0
1070
   172
1070
     1
1070
    73
1070
     0
1070
    77
1070
     1
1070
   147
1040
1.5
1070
    42
1040
1.0
1070
    44
1040
2.0
1070
    43
1040
10.0
1070
   178
1070
     6
1070
   141
1040
2.5
1070
    41
1040
0.0
1002
}
  0
LWPOLYLINE
  5
1BC
100
AcDbEntity
  8
STALPROFIL
100
AcDbPolyline
 90
        6
 70
     0
 43
1.0
 10
450.867524
 20
147.397033
 10
450.867524
 20
132.398687
 42
0.414214
 10
451.867524
 20
131.398687
 10
489.510832
 20
131.398687
 42
0.414214
 10
490.510832
 20
132.398687
 10
490.510832
 20
154.120888
  0
LWPOLYLINE
  5
1BD
100
AcDbEntity
  8
STALPROFIL
100
AcDbPolyline
 90
        6
 70
     0
 43
2.5
 10
451.617524
 20
147.397033
 10
451.617524
 20
132.398687
 42
0.414214
 10
451.867524
 20
132.148687
 10
489.510832
 20
132.148687
 42
0.414214
 10
489.760832
 20
132.398687
 10
489.760832
 20
154.120888
  0
LWPOLYLINE
  5
1BE
100
AcDbEntity
  8
GLAS_MED_FOGNING
100
AcDbPolyline
 90
        4
 70
     0
 43
0.0
 10
452.867524
 20
147.397033
 10
452.867524
 20
133.398687
 10
488.510832
 20
133.398687
 10
488.510832
 20
154.120888
  0
LWPOLYLINE
  5
1BF
100
AcDbEntity
  8
GLAS_MED_FOGNING
100
AcDbPolyline
 90
        6
 70
     0
 43
0.0
 10
450.367524
 20
147.397033
 10
450.367524
 20
132.398687
 42
0.414214
 10
451.867524
 20
130.898687
 10
489.510832
 20
130.898687
 42
0.414214
 10
491.010832
 20
132.398687
 10
491.010832
 20
154.120888
  0
DIMENSION
  5
1C0
100
AcDbEntity
  8
GLAS_MED_FOGNING
100
AcDbDimension
  2
*D82
 10
435.303569
 20
130.898687
 30
0.0
 11
435.303569
 21
138.772481
 31
0.0
 12
1050.0
 22
-125.0
 32
0.0
 70
   128
  1
{16.5}
  3
STANDARD
100
AcDbAlignedDimension
 13
449.983638
 23
147.397033
 33
0.0
 14
449.658643
 24
130.898687
 34
0.0
 50
90.0
100
AcDbRotatedDimension
1001
ACAD
1000
DSTYLE
1002
{
1070
    78
1070
     8
1070
   140
1040
3.5
1070
   142
1040
1.0
1070
    74
1070
     0
1070
   172
1070
     1
1070
    73
1070
     0
1070
    77
1070
     1
1070
   147
1040
1.5
1070
    42
1040
1.0
1070
    44
1040
2.0
1070
    43
1040
10.0
1070
   178
1070
     6
1070
   141
1040
2.5
1070
    41
1040
0.0
1002
}
  0
LINE
  5
1CD
100
AcDbEntity
  8
GLAS_MED_FOGNING
100
AcDbLine
 10
452.867524
 20
147.397033
 30
0.0
 11
450.367524
 21
147.397033
 31
0.0
  0
DIMENSION
  5
1CE
100
AcDbEntity
  8
GLAS_MED_FOGNING
100
AcDbDimension
  2
*D83
 10
452.867524
 20
152.444849
 30
0.0
 11
457.867524
 21
155.694849
 31
0.0
 12
1050.0
 22
-125.0
 32
0.0
  3
STANDARD
100
AcDbAlignedDimension
 13
450.367524
 23
147.397033
 33
0.0
 14
452.867524
 24
147.397033
 34
0.0
100
AcDbRotatedDimension
1001
ACAD
1000
DSTYLE
1002
{
1070
    78
1070
     8
1070
   140
1040
3.5
1070
   142
1040
1.0
1070
    74
1070
     0
1070
   172
1070
     1
1070
    73
1070
     0
1070
    77
1070
     1
1070
   147
1040
1.5
1070
    42
1040
1.0
1070
    44
1040
2.0
1070
    43
1040
10.0
1070
   178
1070
     6
1070
   141
1040
2.5
1070
    41
1040
0.0
1002
}
  0
LINE
  5
1DD
100
AcDbEntity
  8
GLAS_MED_FOGNING
100
AcDbLine
 10
491.010832
 20
154.120888
 30
0.0
 11
488.510832
 21
154.120888
 31
0.0
  0
TEXT
  5
1DE
100
AcDbEntity
  8
TEXT
100
AcDbText
 10
584.571429
 20
30.039766
 30
0.0
 40
5.0
  1
SP 40500
 41
0.8
  7
ROMANS
 72
     1
 11
600.0
 21
30.039766
 31
0.0
100
AcDbText
  0
TEXT
  5
1DF
100
AcDbEntity
  8
TEXT
100
AcDbText
 10
590.761905
 20
38.0
 30
0.0
 40
5.0
  1
Spring
 41
0.8
  7
ROMANS
 72
     1
 11
600.0
 21
38.0
 31
0.0
100
AcDbText
  0
LWPOLYLINE
  5
1E0
100
AcDbEntity
  8
GLAS_MED_FOGNING
100
AcDbPolyline
 90
        9
 70
     0
 43
0.0
 10
588.104653
 20
56.821776
 10
590.0
 20
55.1
 10
597.5
 20
55.099814
 42
0.315299
 10
598.721622
 20
55.955158
 10
599.503203
 20
58.102371
 42
-0.419684
 10
599.892958
 20
58.279701
 10
603.59129
 20
56.461158
 42
0.414233
 10
605.329701
 20
57.059616
 10
607.083297
 20
60.654738
  0
LINE
  5
1E1
100
AcDbEntity
  8
CENTRUM
100
AcDbLine
 10
594.000025
 20
56.099901
 30
0.0
 11
593.999876
 21
50.099901
 31
0.0
  0
TEXT
  5
1E2
100
AcDbEntity
  8
TEXT
100
AcDbText
 10
578.700036
 20
116.714734
 30
0.0
 40
5.0
  1
%%URubber seal
 41
0.8
  7
ROMANS
 72
     1
 11
596.38575
 21
116.714734
 31
0.0
100
AcDbText
  0
TEXT
  5
1E3
100
AcDbEntity
  8
TEXT
100
AcDbText
 10
581.542893
 20
103.0
 30
0.0
 40
5.0
  1
%%USP 40035
 41
0.8
  7
ROMANS
 72
     1
 11
596.38575
 21
103.0
 31
0.0
100
AcDbText
  0
INSERT
  5
1E4
100
AcDbEntity
  8
DIM
100
AcDbBlockReference
  2
*X74
 10
84.699354
 20
-75.937892
 30
0.0
 41
1.5
 42
1.5
 43
1.5
1001
ACAD
1000
HATCH
1002
{
1070
    16
1000
ANSI31
1040
5.0
1040
0.0
1002
}
  0
LWPOLYLINE
  5
1FA
100
AcDbEntity
  8
GLAS_MED_FOGNING
100
AcDbPolyline
 90
       27
 70
     0
 43
0.0
 10
597.272847
 20
136.359929
 10
597.338599
 20
133.110741
 42
0.47758
 10
598.260628
 20
132.395948
 10
598.810026
 20
132.525538
 42
-1.066974
 10
599.052978
 20
131.083057
 10
595.160477
 20
130.684327
 10
593.159189
 20
130.828235
 42
-0.851446
 10
593.031509
 20
132.26971
 42
0.34625
 10
593.597019
 20
133.004926
 10
593.600121
 20
139.159501
 42
0.253088
 10
592.360632
 20
141.475302
 10
591.156758
 20
142.244097
 42
-0.653084
 10
591.257894
 20
142.784088
 10
594.492549
 20
143.536575
 42
0.887127
 10
595.364514
 20
143.341206
 42
-0.212108
 10
595.783098
 20
143.783452
 42
-0.196486
 10
604.065956
 20
147.495587
 42
-0.418069
 10
604.20732
 20
147.09262
 10
603.804874
 20
146.269139
 42
-0.397156
 10
603.612249
 20
146.196609
 42
0.171891
 10
596.97219
 20
142.362702
 42
1.053912
 10
597.364612
 20
141.392575
 10
601.006493
 20
142.549816
 42
-0.459605
 10
601.393737
 20
142.310281
 10
601.516441
 20
141.526098
 42
-0.312484
 10
601.442063
 20
141.37233
 42
0.373013
 10
597.277968
 20
136.106869
  0
TEXT
  5
1FB
100
AcDbEntity
  8
TEXT
100
AcDbText
 10
456.680952
 20
268.0
 30
0.0
 40
5.0
  1
%%U50_SP42520-2
 41
0.8
  7
ROMANS
 72
     1
 11
480.0
 21
268.0
 31
0.0
100
AcDbText
  0
LWPOLYLINE
  5
1FC
100
AcDbEntity
  8
STALPROFIL
100
AcDbPolyline
 90
       10
 70
     0
 43
1.25
 10
485.625
 20
207.5
 10
485.625
 20
206.75
 42
0.414214
 10
486.75
 20
205.625
 10
493.25
 20
205.625
 42
0.414214
 10
494.375
 20
206.75
 10
494.375
 20
223.25
 42
0.414214
 10
493.25
 20
224.375
 10
486.75
 20
224.375
 42
0.414214
 10
485.625
 20
223.25
 10
485.625
 20
209.5
  0
LWPOLYLINE
  5
1FD
100
AcDbEntity
  8
SPKONTUR
100
AcDbPolyline
 90
       10
 70
     0
 43
0.0
 10
485.0
 20
207.5
 10
485.0
 20
206.75
 42
0.414214
 10
486.75
 20
205.0
 10
493.25
 20
205.0
 42
0.414214
 10
495.0
 20
206.75
 10
495.0
 20
223.25
 42
0.414214
 10
493.25
 20
225.0
 10
486.75
 20
225.0
 42
0.414214
 10
485.0
 20
223.25
 10
485.0
 20
209.5
  0
TEXT
  5
1FE
100
AcDbEntity
  8
TEXT
100
AcDbText
 10
456.061905
 20
188.0
 30
0.0
 40
5.0
  1
%%U50_SP41020
 41
0.8
  7
ROMANS
 72
     1
 11
475.0
 21
188.0
 31
0.0
100
AcDbText
  0
LWPOLYLINE
  5
1FF
100
AcDbEntity
  8
SPKONTUR
100
AcDbPolyline
 90
       10
 70
     0
 43
0.0
 10
595.0
 20
207.5
 10
595.0
 20
206.75
 42
0.414214
 10
596.75
 20
205.0
 10
608.25
 20
205.0
 42
0.414214
 10
610.0
 20
206.75
 10
610.0
 20
223.75
 42
0.414214
 10
608.75
 20
225.0
 10
608.7499
 20
225.0
 42
0.414214
 10
607.5
 20
223.7501
 10
607.5
 20
219.0
  0
LWPOLYLINE
  5
200
100
AcDbEntity
  8
STALPROFIL
100
AcDbPolyline
 90
        9
 70
     0
 43
1.25
 10
595.625
 20
207.5
 10
595.625
 20
206.75
 42
0.414214
 10
596.75
 20
205.625
 10
608.25
 20
205.625
 42
0.414214
 10
609.375
 20
206.75
 10
609.375
 20
223.75
 42
0.414214
 10
608.7499
 20
224.375
 42
0.414214
 10
608.125
 20
223.7501
 10
608.125
 20
219.0
  0
TEXT
  5
201
100
AcDbEntity
  8
TEXT
100
AcDbText
 10
576.061905
 20
188.0
 30
0.0
 40
5.0
  1
%%U50_SP40520
 41
0.8
  7
ROMANS
 72
     1
 11
595.0
 21
188.0
 31
0.0
100
AcDbText
  0
TEXT
  5
202
100
AcDbEntity
  8
TEXT
100
AcDbText
 10
576.061905
 20
268.0
 30
0.0
 40
5.0
  1
%%U50_SP42020
 41
0.8
  7
ROMANS
 72
     1
 11
595.0
 21
268.0
 31
0.0
100
AcDbText
  0
LINE
  5
203
100
AcDbEntity
  8
TEXT
100
AcDbLine
 10
873.451986
 20
161.075331
 30
0.0
 11
878.553766
 21
142.001193
 31
0.0
  0
INSERT
  5
204
100
AcDbEntity
  8
0
100
AcDbBlockReference
  2
50_30SP41020DK
 10
910.0
 20
135.0
 30
0.0
  0
TEXT
  5
260
100
AcDbEntity
  8
TEXT
100
AcDbText
 10
667.028571
 20
108.0
 30
0.0
 40
5.0
  1
%%URubber sela (Finger Trp Proof)
 41
0.8
  7
ROMANS
 72
     1
 11
715.0
 21
108.0
 31
0.0
100
AcDbText
  0
TEXT
  5
261
100
AcDbEntity
  8
TEXT
100
AcDbText
 10
702.157143
 20
118.0
 30
0.0
 40
5.0
  1
%%USP40052
 41
0.8
  7
ROMANS
 72
     1
 11
715.0
 21
118.0
 31
0.0
100
AcDbText
  0
INSERT
  5
262
100
AcDbEntity
  8
ISOLERING
100
AcDbBlockReference
  2
KFRIBAKKANT
 10
740.0
 20
130.0
 30
0.0
  0
LWPOLYLINE
  5
3BD
100
AcDbEntity
  8
CENTRUM
100
AcDbPolyline
 90
        4
 70
     0
 43
0.0
 10
905.0
 20
92.5
 10
892.0
 20
92.5
 10
862.0
 20
92.5
 10
855.0
 20
92.5
  0
TEXT
  5
3BE
100
AcDbEntity
  8
TEXT
100
AcDbText
 10
842.347619
 20
43.0
 30
0.0
 40
5.0
  1
%%UGLAS30-4X3DK
 41
0.8
  7
ROMANS
 72
     1
 11
865.0
 21
43.0
 31
0.0
100
AcDbText
  0
INSERT
  5
3BF
100
AcDbEntity
  8
0
100
AcDbBlockReference
  2
GLAS30-4X3DK
 10
855.0
 20
30.0
 30
0.0
  0
LINE
  5
3C0
100
AcDbEntity
  8
GLAS_MED_FOGNING
100
AcDbLine
 10
862.0
 20
92.5
 30
0.0
 11
862.0
 21
84.0
 31
0.0
  0
INSERT
  5
3C1
100
AcDbEntity
  8
0
100
AcDbBlockReference
  2
SP41020
 10
920.0
 20
30.0
 30
0.0
  0
TEXT
  5
3C2
100
AcDbEntity
  8
TEXT
100
AcDbText
 10
907.157143
 20
43.0
 30
0.0
 40
5.0
  1
%%USP41020
 41
0.8
  7
ROMANS
 72
     1
 11
920.0
 21
43.0
 31
0.0
100
AcDbText
  0
LINE
  5
3C3
100
AcDbEntity
  8
GLAS_MED_FOGNING
100
AcDbLine
 10
892.0
 20
92.5
 30
0.0
 11
892.0
 21
84.0
 31
0.0
  0
TEXT
  5
3C4
100
AcDbEntity
  8
TEXT
100
AcDbText
 10
879.171594
 20
143.0
 30
0.0
 40
5.0
  1
%%UDISTANCE BLOCK
 41
0.8
  7
ROMANS
 72
     1
 11
904.109689
 21
143.0
 31
0.0
100
AcDbText
  0
TEXT
  5
3C5
100
AcDbEntity
  8
TEXT
100
AcDbText
 10
678.933333
 20
183.0
 30
0.0
 40
5.0
  1
%%URubber seal (threshold)
 41
0.8
  7
ROMANS
 72
     1
 11
715.0
 21
183.0
 31
0.0
100
AcDbText
  0
LINE
  5
3C6
100
AcDbEntity
  8
KONTUR
100
AcDbLine
 10
695.0
 20
220.0
 30
0.0
 11
735.0
 21
220.0
 31
0.0
  0
LINE
  5
3C8
100
AcDbEntity
  8
KONTUR
100
AcDbLine
 10
698.631841
 20
219.0
 30
0.0
 11
732.016673
 21
219.0
 31
0.0
  0
TEXT
  5
3C9
100
AcDbEntity
  8
TEXT
100
AcDbText
 10
700.157143
 20
193.0
 30
0.0
 40
5.0
  1
%%USP 45065
 41
0.8
  7
ROMANS
 72
     1
 11
715.0
 21
193.0
 31
0.0
100
AcDbText
  0
LINE
  5
3CA
100
AcDbEntity
  8
GLAS_MED_FOGNING
 62
     2
100
AcDbLine
 10
704.493597
 20
219.0
 30
0.0
 11
705.493597
 21
220.0
 31
0.0
  0
LINE
  5
3CB
100
AcDbEntity
  8
GLAS_MED_FOGNING
 62
     2
100
AcDbLine
 10
700.958063
 20
219.0
 30
0.0
 11
701.958063
 21
220.0
 31
0.0
  0
LINE
  5
3CC
100
AcDbEntity
  8
GLAS_MED_FOGNING
 62
     2
100
AcDbLine
 10
699.190296
 20
219.0
 30
0.0
 11
700.190296
 21
220.0
 31
0.0
  0
LINE
  5
3CD
100
AcDbEntity
  8
GLAS_MED_FOGNING
 62
     2
100
AcDbLine
 10
695.0
 20
218.345238
 30
0.0
 11
696.654762
 21
220.0
 31
0.0
  0
ARC
  5
3CE
100
AcDbEntity
  8
KONTUR
100
AcDbCircle
 10
698.772119
 20
218.120222
 30
0.0
 40
0.890891
100
AcDbArc
 50
80.940617
 51
162.726982
  0
LINE
  5
3CF
100
AcDbEntity
  8
GLAS_MED_FOGNING
 62
     2
100
AcDbLine
 10
702.72583
 20
219.0
 30
0.0
 11
703.72583
 21
220.0
 31
0.0
  0
LINE
  5
3D0
100
AcDbEntity
  8
GLAS_MED_FOGNING
 62
     2
100
AcDbLine
 10
695.0
 20
207.738636
 30
0.0
 11
696.784475
 21
209.523111
 31
0.0
  0
LINE
  5
3D1
100
AcDbEntity
  8
GLAS_MED_FOGNING
 62
     2
100
AcDbLine
 10
695.0
 20
213.041937
 30
0.0
 11
697.565021
 21
215.606958
 31
0.0
  0
LINE
  5
3D2
100
AcDbEntity
  8
GLAS_MED_FOGNING
 62
     2
100
AcDbLine
 10
695.0
 20
214.809704
 30
0.0
 11
697.825203
 21
217.634907
 31
0.0
  0
LINE
  5
3D3
100
AcDbEntity
  8
GLAS_MED_FOGNING
 62
     2
100
AcDbLine
 10
695.0
 20
209.506403
 30
0.0
 11
697.044657
 21
211.55106
 31
0.0
  0
LINE
  5
3D4
100
AcDbEntity
  8
GLAS_MED_FOGNING
 62
     2
100
AcDbLine
 10
695.0
 20
211.27417
 30
0.0
 11
697.304839
 21
213.579009
 31
0.0
  0
LINE
  5
3D5
100
AcDbEntity
  8
GLAS_MED_FOGNING
 62
     2
100
AcDbLine
 10
695.510505
 20
206.481374
 30
0.0
 11
696.524293
 21
207.495162
 31
0.0
  0
ARC
  5
3D6
100
AcDbEntity
  8
KONTUR
100
AcDbCircle
 10
695.732309
 20
207.210273
 30
0.0
 40
0.7619
100
AcDbArc
 50
196.020761
 51
342.251185
  0
LINE
  5
3D7
100
AcDbEntity
  8
KONTUR
100
AcDbLine
 10
696.457944
 20
206.978012
 30
0.0
 11
697.921407
 21
218.38475
 31
0.0
  0
LINE
  5
3D8
100
AcDbEntity
  8
KONTUR
100
AcDbLine
 10
695.0
 20
220.0
 30
0.0
 11
695.0
 21
207.0
 31
0.0
  0
LINE
  5
3D9
100
AcDbEntity
  8
GLAS_MED_FOGNING
 62
     2
100
AcDbLine
 10
695.0
 20
216.577471
 30
0.0
 11
698.422529
 21
220.0
 31
0.0
  0
LINE
  5
3DA
100
AcDbEntity
  8
GLAS_MED_FOGNING
 62
     2
100
AcDbLine
 10
722.171267
 20
219.0
 30
0.0
 11
723.171267
 21
220.0
 31
0.0
  0
LINE
  5
3DB
100
AcDbEntity
  8
GLAS_MED_FOGNING
 62
     2
100
AcDbLine
 10
718.635733
 20
219.0
 30
0.0
 11
719.635733
 21
220.0
 31
0.0
  0
LINE
  5
3DC
100
AcDbEntity
  8
GLAS_MED_FOGNING
 62
     2
100
AcDbLine
 10
716.867966
 20
219.0
 30
0.0
 11
717.867966
 21
220.0
 31
0.0
  0
LINE
  5
3DD
100
AcDbEntity
  8
GLAS_MED_FOGNING
 62
     2
100
AcDbLine
 10
720.4035
 20
219.0
 30
0.0
 11
721.4035
 21
220.0
 31
0.0
  0
LINE
  5
3DE
100
AcDbEntity
  8
GLAS_MED_FOGNING
 62
     2
100
AcDbLine
 10
713.332432
 20
219.0
 30
0.0
 11
714.332432
 21
220.0
 31
0.0
  0
LINE
  5
3DF
100
AcDbEntity
  8
GLAS_MED_FOGNING
 62
     2
100
AcDbLine
 10
711.564665
 20
219.0
 30
0.0
 11
712.564665
 21
220.0
 31
0.0
  0
LINE
  5
3E0
100
AcDbEntity
  8
GLAS_MED_FOGNING
 62
     2
100
AcDbLine
 10
709.796898
 20
219.0
 30
0.0
 11
710.796898
 21
220.0
 31
0.0
  0
LINE
  5
3E1
100
AcDbEntity
  8
GLAS_MED_FOGNING
 62
     2
100
AcDbLine
 10
708.029131
 20
219.0
 30
0.0
 11
709.029131
 21
220.0
 31
0.0
  0
LINE
  5
3E2
100
AcDbEntity
  8
GLAS_MED_FOGNING
 62
     2
100
AcDbLine
 10
706.261364
 20
219.0
 30
0.0
 11
707.261364
 21
220.0
 31
0.0
  0
LINE
  5
3E3
100
AcDbEntity
  8
GLAS_MED_FOGNING
 62
     2
100
AcDbLine
 10
715.100199
 20
219.0
 30
0.0
 11
716.100199
 21
220.0
 31
0.0
  0
LINE
  5
3E4
100
AcDbEntity
  8
GLAS_MED_FOGNING
 62
     2
100
AcDbLine
 10
727.474567
 20
219.0
 30
0.0
 11
728.474567
 21
220.0
 31
0.0
  0
LINE
  5
3E5
100
AcDbEntity
  8
GLAS_MED_FOGNING
 62
     2
100
AcDbLine
 10
729.242334
 20
219.0
 30
0.0
 11
730.242334
 21
220.0
 31
0.0
  0
LINE
  5
3E6
100
AcDbEntity
  8
GLAS_MED_FOGNING
 62
     2
100
AcDbLine
 10
731.010101
 20
219.0
 30
0.0
 11
732.010101
 21
220.0
 31
0.0
  0
LINE
  5
3E7
100
AcDbEntity
  8
GLAS_MED_FOGNING
 62
     2
100
AcDbLine
 10
732.104953
 20
218.327085
 30
0.0
 11
733.777868
 21
220.0
 31
0.0
  0
LINE
  5
3E8
100
AcDbEntity
  8
GLAS_MED_FOGNING
 62
     2
100
AcDbLine
 10
723.939033
 20
219.0
 30
0.0
 11
724.939033
 21
220.0
 31
0.0
  0
LINE
  5
3E9
100
AcDbEntity
  8
GLAS_MED_FOGNING
 62
     2
100
AcDbLine
 10
725.7068
 20
219.0
 30
0.0
 11
726.7068
 21
220.0
 31
0.0
  0
LINE
  5
3EA
100
AcDbEntity
  8
GLAS_MED_FOGNING
 62
     2
100
AcDbLine
 10
733.54007
 20
207.387834
 30
0.0
 11
735.0
 21
208.847763
 31
0.0
  0
LINE
  5
3EB
100
AcDbEntity
  8
GLAS_MED_FOGNING
 62
     2
100
AcDbLine
 10
734.445105
 20
206.525101
 30
0.0
 11
735.0
 21
207.079996
 31
0.0
  0
LINE
  5
3EC
100
AcDbEntity
  8
GLAS_MED_FOGNING
 62
     2
100
AcDbLine
 10
732.514987
 20
215.201584
 30
0.0
 11
735.0
 21
217.686598
 31
0.0
  0
LINE
  5
3ED
100
AcDbEntity
  8
GLAS_MED_FOGNING
 62
     2
100
AcDbLine
 10
732.720003
 20
213.638834
 30
0.0
 11
735.0
 21
215.918831
 31
0.0
  0
LINE
  5
3EE
100
AcDbEntity
  8
GLAS_MED_FOGNING
 62
     2
100
AcDbLine
 10
732.92502
 20
212.076084
 30
0.0
 11
735.0
 21
214.151064
 31
0.0
  0
LINE
  5
3EF
100
AcDbEntity
  8
GLAS_MED_FOGNING
 62
     2
100
AcDbLine
 10
733.130037
 20
210.513334
 30
0.0
 11
735.0
 21
212.383297
 31
0.0
  0
LINE
  5
3F0
100
AcDbEntity
  8
GLAS_MED_FOGNING
 62
     2
100
AcDbLine
 10
733.335054
 20
208.950584
 30
0.0
 11
735.0
 21
210.61553
 31
0.0
  0
ARC
  5
3F1
100
AcDbEntity
  8
KONTUR
100
AcDbCircle
 10
734.310512
 20
207.275018
 30
0.0
 40
0.7619
100
AcDbArc
 50
197.941131
 51
344.171554
  0
LINE
  5
3F2
100
AcDbEntity
  8
KONTUR
100
AcDbLine
 10
735.0
 20
207.0
 30
0.0
 11
735.0
 21
220.0
 31
0.0
  0
LINE
  5
3F3
100
AcDbEntity
  8
KONTUR
100
AcDbLine
 10
733.58566
 20
207.040323
 30
0.0
 11
732.016673
 21
219.0
 31
0.0
  0
LINE
  5
3F4
100
AcDbEntity
  8
GLAS_MED_FOGNING
 62
     2
100
AcDbLine
 10
732.30997
 20
216.764335
 30
0.0
 11
735.0
 21
219.454365
 31
0.0
  0
TEXT
  5
3F5
100
AcDbEntity
  8
TEXT
100
AcDbText
 10
701.061905
 20
268.0
 30
0.0
 40
5.0
  1
%%U50_SP41520
 41
0.8
  7
ROMANS
 72
     1
 11
720.0
 21
268.0
 31
0.0
100
AcDbText
  0
INSERT
  5
3F6
100
AcDbEntity
  8
0
100
AcDbBlockReference
  2
50_30SP41020
 10
910.0
 20
190.0
 30
0.0
  0
TEXT
  5
46F
100
AcDbEntity
  8
TEXT
100
AcDbText
 10
862.252381
 20
198.0
 30
0.0
 40
5.0
  1
%%U50_30SP41020
 41
0.8
  7
ROMANS
 72
     1
 11
885.0
 21
198.0
 31
0.0
100
AcDbText
  0
TEXT
  5
470
100
AcDbEntity
  8
TEXT
100
AcDbText
 10
879.171594
 20
273.0
 30
0.0
 40
5.0
  1
%%UDISTANCE BLOCK
 41
0.8
  7
ROMANS
 72
     1
 11
904.109689
 21
273.0
 31
0.0
100
AcDbText
  0
TEXT
  5
471
100
AcDbEntity
  8
TEXT
100
AcDbText
 10
28.677993
 20
582.616377
 30
0.0
 40
15.0
  1
During here demonstrate by example how the sides are builded up.  
 41
0.8
  7
ROMANS
 72
     1
 11
364.392279
 21
582.616377
 31
0.0
100
AcDbText
  0
TEXT
  5
472
100
AcDbEntity
  8
TEXT
100
AcDbText
 10
28.945329
 20
627.781516
 30
0.0
 40
15.0
  1
The remaning sides contains ex glass with glass beads in blocks and movable fixing.
 41
0.8
  7
ROMANS
 72
     1
 11
437.516758
 21
627.781516
 31
0.0
100
AcDbText
  0
TEXT
  5
473
100
AcDbEntity
  8
TEXT
100
AcDbText
 10
29.85349
 20
682.781516
 30
0.0
 40
15.0
  1
The sides are builded up as following
 41
0.8
  7
ROMANS
 72
     1
 11
207.85349
 21
682.781516
 31
0.0
100
AcDbText
  0
TEXT
  5
474
100
AcDbEntity
  8
TEXT
100
AcDbText
 10
68.857352
 20
537.249452
 30
0.0
 40
15.0
  1
Profiles in a block form
 41
0.8
  7
ROMANS
 72
     1
 11
183.42878
 21
537.249452
 31
0.0
100
AcDbText
  0
TEXT
  5
475
100
AcDbEntity
  8
TEXT
100
AcDbText
 10
45.171429
 20
458.0
 30
0.0
 40
5.0
  1
%%USP 35011
 41
0.8
  7
ROMANS
 72
     1
 11
60.0
 21
458.0
 31
0.0
100
AcDbText
  0
TEXT
  5
476
100
AcDbEntity
  8
TEXT
100
AcDbText
 10
45.157143
 20
328.0
 30
0.0
 40
5.0
  1
%%USP 35012
 41
0.8
  7
ROMANS
 72
     1
 11
60.0
 21
328.0
 31
0.0
100
AcDbText
  0
INSERT
  5
477
100
AcDbEntity
  8
0
100
AcDbBlockReference
  2
SP35011
 10
85.0
 20
460.0
 30
0.0
  0
TEXT
  5
47E
100
AcDbEntity
  8
TEXT
100
AcDbText
 10
165.157143
 20
328.0
 30
0.0
 40
5.0
  1
%%USP 35022
 41
0.8
  7
ROMANS
 72
     1
 11
180.0
 21
328.0
 31
0.0
100
AcDbText
  0
TEXT
  5
47F
100
AcDbEntity
  8
TEXT
100
AcDbText
 10
279.252381
 20
328.0
 30
0.0
 40
5.0
  1
%%USP 35012/85
 41
0.8
  7
ROMANS
 72
     1
 11
300.0
 21
328.0
 31
0.0
100
AcDbText
  0
INSERT
  5
480
100
AcDbEntity
  8
0
100
AcDbBlockReference
  2
SP35021
 10
205.0
 20
460.0
 30
0.0
  0
TEXT
  5
486
100
AcDbEntity
  8
TEXT
100
AcDbText
 10
165.171429
 20
458.0
 30
0.0
 40
5.0
  1
%%USP 35021
 41
0.8
  7
ROMANS
 72
     1
 11
180.0
 21
458.0
 31
0.0
100
AcDbText
  0
TEXT
  5
487
100
AcDbEntity
  8
TEXT
100
AcDbText
 10
471.714495
 20
537.249452
 30
0.0
 40
15.0
  1
Glass beads in free parts
 41
0.8
  7
ROMANS
 72
     1
 11
593.42878
 21
537.249452
 31
0.0
100
AcDbText
  0
TEXT
  5
488
100
AcDbEntity
  8
TEXT
100
AcDbText
 10
456.061905
 20
338.0
 30
0.0
 40
5.0
  1
%%U50_SP43520
 41
0.8
  7
ROMANS
 72
     1
 11
475.0
 21
338.0
 31
0.0
100
AcDbText
  0
LWPOLYLINE
  5
489
100
AcDbEntity
  8
SPKONTUR
100
AcDbPolyline
 90
       14
 70
     0
 43
0.0
 10
486.803848
 20
360.0
 10
486.0
 20
357.0
 42
0.414214
 10
488.0
 20
355.0
 10
493.0
 20
355.0
 42
0.414214
 10
495.0
 20
357.0
 10
495.0
 20
373.0
 42
0.414214
 10
493.0
 20
375.0
 10
462.0
 20
375.0
 42
0.414214
 10
460.0
 20
373.0
 10
460.0
 20
357.0
 42
0.414214
 10
462.0
 20
355.0
 10
476.0
 20
355.0
 42
0.414214
 10
478.0
 20
357.0
 10
477.196152
 20
360.0
  0
LWPOLYLINE
  5
48A
100
AcDbEntity
  8
STALPROFIL
100
AcDbPolyline
 90
       14
 70
     0
 43
1.25
 10
487.407551
 20
359.838238
 10
486.627031
 20
356.925296
 42
0.398381
 10
488.0
 20
355.625
 10
493.0
 20
355.625
 42
0.414214
 10
494.375
 20
357.0
 10
494.375
 20
373.0
 42
0.414214
 10
493.0
 20
374.375
 10
462.0
 20
374.375
 42
0.414214
 10
460.625
 20
373.0
 10
460.625
 20
357.0
 42
0.414214
 10
462.0
 20
355.625
 10
476.0
 20
355.625
 42
0.398381
 10
477.372969
 20
356.925296
 10
476.592449
 20
359.838238
  0
TEXT
  5
48B
100
AcDbEntity
  8
TEXT
100
AcDbText
 10
571.061905
 20
338.0
 30
0.0
 40
5.0
  1
%%U50_SP43020
 41
0.8
  7
ROMANS
 72
     1
 11
590.0
 21
338.0
 31
0.0
100
AcDbText
  0
LWPOLYLINE
  5
48C
100
AcDbEntity
  8
SPKONTUR
100
AcDbPolyline
 90
       14
 70
     0
 43
0.0
 10
601.803848
 20
360.0
 10
601.0
 20
357.0
 42
0.414214
 10
603.0
 20
355.0
 10
608.0
 20
355.0
 42
0.414214
 10
610.0
 20
357.0
 10
610.0
 20
373.0
 42
0.414214
 10
608.0
 20
375.0
 10
582.0
 20
375.0
 42
0.414214
 10
580.0
 20
373.0
 10
580.0
 20
357.0
 42
0.414214
 10
582.0
 20
355.0
 10
591.0
 20
355.0
 42
0.414214
 10
593.0
 20
357.0
 10
592.196152
 20
360.0
  0
LWPOLYLINE
  5
48D
100
AcDbEntity
  8
STALPROFIL
100
AcDbPolyline
 90
       14
 70
     0
 43
1.25
 10
602.407551
 20
359.838238
 10
601.627031
 20
356.925296
 42
0.398381
 10
603.0
 20
355.625
 10
608.0
 20
355.625
 42
0.414214
 10
609.375
 20
357.0
 10
609.375
 20
373.0
 42
0.414214
 10
608.0
 20
374.375
 10
582.0
 20
374.375
 42
0.414214
 10
580.625
 20
373.0
 10
580.625
 20
357.0
 42
0.414214
 10
582.0
 20
355.625
 10
591.0
 20
355.625
 42
0.398381
 10
592.372969
 20
356.925296
 10
591.592449
 20
359.838238
  0
TEXT
  5
48E
100
AcDbEntity
  8
TEXT
100
AcDbText
 10
456.061905
 20
440.0
 30
0.0
 40
5.0
  1
%%U50_SP45720
 41
0.8
  7
ROMANS
 72
     1
 11
475.0
 21
440.0
 31
0.0
100
AcDbText
  0
LWPOLYLINE
  5
48F
100
AcDbEntity
  8
STALPROFIL
100
AcDbPolyline
 90
       14
 70
     0
 43
1.25
 10
487.407551
 20
459.838238
 10
486.627031
 20
456.925296
 42
0.398381
 10
488.0
 20
455.625
 10
493.0
 20
455.625
 42
0.414214
 10
494.375
 20
457.0
 10
494.375
 20
473.0
 42
0.414214
 10
493.0
 20
474.375
 10
440.0
 20
474.375
 42
0.414214
 10
438.625
 20
473.0
 10
438.625
 20
457.0
 42
0.414214
 10
440.0
 20
455.625
 10
476.0
 20
455.625
 42
0.398381
 10
477.372969
 20
456.925296
 10
473.692061
 20
469.822106
  0
LWPOLYLINE
  5
490
100
AcDbEntity
  8
SPKONTUR
100
AcDbPolyline
 90
       14
 70
     0
 43
0.0
 10
486.803848
 20
460.0
 10
486.0
 20
457.0
 42
0.414214
 10
488.0
 20
455.0
 10
493.0
 20
455.0
 42
0.414214
 10
495.0
 20
457.0
 10
495.0
 20
473.0
 42
0.414214
 10
493.0
 20
475.0
 10
440.0
 20
475.0
 42
0.414214
 10
438.0
 20
473.0
 10
438.0
 20
457.0
 42
0.414214
 10
440.0
 20
455.0
 10
476.0
 20
455.0
 42
0.414214
 10
478.0
 20
457.0
 10
474.295764
 20
469.983868
  0
LWPOLYLINE
  5
491
100
AcDbEntity
  8
SPKONTUR
100
AcDbPolyline
 90
       14
 70
     0
 43
0.0
 10
601.803848
 20
460.0
 10
601.0
 20
457.0
 42
0.414214
 10
603.0
 20
455.0
 10
608.0
 20
455.0
 42
0.414214
 10
610.0
 20
457.0
 10
610.0
 20
473.0
 42
0.414214
 10
608.0
 20
475.0
 10
562.0
 20
475.0
 42
0.414214
 10
560.0
 20
473.0
 10
560.0
 20
457.0
 42
0.414214
 10
562.0
 20
455.0
 10
591.0
 20
455.0
 42
0.414214
 10
593.0
 20
457.0
 10
592.196152
 20
460.0
  0
LWPOLYLINE
  5
492
100
AcDbEntity
  8
STALPROFIL
100
AcDbPolyline
 90
       14
 70
     0
 43
1.25
 10
602.407551
 20
459.838238
 10
601.627031
 20
456.925296
 42
0.398381
 10
603.0
 20
455.625
 10
608.0
 20
455.625
 42
0.414214
 10
609.375
 20
457.0
 10
609.375
 20
473.0
 42
0.414214
 10
608.0
 20
474.375
 10
562.0
 20
474.375
 42
0.414214
 10
560.625
 20
473.0
 10
560.625
 20
457.0
 42
0.414214
 10
562.0
 20
455.625
 10
591.0
 20
455.625
 42
0.398381
 10
592.372969
 20
456.925296
 10
591.592449
 20
459.838238
  0
TEXT
  5
493
100
AcDbEntity
  8
TEXT
100
AcDbText
 10
561.061905
 20
440.0
 30
0.0
 40
5.0
  1
%%U50_SP45020
 41
0.8
  7
ROMANS
 72
     1
 11
580.0
 21
440.0
 31
0.0
100
AcDbText
  0
LINE
  5
494
100
AcDbEntity
  8
TEXT
100
AcDbLine
 10
867.978867
 20
420.978867
 30
0.0
 11
878.555642
 21
401.998604
 31
0.0
  0
INSERT
  5
495
100
AcDbEntity
  8
0
100
AcDbBlockReference
  2
50_SP43520DK
 10
910.0
 20
395.0
 30
0.0
  0
TEXT
  5
4ED
100
AcDbEntity
  8
TEXT
100
AcDbText
 10
686.695238
 20
338.0
 30
0.0
 40
5.0
  1
%%U50_SP42520-1
 41
0.8
  7
ROMANS
 72
     1
 11
710.0
 21
338.0
 31
0.0
100
AcDbText
  0
LWPOLYLINE
  5
4EE
100
AcDbEntity
  8
STALPROFIL
100
AcDbPolyline
 90
       14
 70
     0
 43
1.25
 10
722.407551
 20
359.838238
 10
721.627031
 20
356.925296
 42
0.398381
 10
723.0
 20
355.625
 10
728.0
 20
355.625
 42
0.414214
 10
729.375
 20
357.0
 10
729.375
 20
373.0
 42
0.414214
 10
728.0
 20
374.375
 10
707.0
 20
374.375
 42
0.414214
 10
705.625
 20
373.0
 10
705.625
 20
357.0
 42
0.414214
 10
707.0
 20
355.625
 10
711.0
 20
355.625
 42
0.398381
 10
712.372969
 20
356.925296
 10
711.592449
 20
359.838238
  0
LWPOLYLINE
  5
4EF
100
AcDbEntity
  8
SPKONTUR
100
AcDbPolyline
 90
       14
 70
     0
 43
0.0
 10
721.803848
 20
360.0
 10
721.0
 20
357.0
 42
0.414214
 10
723.0
 20
355.0
 10
728.0
 20
355.0
 42
0.414214
 10
730.0
 20
357.0
 10
730.0
 20
373.0
 42
0.414214
 10
728.0
 20
375.0
 10
707.0
 20
375.0
 42
0.414214
 10
705.0
 20
373.0
 10
705.0
 20
357.0
 42
0.414214
 10
707.0
 20
355.0
 10
711.0
 20
355.0
 42
0.414214
 10
713.0
 20
357.0
 10
712.196152
 20
360.0
  0
INSERT
  5
4F0
100
AcDbEntity
  8
0
100
AcDbBlockReference
  2
50_SP42020
 10
910.0
 20
320.0
 30
0.0
  0
TEXT
  5
555
100
AcDbEntity
  8
TEXT
100
AcDbText
 10
871.061905
 20
328.0
 30
0.0
 40
5.0
  1
%%U50_SP42020
 41
0.8
  7
ROMANS
 72
     1
 11
890.0
 21
328.0
 31
0.0
100
AcDbText
  0
TEXT
  5
556
100
AcDbEntity
  8
TEXT
100
AcDbText
 10
879.171594
 20
403.0
 30
0.0
 40
5.0
  1
%%UDISTANCE BLOCK
 41
0.8
  7
ROMANS
 72
     1
 11
904.109689
 21
403.0
 31
0.0
100
AcDbText
  0
LWPOLYLINE
  5
557
100
AcDbEntity
  8
SPKONTUR
100
AcDbPolyline
 90
       14
 70
     0
 43
0.0
 10
721.803848
 20
460.0
 10
721.0
 20
457.0
 42
0.414214
 10
723.0
 20
455.0
 10
728.0
 20
455.0
 42
0.414214
 10
730.0
 20
457.0
 10
730.0
 20
473.0
 42
0.414214
 10
728.0
 20
475.0
 10
692.0
 20
475.0
 42
0.414214
 10
690.0
 20
473.0
 10
690.0
 20
457.0
 42
0.414214
 10
692.0
 20
455.0
 10
711.0
 20
455.0
 42
0.414214
 10
713.0
 20
457.0
 10
712.196152
 20
460.0
  0
LWPOLYLINE
  5
558
100
AcDbEntity
  8
STALPROFIL
100
AcDbPolyline
 90
       14
 70
     0
 43
1.25
 10
722.407551
 20
459.838238
 10
721.627031
 20
456.925296
 42
0.398381
 10
723.0
 20
455.625
 10
728.0
 20
455.625
 42
0.414214
 10
729.375
 20
457.0
 10
729.375
 20
473.0
 42
0.414214
 10
728.0
 20
474.375
 10
692.0
 20
474.375
 42
0.414214
 10
690.625
 20
473.0
 10
690.625
 20
457.0
 42
0.414214
 10
692.0
 20
455.625
 10
711.0
 20
455.625
 42
0.398381
 10
712.372969
 20
456.925296
 10
711.592449
 20
459.838238
  0
TEXT
  5
559
100
AcDbEntity
  8
TEXT
100
AcDbText
 10
691.061905
 20
440.0
 30
0.0
 40
5.0
  1
%%U50_SP44020
 41
0.8
  7
ROMANS
 72
     1
 11
710.0
 21
440.0
 31
0.0
100
AcDbText
  0
INSERT
  5
55A
100
AcDbEntity
  8
0
100
AcDbBlockReference
  2
50_SP43520
 10
910.0
 20
450.0
 30
0.0
  0
TEXT
  5
5A3
100
AcDbEntity
  8
TEXT
100
AcDbText
 10
871.061905
 20
458.0
 30
0.0
 40
5.0
  1
%%U50_SP43520
 41
0.8
  7
ROMANS
 72
     1
 11
890.0
 21
458.0
 31
0.0
100
AcDbText
  0
LWPOLYLINE
  5
5A4
100
AcDbEntity
  8
RAM
 62
     5
100
AcDbPolyline
 90
        4
 70
     1
 43
0.0
 10
1592.873988
 20
0.157089
 10
1592.873988
 20
525.157089
 10
1232.873988
 20
525.157089
 10
1232.873988
 20
0.157089
  0
ARC
  5
5A5
100
AcDbEntity
  8
GLAS_MED_FOGNING
100
AcDbCircle
 10
1484.208202
 20
225.29272
 30
0.0
 40
73.190946
100
AcDbArc
 50
8.365178
 51
144.708826
  0
INSERT
  5
5A6
100
AcDbEntity
  8
0
100
AcDbBlockReference
  2
50_SP41520DK
 10
1405.0
 20
255.0
 30
0.0
  0
LINE
  5
5DB
100
AcDbEntity
  8
TEXT
100
AcDbLine
 10
1111.27689
 20
290.437864
 30
0.0
 11
1118.555642
 21
271.998604
 31
0.0
  0
INSERT
  5
5DC
100
AcDbEntity
  8
0
100
AcDbBlockReference
  2
50_SP41020DK
 10
1150.0
 20
265.0
 30
0.0
  0
LINE
  5
60B
100
AcDbEntity
  8
TEXT
100
AcDbLine
 10
992.716208
 20
290.884811
 30
0.0
 11
998.541063
 21
272.001134
 31
0.0
  0
INSERT
  5
60C
100
AcDbEntity
  8
0
100
AcDbBlockReference
  2
50_SP41520DK
 10
1030.0
 20
265.0
 30
0.0
  0
TEXT
  5
60D
100
AcDbEntity
  8
TEXT
100
AcDbText
 10
1433.724046
 20
229.049384
 30
0.0
 40
5.0
  1
PROILE AND CHOOSE THE INERTPOINT 
 41
0.8
  7
ROMANS
 72
     1
 11
1493.914522
 21
229.049384
 31
0.0
100
AcDbText
  0
TEXT
  5
60E
100
AcDbEntity
  8
TEXT
100
AcDbText
 10
1431.636989
 20
237.471879
 30
0.0
 40
5.0
  1
MOVE THE GLASS BEAD AGAINST THE 
 41
0.8
  7
ROMANS
 72
     1
 11
1490.779846
 21
237.471879
 31
0.0
100
AcDbText
  0
ARC
  5
60F
100
AcDbEntity
  8
GLAS_MED_FOGNING
100
AcDbCircle
 10
1485.739141
 20
252.89068
 30
0.0
 40
74.098295
100
AcDbArc
 50
220.638217
 51
343.055022
  0
LWPOLYLINE
  5
610
100
AcDbEntity
  8
TEXT
 62
     1
100
AcDbPolyline
 90
       12
 70
     1
 43
1.3
 10
1254.732922
 20
19.184697
 42
1.0
 10
1255.652161
 20
20.103936
 10
1253.709877
 20
22.046219
 42
-0.414214
 10
1253.709877
 20
24.803935
 10
1255.879116
 20
26.973174
 42
-0.198912
 10
1257.257974
 20
27.544316
 10
1259.142541
 20
27.544316
 42
1.0
 10
1259.142541
 20
28.844316
 10
1256.181019
 20
28.844316
 42
0.198912
 10
1255.7214
 20
28.653936
 10
1250.952161
 20
23.884697
 42
0.414214
 10
1250.952161
 20
22.965458
  0
TEXT
  5
611
100
AcDbEntity
  8
TEXT
 62
     1
100
AcDbText
 10
1263.328736
 20
16.544316
 30
0.0
 40
9.0
  1
STALPROFIL AB
 41
0.8
  7
ROMANS
100
AcDbText
  0
LWPOLYLINE
  5
612
100
AcDbEntity
  8
TEXT
 62
     1
100
AcDbPolyline
 90
       12
 70
     1
 43
1.3
 10
1256.150258
 20
24.044316
 42
1.0
 10
1255.231019
 20
23.125077
 10
1257.173303
 20
21.182794
 42
-0.414214
 10
1257.173303
 20
18.425077
 10
1255.004064
 20
16.255838
 42
-0.198912
 10
1253.625206
 20
15.684697
 10
1251.740638
 20
15.684697
 42
1.0
 10
1251.740638
 20
14.384697
 10
1254.702161
 20
14.384697
 42
0.198912
 10
1255.16178
 20
14.575077
 10
1259.931019
 20
19.344316
 42
0.414214
 10
1259.931019
 20
20.263555
  0
LWPOLYLINE
  5
613
100
AcDbEntity
  8
TEXT
 62
     1
100
AcDbPolyline
 90
       12
 70
     1
 43
0.8
 10
1255.157186
 20
19.608961
 42
1.000001
 10
1255.227897
 20
19.679671
 10
1253.285613
 20
21.621955
 42
-0.414214
 10
1253.285613
 20
25.2282
 10
1255.454852
 20
27.397438
 42
-0.198912
 10
1257.257974
 20
28.144316
 10
1259.142541
 20
28.144316
 42
1.0
 10
1259.142541
 20
28.244316
 10
1256.181019
 20
28.244316
 42
0.198912
 10
1256.145664
 20
28.229671
 10
1251.376425
 20
23.460433
 42
0.414214
 10
1251.376425
 20
23.389722
  0
LWPOLYLINE
  5
614
100
AcDbEntity
  8
TEXT
 62
     1
100
AcDbPolyline
 90
       12
 70
     1
 43
0.8
 10
1255.725994
 20
23.620052
 42
1.000001
 10
1255.655283
 20
23.549341
 10
1257.597567
 20
21.607058
 42
-0.414214
 10
1257.597567
 20
18.000813
 10
1255.428328
 20
15.831574
 42
-0.198912
 10
1253.625206
 20
15.084697
 10
1251.740638
 20
15.084697
 42
1.0
 10
1251.740638
 20
14.984697
 10
1254.702161
 20
14.984697
 42
0.198912
 10
1254.737516
 20
14.999341
 10
1259.506755
 20
19.76858
 42
0.414214
 10
1259.506755
 20
19.839291
  0
CIRCLE
  5
615
100
AcDbEntity
  8
TEXT
 62
     1
100
AcDbCircle
 10
1278.763289
 20
27.839833
 30
0.0
 40
1.021132
  0
LINE
  5
616
100
AcDbEntity
  8
TEXT
100
AcDbLine
 10
998.738344
 20
163.685782
 30
0.0
 11
1006.363804
 21
141.999677
 31
0.0
  0
INSERT
  5
617
100
AcDbEntity
  8
0
100
AcDbBlockReference
  2
50_SP40520FYLLN
 10
1030.0
 20
135.0
 30
0.0
  0
LWPOLYLINE
  5
66A
100
AcDbEntity
  8
CENTRUM
100
AcDbPolyline
 90
        4
 70
     0
 43
0.0
 10
1025.0
 20
92.5
 10
995.0
 20
92.5
 10
984.0
 20
92.5
 10
975.0
 20
92.5
  0
INSERT
  5
66B
100
AcDbEntity
  8
0
100
AcDbBlockReference
  2
SP42520
 10
1030.0
 20
30.0
 30
0.0
  0
INSERT
  5
672
100
AcDbEntity
  8
0
100
AcDbBlockReference
  2
GLAS11-6X5
 10
975.0
 20
30.0
 30
0.0
  0
TEXT
  5
6C4
100
AcDbEntity
  8
TEXT
100
AcDbText
 10
961.347619
 20
43.0
 30
0.0
 40
5.0
  1
%%UGLAS11-6X5
 41
0.8
  7
ROMANS
 72
     1
 11
980.0
 21
43.0
 31
0.0
100
AcDbText
  0
LINE
  5
6C5
100
AcDbEntity
  8
GLAS_MED_FOGNING
100
AcDbLine
 10
984.0
 20
92.5
 30
0.0
 11
984.0
 21
84.0
 31
0.0
  0
LINE
  5
6C6
100
AcDbEntity
  8
GLAS_MED_FOGNING
100
AcDbLine
 10
995.0
 20
92.5
 30
0.0
 11
995.0
 21
84.0
 31
0.0
  0
TEXT
  5
6C7
100
AcDbEntity
  8
TEXT
100
AcDbText
 10
1022.157143
 20
43.0
 30
0.0
 40
5.0
  1
%%USP42520
 41
0.8
  7
ROMANS
 72
     1
 11
1035.0
 21
43.0
 31
0.0
100
AcDbText
  0
TEXT
  5
6C8
100
AcDbEntity
  8
TEXT
100
AcDbText
 10
1007.919048
 20
143.0
 30
0.0
 40
5.0
  1
%%UFILLNING
 41
0.8
  7
ROMANS
 72
     1
 11
1020.0
 21
143.0
 31
0.0
100
AcDbText
  0
INSERT
  5
6C9
100
AcDbEntity
  8
0
100
AcDbBlockReference
  2
50_SP40052
 10
1090.0
 20
120.0
 30
0.0
  0
TEXT
  5
6CE
100
AcDbEntity
  8
TEXT
100
AcDbText
 10
1106.061905
 20
53.0
 30
0.0
 40
5.0
  1
%%U50_SP40052
 41
0.8
  7
ROMANS
 72
     1
 11
1125.0
 21
53.0
 31
0.0
100
AcDbText
  0
TEXT
  5
6CF
100
AcDbEntity
  8
TEXT
100
AcDbText
 10
1091.109524
 20
168.0
 30
0.0
 40
5.0
  1
%%U50_SP40052-INTUMEX
 41
0.8
  7
ROMANS
 72
     1
 11
1125.0
 21
168.0
 31
0.0
100
AcDbText
  0
INSERT
  5
6D0
100
AcDbEntity
  8
0
100
AcDbBlockReference
  2
SP40520
 10
1030.0
 20
190.0
 30
0.0
  0
TEXT
  5
6D1
100
AcDbEntity
  8
TEXT
100
AcDbText
 10
997.157143
 20
198.0
 30
0.0
 40
5.0
  1
%%USP40520
 41
0.8
  7
ROMANS
 72
     1
 11
1010.0
 21
198.0
 31
0.0
100
AcDbText
  0
TEXT
  5
6D2
100
AcDbEntity
  8
TEXT
100
AcDbText
 10
999.171594
 20
273.0
 30
0.0
 40
5.0
  1
%%UDISTANCE BLOCK
 41
0.8
  7
ROMANS
 72
     1
 11
1024.109689
 21
273.0
 31
0.0
100
AcDbText
  0
INSERT
  5
6D3
100
AcDbEntity
  8
GLAS_MED_FOGNING
100
AcDbBlockReference
  2
50_SP40052-INTUMEX
 10
1090.0
 20
235.0
 30
0.0
  0
TEXT
  5
713
100
AcDbEntity
  8
TEXT
100
AcDbText
 10
1119.171594
 20
273.0
 30
0.0
 40
5.0
  1
%%UDISTANCE BLOCK
 41
0.8
  7
ROMANS
 72
     1
 11
1144.109689
 21
273.0
 31
0.0
100
AcDbText
  0
TEXT
  5
714
100
AcDbEntity
  8
TEXT
100
AcDbText
 10
1365.171429
 20
218.0
 30
0.0
 40
5.0
  1
%%USP 35021
 41
0.8
  7
ROMANS
 72
     1
 11
1380.0
 21
218.0
 31
0.0
100
AcDbText
  0
INSERT
  5
715
100
AcDbEntity
  8
0
100
AcDbBlockReference
  2
SP35021
 10
1405.0
 20
220.0
 30
0.0
  0
TEXT
  5
716
100
AcDbEntity
  8
TEXT
100
AcDbText
 10
1433.083398
 20
222.095711
 30
0.0
 40
5.0
  1
AT THE PROFILE
 41
0.8
  7
ROMANS
 72
     1
 11
1457.654826
 21
222.095711
 31
0.0
100
AcDbText
  0
DIMENSION
  5
717
100
AcDbEntity
  8
GLAS_MED_FOGNING
100
AcDbDimension
  2
*D84
 10
1420.0
 20
220.0
 30
0.0
 11
1416.75
 21
232.5
 31
0.0
 12
1050.0
 22
-125.0
 32
0.0
  3
STANDARD
100
AcDbAlignedDimension
 13
1402.5
 23
245.0
 33
0.0
 14
1405.0
 24
220.0
 34
0.0
 50
90.0
100
AcDbRotatedDimension
1001
ACAD
1000
DSTYLE
1002
{
1070
    78
1070
     8
1070
   140
1040
3.5
1070
   142
1040
1.0
1070
    74
1070
     0
1070
   172
1070
     1
1070
    73
1070
     0
1070
    77
1070
     1
1070
   147
1040
1.5
1070
    42
1040
1.0
1070
    44
1040
2.0
1070
    43
1040
10.0
1070
   178
1070
     6
1070
   141
1040
2.5
1070
    41
1040
0.0
1002
}
  0
TEXT
  5
724
100
AcDbEntity
  8
TEXT
100
AcDbText
 10
1446.028433
 20
197.639919
 30
0.0
 40
5.0
  1
INSERTPOINT PROFILE
 41
0.8
  7
ROMANS
 72
     1
 11
1478.790338
 21
197.639919
 31
0.0
100
AcDbText
  0
LINE
  5
725
100
AcDbEntity
  8
GLAS_MED_FOGNING
100
AcDbLine
 10
1423.292677
 20
217.037037
 30
0.0
 11
1425.361332
 21
216.445155
 31
0.0
  0
LINE
  5
726
100
AcDbEntity
  8
GLAS_MED_FOGNING
100
AcDbLine
 10
1438.117447
 20
204.197531
 30
0.0
 11
1423.292677
 21
217.037037
 31
0.0
  0
LINE
  5
727
100
AcDbEntity
  8
GLAS_MED_FOGNING
100
AcDbLine
 10
1423.292677
 20
217.037037
 30
0.0
 11
1424.214395
 21
215.10796
 31
0.0
  0
TEXT
  5
728
100
AcDbEntity
  8
TEXT
100
AcDbText
 10
1439.514524
 20
247.639919
 30
0.0
 40
5.0
  1
CHOOSE INSERTPOINT AND
 41
0.8
  7
ROMANS
 72
     1
 11
1479.895476
 21
247.639919
 31
0.0
100
AcDbText
  0
TEXT
  5
729
100
AcDbEntity
  8
TEXT
100
AcDbText
 10
1439.951163
 20
267.639919
 30
0.0
 40
5.0
  1
INSERTPOINT GLASS BEAD
 41
0.8
  7
ROMANS
 72
     1
 11
1479.284497
 21
267.639919
 31
0.0
100
AcDbText
  0
DIMENSION
  5
72A
100
AcDbEntity
  8
GLAS_MED_FOGNING
100
AcDbDimension
  2
*D85
 10
1420.0
 20
255.0
 30
0.0
 11
1416.75
 21
267.5
 31
0.0
 12
1050.0
 22
-125.0
 32
0.0
  3
STANDARD
100
AcDbAlignedDimension
 13
1405.0
 23
280.0
 33
0.0
 14
1405.0
 24
255.0
 34
0.0
 50
90.0
100
AcDbRotatedDimension
1001
ACAD
1000
DSTYLE
1002
{
1070
    78
1070
     8
1070
   140
1040
3.5
1070
   142
1040
1.0
1070
    74
1070
     0
1070
   172
1070
     1
1070
    73
1070
     0
1070
    77
1070
     1
1070
   147
1040
1.5
1070
    42
1040
1.0
1070
    44
1040
2.0
1070
    43
1040
10.0
1070
   178
1070
     6
1070
   141
1040
2.5
1070
    41
1040
0.0
1002
}
  0
LINE
  5
737
100
AcDbEntity
  8
GLAS_MED_FOGNING
100
AcDbLine
 10
1425.763472
 20
255.555555
 30
0.0
 11
1427.091904
 21
258.730376
 31
0.0
  0
LINE
  5
738
100
AcDbEntity
  8
GLAS_MED_FOGNING
100
AcDbLine
 10
1425.763472
 20
255.555555
 30
0.0
 11
1429.214958
 21
256.873952
 31
0.0
  0
LINE
  5
739
100
AcDbEntity
  8
GLAS_MED_FOGNING
100
AcDbLine
 10
1436.140811
 20
264.444445
 30
0.0
 11
1425.763472
 21
255.555555
 31
0.0
  0
TEXT
  5
73A
100
AcDbEntity
  8
TEXT
100
AcDbText
 10
1252.841597
 20
434.713443
 30
0.0
 40
6.5
  1
If anything are missing select blockinsert, import the block and explode.
 41
0.8
  7
ROMANS
 72
     1
 11
1403.146359
 21
434.713443
 31
0.0
100
AcDbText
  0
LINE
  5
73B
100
AcDbEntity
  8
TEXT
100
AcDbLine
 10
1111.96285
 20
421.34675
 30
0.0
 11
1118.555642
 21
401.998604
 31
0.0
  0
INSERT
  5
73C
100
AcDbEntity
  8
0
100
AcDbBlockReference
  2
50_SP42520DK
 10
1150.0
 20
395.0
 30
0.0
  0
INSERT
  5
76B
100
AcDbEntity
  8
0
100
AcDbBlockReference
  2
50_SP43020DK
 10
1030.0
 20
395.0
 30
0.0
  0
LINE
  5
7A0
100
AcDbEntity
  8
TEXT
100
AcDbLine
 10
990.331298
 20
421.109415
 30
0.0
 11
998.555642
 21
401.998604
 31
0.0
  0
INSERT
  5
7A1
100
AcDbEntity
  8
0
100
AcDbBlockReference
  2
50_SP41520
 10
1030.0
 20
320.0
 30
0.0
  0
TEXT
  5
811
100
AcDbEntity
  8
TEXT
100
AcDbText
 10
991.061905
 20
328.0
 30
0.0
 40
5.0
  1
%%U50_SP41520
 41
0.8
  7
ROMANS
 72
     1
 11
1010.0
 21
328.0
 31
0.0
100
AcDbText
  0
TEXT
  5
812
100
AcDbEntity
  8
TEXT
100
AcDbText
 10
999.171594
 20
403.0
 30
0.0
 40
5.0
  1
%%UDISTANCE BLOCK
 41
0.8
  7
ROMANS
 72
     1
 11
1024.109689
 21
403.0
 31
0.0
100
AcDbText
  0
INSERT
  5
813
100
AcDbEntity
  8
0
100
AcDbBlockReference
  2
50_SP41020
 10
1150.0
 20
320.0
 30
0.0
  0
TEXT
  5
88C
100
AcDbEntity
  8
TEXT
100
AcDbText
 10
1111.061905
 20
328.0
 30
0.0
 40
5.0
  1
%%U50_SP41020
 41
0.8
  7
ROMANS
 72
     1
 11
1130.0
 21
328.0
 31
0.0
100
AcDbText
  0
TEXT
  5
88D
100
AcDbEntity
  8
TEXT
100
AcDbText
 10
1119.171594
 20
403.0
 30
0.0
 40
5.0
  1
%%UDISTANCE BLOCK
 41
0.8
  7
ROMANS
 72
     1
 11
1144.109689
 21
403.0
 31
0.0
100
AcDbText
  0
INSERT
  5
88E
100
AcDbEntity
  8
0
100
AcDbBlockReference
  2
50_SP43020
 10
1030.0
 20
450.0
 30
0.0
  0
TEXT
  5
8E0
100
AcDbEntity
  8
TEXT
100
AcDbText
 10
991.061905
 20
458.0
 30
0.0
 40
5.0
  1
%%U50_SP43020
 41
0.8
  7
ROMANS
 72
     1
 11
1010.0
 21
458.0
 31
0.0
100
AcDbText
  0
INSERT
  5
8E1
100
AcDbEntity
  8
0
100
AcDbBlockReference
  2
50_SP42520
 10
1150.0
 20
450.0
 30
0.0
  0
TEXT
  5
8EA
100
AcDbEntity
  8
TEXT
100
AcDbText
 10
1111.061905
 20
458.0
 30
0.0
 40
5.0
  1
%%U50_SP42520
 41
0.8
  7
ROMANS
 72
     1
 11
1130.0
 21
458.0
 31
0.0
100
AcDbText
  0
TEXT
  5
8EB
100
AcDbEntity
  8
TEXT
100
AcDbText
 10
1254.214422
 20
358.49222
 30
0.0
 40
6.5
  1
Setting tip: Set the snap to 5 mm, before blockinsert.
 41
0.8
  7
ROMANS
 72
     1
 11
1367.623946
 21
358.49222
 31
0.0
100
AcDbText
  0
TEXT
  5
8EC
100
AcDbEntity
  8
TEXT
100
AcDbText
 10
1253.492955
 20
376.213443
 30
0.0
 40
6.5
  1
the files that you need and continue as Alt. 1
 41
0.8
  7
ROMANS
 72
     1
 11
1349.692955
 21
376.213443
 31
0.0
100
AcDbText
  0
TEXT
  5
8ED
100
AcDbEntity
  8
TEXT
100
AcDbText
 10
1253.388741
 20
389.213443
 30
0.0
 40
6.5
  1
Begin from an empty drawing and choose blockinsert import
 41
0.8
  7
ROMANS
 72
     1
 11
1379.303027
 21
389.213443
 31
0.0
100
AcDbText
  0
TEXT
  5
8EE
100
AcDbEntity
  8
TEXT
100
AcDbText
 10
1371.571429
 20
318.0
 30
0.0
 40
5.0
  1
SP41520
 41
0.8
  7
ROMANS
 72
     1
 11
1385.0
 21
318.0
 31
0.0
100
AcDbText
  0
TEXT
  5
8EF
100
AcDbEntity
  8
TEXT
100
AcDbText
 10
1253.60449
 20
402.213443
 30
0.0
 40
6.5
  1
Alt 2.
 41
0.8
  7
ROMANS
 72
     1
 11
1264.252109
 21
402.213443
 31
0.0
100
AcDbText
  0
TEXT
  5
8F0
100
AcDbEntity
  8
TEXT
100
AcDbText
 10
1428.345321
 20
329.221318
 30
0.0
 40
6.5
  1
Alternative work with 
 41
0.8
  7
ROMANS
 72
     1
 11
1472.421511
 21
329.221318
 31
0.0
100
AcDbText
  0
TEXT
  5
8F1
100
AcDbEntity
  8
TEXT
100
AcDbText
 10
1428.907081
 20
320.858201
 30
0.0
 40
6.5
  1
snap 5 mm.
 41
0.8
  7
ROMANS
 72
     1
 11
1454.288033
 21
320.858201
 31
0.0
100
AcDbText
  0
LINE
  5
8F2
100
AcDbEntity
  8
GLAS_MED_FOGNING
100
AcDbLine
 10
1427.826247
 20
318.17797
 30
0.0
 11
1530.582646
 21
318.17797
 31
0.0
  0
LINE
  5
8F3
100
AcDbEntity
  8
GLAS_MED_FOGNING
100
AcDbLine
 10
1452.934146
 20
291.230152
 30
0.0
 11
1427.826247
 21
318.17797
 31
0.0
  0
TEXT
  5
8F4
100
AcDbEntity
  8
TEXT
100
AcDbText
 10
1253.001234
 20
421.713443
 30
0.0
 40
6.5
  1
Use the missing parts and continue.
 41
0.8
  7
ROMANS
 72
     1
 11
1328.277425
 21
421.713443
 31
0.0
100
AcDbText
  0
TEXT
  5
8F5
100
AcDbEntity
  8
TEXT
100
AcDbText
 10
1253.069546
 20
447.713443
 30
0.0
 40
6.5
  1
Opening an existing drawing, erase the parts you dont need.
 41
0.8
  7
ROMANS
 72
     1
 11
1379.107641
 21
447.713443
 31
0.0
100
AcDbText
  0
TEXT
  5
8F6
100
AcDbEntity
  8
TEXT
100
AcDbText
 10
1252.893676
 20
473.931894
 30
0.0
 40
6.5
  1
How to get started with the drawings.
 41
0.8
  7
ROMANS
 72
     1
 11
1331.512724
 21
473.931894
 31
0.0
100
AcDbText
  0
TEXT
  5
8F7
100
AcDbEntity
  8
TEXT
100
AcDbText
 10
1252.977547
 20
486.931894
 30
0.0
 40
6.5
  1
Using instructions for Stålprofils drawingfiles
 41
0.8
  7
ROMANS
 72
     1
 11
1343.606118
 21
486.931894
 31
0.0
100
AcDbText
  0
TEXT
  5
8F8
100
AcDbEntity
  8
TEXT
100
AcDbText
 10
1253.766874
 20
460.713443
 30
0.0
 40
6.5
  1
Alt 1.
 41
0.8
  7
ROMANS
 72
     1
 11
1264.414493
 21
460.713443
 31
0.0
100
AcDbText
  0
ENDSEC
  0
SECTION
  2
OBJECTS
  0
DICTIONARY
  5
1A
100
AcDbDictionary
  3
ACAD_GROUP
350
18
  3
ACAD_MLINESTYLE
350
19
  0
DICTIONARY
  5
18
102
{ACAD_REACTORS
330
1A
102
}
100
AcDbDictionary
  0
DICTIONARY
  5
19
102
{ACAD_REACTORS
330
1A
102
}
100
AcDbDictionary
  3
STANDARD
350
1C
  0
MLINESTYLE
  5
1C
102
{ACAD_REACTORS
330
19
102
}
100
AcDbMlineStyle
  2
STANDARD
 70
     0
  3

 62
     0
 51
90.0
 52
90.0
 71
     2
 49
0.5
 62
   256
  6
BYLAYER
 49
-0.5
 62
   256
  6
BYLAYER
  0
ENDSEC
  0
EOF
